osu file format v14

[General]
AudioFilename: FNAF 4 cancion.mp3
AudioLeadIn: 0
PreviewTime: 44380
Countdown: 1
SampleSet: Normal
StackLeniency: 0.7
Mode: 0
LetterboxInBreaks: 1
WidescreenStoryboard: 1

[Editor]
DistanceSpacing: 0.8
BeatDivisor: 1
GridSize: 32
TimelineZoom: 1

[Metadata]
Title:Break My Mind
TitleUnicode:Break My Mind
Artist:DaGames
ArtistUnicode:DaGames
Creator:MrCafecito
Version:Easy
Source:
Tags:fnaf 4, break my mind, dagames, five nights at freddy's 4
BeatmapID:778624
BeatmapSetID:347958

[Difficulty]
HPDrainRate:4
CircleSize:3
OverallDifficulty:3
ApproachRate:4
SliderMultiplier:1.4
SliderTickRate:1

[Events]
//Background and Video events
Video,0,"Break My Mind.avi"
0,0,"Cama.jpg",0,0
//Break Periods
2,44614,50478
2,66768,72632
2,103691,109555
2,173844,190786
//Storyboard Layer 0 (Background)
//Storyboard Layer 1 (Fail)
//Storyboard Layer 2 (Pass)
//Storyboard Layer 3 (Foreground)
//Storyboard Sound Samples

[TimingPoints]
14875.9614873757,461.53711613946,4,1,0,100,1,0

[Colours]
Combo1 : 255,0,0
Combo2 : 0,202,0
Combo3 : 254,248,18
Combo4 : 255,255,255

[HitObjects]
256,192,14875,5,0,0:0:0:0:
32,192,15799,1,0,0:0:0:0:
32,32,16722,1,0,0:0:0:0:
256,32,17645,1,0,0:0:0:0:
256,256,18568,2,0,P|160:256|160:224,1,140
160,128,19491,2,0,P|256:128|256:160,1,140
352,192,20414,1,0,0:0:0:0:
128,192,21337,1,0,0:0:0:0:
256,32,22260,6,0,P|256:96|192:128,1,140
192,256,23183,2,0,B|256:320|256:320|384:224,1,140
352,192,24106,1,0,0:0:0:0:
352,64,25029,1,0,0:0:0:0:
256,192,25952,12,0,28722,0:0:0:0:
32,192,29645,5,0,0:0:0:0:
256,192,30568,1,0,0:0:0:0:
480,192,31491,1,0,0:0:0:0:
256,192,32414,1,0,0:0:0:0:
64,96,33337,2,0,P|160:128|160:96,1,140
256,96,34260,2,0,P|384:128|384:160,1,140
320,192,35183,1,0,0:0:0:0:
160,320,36106,1,0,0:0:0:0:
32,160,37029,5,0,0:0:0:0:
224,32,37952,1,0,0:0:0:0:
384,160,38875,1,0,0:0:0:0:
256,320,39798,1,0,0:0:0:0:
256,192,40722,12,4,44414,0:0:0:0:
256,192,51798,5,0,0:0:0:0:
32,192,52722,1,0,0:0:0:0:
32,320,53645,2,0,B|192:320|192:352|160:160|320:256|416:352,1,420
416,224,55491,1,0,0:0:0:0:
256,64,56414,1,0,0:0:0:0:
256,192,57337,12,0,58721,0:0:0:0:
256,192,59183,5,0,0:0:0:0:
256,96,60106,1,0,0:0:0:0:
256,320,61029,1,0,0:0:0:0:
448,192,61952,1,0,0:0:0:0:
448,96,62875,2,0,B|256:192|192:96|64:288,1,420
256,192,64721,12,4,66568,0:0:0:0:
256,64,73952,5,0,0:0:0:0:
256,288,74875,1,0,0:0:0:0:
64,192,75798,1,0,0:0:0:0:
64,320,76721,1,0,0:0:0:0:
64,96,77645,2,0,B|224:128|192:128,1,140
192,224,78568,2,0,L|64:288,1,140
160,320,79491,1,0,0:0:0:0:
384,320,80414,1,0,0:0:0:0:
416,96,81337,6,0,L|256:96,2,140
416,224,82721,2,0,L|256:224,2,140
352,320,84106,1,0,0:0:0:0:
256,192,84568,12,0,87798,0:0:0:0:
64,96,88721,6,0,P|192:128|192:96,1,140
256,128,89644,2,0,B|416:96|384:96|352:256|320:192|288:192,1,140
288,256,90568,1,0,0:0:0:0:
64,256,91491,1,0,0:0:0:0:
128,37,92414,2,0,P|258:118|286:75,1,140
318,132,93337,2,0,P|439:62|483:148,1,140
466,175,94260,1,0,0:0:0:0:
316,310,95183,1,0,0:0:0:0:
92,226,96106,2,0,L|233:111,1,140
315,91,97029,2,0,L|416:201,1,140
297,243,97952,1,0,0:0:0:0:
133,89,98875,1,0,0:0:0:0:
256,192,99798,12,4,103491,0:0:0:0:
32,352,110875,5,0,0:0:0:0:
32,128,111798,1,0,0:0:0:0:
256,192,112721,2,0,P|416:192|416:160,1,140
480,192,113644,2,0,P|352:96|320:128,1,140
288,64,114567,1,0,0:0:0:0:
64,160,115491,1,0,0:0:0:0:
256,192,116414,12,0,117798,0:0:0:0:
64,64,118260,5,0,0:0:0:0:
224,192,119183,1,0,0:0:0:0:
416,96,120106,2,0,B|256:96|256:128|288:128,1,140
160,96,121029,2,0,B|0:96|0:128|32:128,1,140
32,224,121952,1,0,0:0:0:0:
288,224,122875,1,0,0:0:0:0:
480,96,123798,2,0,B|224:128|160:64|96:224|256:256,1,420
256,192,125644,12,0,128414,0:0:0:0:
256,64,129337,5,0,0:0:0:0:
32,128,130260,1,0,0:0:0:0:
224,224,131183,2,0,B|384:192|320:192|320:160,2,140
160,320,132567,1,0,0:0:0:0:
288,320,133029,1,0,0:0:0:0:
448,192,133952,1,0,0:0:0:0:
224,192,134875,1,0,0:0:0:0:
32,96,135798,2,0,L|224:96,1,140
416,96,137183,5,0,0:0:0:0:
416,320,138106,1,0,0:0:0:0:
320,320,138567,2,0,B|160:320|160:288|128:288,1,140
64,288,139490,2,0,B|64:128|96:128|96:160,1,140
256,64,140875,1,0,0:0:0:0:
448,160,141798,1,0,0:0:0:0:
352,256,142260,1,0,0:0:0:0:
224,192,142721,2,0,L|384:128,2,140
64,160,144567,5,0,0:0:0:0:
192,352,145490,1,0,0:0:0:0:
352,224,146414,1,0,0:0:0:0:
192,64,147337,1,0,0:0:0:0:
416,64,148260,1,0,0:0:0:0:
256,224,149183,1,0,0:0:0:0:
160,192,149644,2,0,P|288:64|320:128,1,280
384,160,151029,1,0,0:0:0:0:
448,320,151952,5,0,0:0:0:0:
256,320,152875,1,0,0:0:0:0:
256,128,153798,1,0,0:0:0:0:
32,128,154721,1,0,0:0:0:0:
64,224,155183,2,0,B|256:256|288:224|320:256,2,280
384,160,158414,1,0,0:0:0:0:
160,64,159337,5,0,0:0:0:0:
160,288,160260,1,0,0:0:0:0:
384,192,161183,1,0,0:0:0:0:
352,96,162106,1,0,0:0:0:0:
160,192,163029,2,0,P|352:256|352:192,1,280
352,192,164413,1,0,0:0:0:0:
480,32,165337,1,0,0:0:0:0:
288,64,166260,1,0,0:0:0:0:
128,192,167183,5,0,0:0:0:0:
320,320,168106,1,0,0:0:0:0:
448,128,169029,1,0,0:0:0:0:
224,64,169952,1,0,0:0:0:0:
96,256,170875,1,0,0:0:0:0:
320,192,171798,1,0,0:0:0:0:
256,192,172260,12,4,173644,0:0:0:0:
64,64,192106,5,0,0:0:0:0:
64,256,193029,1,0,0:0:0:0:
288,256,193952,1,0,0:0:0:0:
288,32,194875,1,0,0:0:0:0:
480,128,195798,2,0,L|480:288,1,140
256,192,197183,12,0,199029,0:0:0:0:
256,320,199490,5,0,0:0:0:0:
256,96,200413,1,0,0:0:0:0:
64,192,201336,2,0,L|256:192,1,140
224,320,202260,2,0,L|64:320,1,140
96,224,203183,1,0,0:0:0:0:
256,96,204106,1,0,0:0:0:0:
416,224,205029,1,0,0:0:0:0:
192,224,205952,1,0,0:0:0:0:
256,192,206875,12,0,209644,0:0:0:0:
64,160,210567,5,0,0:0:0:0:
256,192,211490,1,0,0:0:0:0:
64,320,212413,1,0,0:0:0:0:
288,320,213336,1,0,0:0:0:0:
256,96,214259,1,0,0:0:0:0:
131,161,214721,2,0,B|419:257|419:289|195:289|195:33|483:97,1,560
480,224,217029,1,0,0:0:0:0:
288,320,217952,5,0,0:0:0:0:
64,320,218875,1,0,0:0:0:0:
64,96,219798,1,0,0:0:0:0:
256,192,220721,1,0,0:0:0:0:
256,64,221644,1,0,0:0:0:0:
256,192,222106,12,4,225336,0:0:0:0:
