osu file format v9

[General]
AudioFilename: 01 - SHINY SHINY -TV mix-.mp3
AudioLeadIn: 0
PreviewTime: 54134
Countdown: 0
SampleSet: Soft
StackLeniency: 0.5
Mode: 0
LetterboxInBreaks: 0

[Editor]
Bookmarks: 38896,44372,54134,69372
DistanceSpacing: 1
BeatDivisor: 4
GridSize: 8

[Metadata]
Title:SHINY SHINY (TV Size)
Artist:DWB feat. NIRGILIS
Creator:eldnl
Version:Insane
Source:Deadman Wonderland
Tags:OzzyOzrock Haneii

[Difficulty]
HPDrainRate:7
CircleSize:5
OverallDifficulty:7
ApproachRate:7
SliderMultiplier:2.1
SliderTickRate:2

[Events]
//Background and Video events
0,0,"BG.jpg"
Video,750,"SHINYSHINY.avi"
//Break Periods
//Storyboard Layer 0 (Background)
//Storyboard Layer 1 (Fail)
//Storyboard Layer 2 (Pass)
//Storyboard Layer 3 (Foreground)
//Storyboard Sound Samples
//Background Colour Transformations
3,100,163,162,255

[TimingPoints]
8439,476.190476190476,4,2,0,60,1,0
37486,-100,4,2,0,80,0,0
54153,-100,4,2,0,80,0,1
67486,-133.333333333333,4,2,0,80,0,1
68915,-133.333333333333,4,2,0,80,0,0
69391,-100,4,2,0,80,0,1
82843,-100,4,2,0,50,0,1
83617,-100,4,2,0,60,0,1
83855,-100,4,2,0,65,0,1
84093,-100,4,2,0,80,0,1
84629,-100,4,2,0,80,0,0
84867,-100,4,2,0,40,0,0

[Colours]
Combo1 : 255,9,70
Combo2 : 122,122,122
Combo3 : 187,0,4

[HitObjects]
96,320,8915,1,2
96,320,9391,2,2,B|208:329|296:266,1,210
392,304,10105,1,2
392,304,10581,2,0,B|330:217|339:105,1,210,0|2
339,105,11296,1,0
128,88,11772,5,0
48,152,12010,1,0
144,192,12248,2,0,B|200:177|238:258|196:336|141:319,1,210,2|0
64,256,12962,1,0
64,256,13200,2,0,B|272:256,1,210,2|0
352,328,13915,2,0,B|414:241|405:129,1,210,2|0
312,88,14629,1,0
405,129,14867,1,2
88,112,15581,5,0
88,112,15819,2,0,B|163:194|271:208,1,210,2|0
352,272,16534,2,0,B|248:296,2,105,0|2|0
152,328,17486,5,0
56,296,17724,1,0
56,296,17962,2,0,B|118:209|109:97,1,210,2|0
208,64,18677,2,0,B|262:161|363:198,1,210,2|0
448,264,19391,2,0,B|344:288,1,105,0|2
256,336,19867,2,0,B|360:312,1,105,0|2
64,264,20343,2,0,B|168:288,1,105,0|2
256,336,20819,2,0,B|152:312,1,105,0|2
72,120,21534,5,0
72,120,21772,2,0,B|157:48|264:50,1,210,2|0
368,80,22486,2,0,B|296:160,1,105,2|0
256,248,22962,2,0,B|328:168,2,105,2|0|2
88,192,23677,6,0,B|30:200|27:289|96:344|140:307,1,210,4|2
240,328,24391,1,0
336,296,24629,2,0,B|362:187|450:126,1,210,2|0
368,64,25343,2,0,B|264:88,1,105
160,64,25819,1,2
64,96,26058,1,0
104,192,26296,1,2
280,304,26772,6,0,B|384:280,1,105
464,216,27248,1,0
368,176,27486,2,0,B|260:178|175:105,1,210,2|0
175,105,28200,1,0
280,80,28438,2,0,B|244:186|151:239,1,210,2|2
150,239,29153,1,2
344,328,29629,6,2,B|408:240,1,105
448,88,30105,2,0,B|384:176,2,105,0|0|2
72,288,31058,2,0,B|165:234|201:128,1,210,2|0
96,136,31772,2,0,B|56:40,2,105,2|0|0
201,128,32486,1,0
304,160,32724,6,0,B|392:104,1,105,2|0
368,208,33200,2,0,B|280:264,1,105,2|0
279,264,33677,1,0
192,320,33915,1,2
88,288,34153,1,0
48,192,34391,2,0,B|97:96|201:54,1,210,2|2
360,192,35343,1,2
152,192,35581,1,2
336,328,37962,6,0,B|358:222|448:155,1,210,4|4
360,96,38677,1,0
344,88,38796,1,0
328,80,38915,2,0,B|224:64,1,105,4|0
120,72,39391,2,0,B|224:88,1,105
48,144,39867,1,0
144,192,40105,1,0
48,240,40343,1,0
144,288,40581,6,0,B|251:280|330:200,1,210
416,256,41296,1,0
424,240,41415,1,0
432,224,41534,1,0
440,208,41653,1,0
432,192,41772,2,0,B|392:96,1,105,2|0
296,48,42248,2,0,B|336:144,1,105,2|0
136,96,42724,6,0,B|66:147|49:229,2,157.5
256,264,43915,2,0,B|152:240,1,105
64,296,44391,2,0,B|168:320,1,105
352,296,44867,5,0
360,280,44986,1,0
368,264,45105,1,0
376,248,45224,1,0
384,232,45343,1,0
392,216,45462,1,0
400,200,45581,2,0,B|373:149|318:135,1,105,2|0
256,56,46058,2,0,B|229:106|174:120,1,105,2|0
160,120,46415,1,0
144,120,46534,6,0,B|74:171|57:253,2,157.5,4|0|0
280,280,47724,2,0,B|368:216,1,105
464,184,48200,2,0,B|376:248,1,105
368,144,48677,1,0
272,104,48915,5,0
256,96,49034,1,0
240,88,49153,1,0
224,80,49272,1,0
208,72,49391,2,0,B|181:122|126:136,1,105,2|0
64,264,49867,2,0,B|91:214|146:200,1,105,2|0
256,320,50343,5,4
469,192,50700,1,0
224,73,51058,1,0
256,192,51534,12,0,53200
72,104,53677,5,0
160,48,53915,1,0
192,144,54153,2,0,B|303:158|392:98,1,210,4|8
440,192,54867,2,0,B|352:248,1,105
280,328,55343,2,0,B|368:272,2,105,0|8|8
176,320,56058,5,0
80,272,56296,1,0
128,176,56534,1,8
224,224,56772,1,0
120,232,57010,1,0
48,152,57248,1,0
80,56,57486,1,8
80,56,57724,1,8
176,96,57962,6,0,B|221:126|276:112,1,105
368,64,58438,2,0,B|322:33|267:47,1,105,8|0
264,184,58915,2,0,B|207:196|210:285|283:335|324:295,1,210,0|8
424,320,59629,2,0,B|480:307|477:218|404:168|363:208,1,210,8|0
363,208,60343,1,8
112,48,60819,5,0
40,128,61058,1,0
96,216,61296,1,8
200,188,61534,2,0,B|244:150|313:205|310:294|256:304,1,210,8|0
152,328,62248,1,8
400,48,62724,5,0
472,128,62962,1,0
416,216,63200,1,8
311,188,63438,2,0,B|267:150|198:205|201:294|256:304,1,210,8|0
360,328,64153,1,8
176,64,64629,5,0
336,64,64867,1,0
128,128,65105,1,8
384,128,65343,5,2
48,224,65819,1,2
464,224,66296,1,2
120,320,66772,1,2
392,320,67248,1,2
256,344,67486,5,4
256,240,67724,1,0
264,224,67843,1,0
272,208,67962,1,0
272,192,68081,1,0
264,176,68200,1,0
256,160,68319,1,0
248,144,68438,1,0
240,128,68558,1,0
240,112,68677,1,0
248,96,68796,1,0
256,80,68915,1,0
56,136,69153,5,0
64,152,69272,1,0
72,168,69391,2,0,B|120:264,1,105,4|0
144,160,69867,2,0,B|96:64,1,105,8|0
200,48,70343,2,0,B|291:112|398:101,1,210,0|8
464,184,71058,1,8
416,280,71296,6,0,B|312:312,1,105
208,312,71772,2,0,B|312:280,1,105,8|0
208,312,72248,1,0
120,256,72486,1,0
80,352,72724,1,8
120,256,72962,1,8
64,88,73200,6,0,B|109:118|164:104,1,105
256,56,73677,2,0,B|211:26|156:40,2,105,8|0|0
360,80,74391,1,0
360,80,74510,1,8
360,80,74629,1,8
440,152,74867,2,0,B|352:220|331:325,1,210,8|0
256,256,75581,1,8
144,40,76058,5,0
48,88,76296,2,0,B|70:137|48:189,1,105,0|8
144,144,76772,2,0,B|79:234|90:341,1,210,8|0
192,312,77486,1,8
368,40,77962,5,0
464,88,78200,2,0,B|441:137|463:189,1,105,0|8
368,144,78677,2,0,B|432:234|421:341,1,210,8|0
320,312,79391,1,8
120,128,79867,5,0
200,64,80105,1,0
312,64,80343,1,8
392,128,80581,1,2
136,328,81058,2,2,B|83:349|32:276|60:193|118:201,1,210
376,328,82010,2,2,B|428:349|479:276|451:193|393:201,1,210
256,344,82724,5,4
256,240,82962,1,2
240,232,83081,1,0
228,220,83200,1,0
224,204,83319,1,0
224,188,83438,1,2
232,176,83558,1,0
244,168,83677,1,0
256,160,83796,1,0
272,152,83915,1,0
284,144,84034,1,0
292,132,84153,1,2
292,116,84272,1,0
288,100,84391,1,0
276,88,84510,1,0
260,80,84629,1,2
256,344,85105,5,0
288,248,85343,1,2
392,216,85581,1,0
480,272,85819,1,0
392,216,86058,1,0
365,115,86296,1,2
267,67,86534,1,0
176,120,86772,5,2
85,207,87010,1,0
210,192,87248,1,0
97,132,87486,1,2
155,244,87724,1,0
256,240,87962,1,0
344,296,88200,5,2
352,280,88319,1,2
360,264,88438,1,0
456,216,88677,1,2
429,115,88915,1,0
331,67,89153,1,0
243,115,89391,1,2
152,72,89629,1,0
152,72,89867,1,0
152,72,90105,1,2
