osu file format v9

[General]
AudioFilename: 01 - SHINY SHINY -TV mix-.mp3
AudioLeadIn: 0
PreviewTime: 54134
Countdown: 0
SampleSet: Soft
StackLeniency: 0.5
Mode: 0
LetterboxInBreaks: 0

[Editor]
Bookmarks: 38896,54134,69372
DistanceSpacing: 1
BeatDivisor: 4
GridSize: 8

[Metadata]
Title:SHINY SHINY (TV Size)
Artist:DWB feat. NIRGILIS
Creator:eldnl
Version:Hard
Source:Deadman Wonderland
Tags:OzzyOzrock Haneii

[Difficulty]
HPDrainRate:6
CircleSize:4
OverallDifficulty:5
ApproachRate:6
SliderMultiplier:1.8
SliderTickRate:2

[Events]
//Background and Video events
0,0,"BG.jpg"
Video,750,"SHINYSHINY.avi"
//Break Periods
//Storyboard Layer 0 (Background)
//Storyboard Layer 1 (Fail)
//Storyboard Layer 2 (Pass)
//Storyboard Layer 3 (Foreground)
//Storyboard Sound Samples
//Background Colour Transformations
3,100,163,162,255

[TimingPoints]
8439,476.190476190476,4,2,0,60,1,0
37486,-100,4,2,0,80,0,0
54153,-100,4,2,0,80,0,1
67486,-133.333333333333,4,2,0,80,0,1
68915,-100,4,2,0,80,0,0
69391,-100,4,2,0,80,0,1
84629,-100,4,2,0,80,0,0
84867,-100,4,2,0,40,0,0

[Colours]
Combo1 : 255,9,70
Combo2 : 122,122,122
Combo3 : 187,0,4

[HitObjects]
136,64,8915,1,2
136,64,9391,2,2,B|247:154|389:136,1,270
464,296,10581,2,0,B|370:277|291:329,1,180,0|2
208,296,11296,1,2
48,80,12010,5,0
48,80,12248,2,0,B|142:61|221:113,1,180,2|0
288,56,12962,1,0
368,96,13200,2,0,B|303:166|307:261,1,180,2|2
307,260,13915,1,2
128,296,14391,2,0,B|216:272,2,90,0|0|2
416,288,15581,5,0
416,288,15819,2,0,B|381:198|419:111,1,180,2|0
340,72,16534,1,0
256,108,16772,1,2
56,312,17724,5,0
56,312,17962,2,0,B|167:222|309:240,1,270,2|0
440,184,19153,2,0,B|347:153|303:69,1,180,0|2
304,72,19867,1,0
216,96,20105,2,0,B|128:72,1,90,0|2
144,160,20581,2,0,B|56:136,1,90,0|2
57,136,21058,1,0
448,232,21534,5,0
448,232,21772,2,0,B|380:303|285:307,1,180,2|0
208,264,22486,2,0,B|128:304,1,90,0|2
200,248,22962,2,0,B|280:208,1,90,2|0
192,232,23438,1,2
104,168,23677,6,0,B|145:79|233:44,1,180,4|2
320,56,24391,1,0
392,112,24629,2,0,B|464:168,1,90,2|0
376,320,25343,5,0
312,256,25581,1,0
232,296,25819,2,0,B|144:338|53:310,1,180,2|0
57,311,26534,1,2
64,128,27010,5,2
112,48,27248,1,0
200,80,27486,1,2
448,128,27962,1,2
400,48,28200,1,0
312,80,28438,1,2
256,252,28915,1,2
256,164,29153,1,2
312,328,29629,5,2
200,328,29867,1,2
344,232,30105,1,0
168,232,30343,1,0
256,164,30581,1,2
440,64,31058,5,2
72,320,31772,1,2
192,112,32248,2,0,B|200:64|254:37|312:64|320:112,2,180
208,288,33677,6,0,B|120:312,1,90,0|2
304,288,34153,2,0,B|392:312,1,90,0|2
448,144,34867,1,2
64,144,35343,1,2
256,64,35581,1,2
64,272,37962,6,0,B|144:328|238:314,1,180,4|4
312,272,38677,1,0
320,256,38796,1,0
328,240,38915,2,0,B|416:208,1,90,4|0
432,120,39391,2,0,B|344:152,1,90
304,72,39867,1,0
256,144,40105,1,0
208,72,40343,1,0
128,112,40581,6,0,B|63:182|67:277,1,180
144,320,41296,1,0
208,264,41534,1,0
224,264,41653,1,0
240,264,41772,1,2
320,304,42010,1,0
400,264,42248,1,2
456,192,42486,6,0,B|408:112,1,90
320,136,42962,2,0,B|222:130|157:61,1,180
88,120,43677,1,0
144,192,43915,1,0
88,264,44153,2,0,B|144:336,1,90
232,304,44629,6,0,B|329:314|405:256,1,180
440,176,45343,2,0,B|400:96,1,90,0|2
336,160,45819,2,0,B|296:80,1,90,0|2
208,56,46296,1,0
120,80,46534,5,4
120,80,46772,1,0
56,144,47010,2,0,B|91:234|53:321,1,180
144,296,47724,1,0
232,320,47962,1,0
232,320,48200,1,0
320,296,48438,6,0,B|414:272|465:192,1,180
352,56,49391,2,2,B|257:79|206:159,1,180
256,192,50343,12,0,53677
216,312,54153,6,0,B|119:303|56:231,3,180,4|8|0|8
88,152,55819,1,8
88,152,56058,1,0
256,80,56534,1,8
424,152,57010,1,0
256,80,57486,1,8
296,312,57962,6,0,B|393:303|456:231,1,180,0|8
424,152,58677,2,0,B|344:112,1,90
88,152,59391,2,0,B|168:112,1,90,8|8
256,272,60105,1,0
256,272,60343,1,8
432,64,60819,5,0
384,136,61058,1,0
448,192,61296,1,8
448,192,61534,2,0,B|443:288|374:355,1,180,8|0
296,312,62248,1,8
80,64,62724,5,0
128,136,62962,1,0
64,192,63200,1,8
64,192,63438,2,0,B|68:288|137:355,1,180,8|0
216,312,64153,1,8
256,112,64629,6,0,B|256:24,2,90,0|0|8
256,112,65343,1,2
432,96,65819,1,2
80,96,66296,1,2
464,224,66772,1,2
48,224,67248,1,2
256,320,67724,6,0,B|312:200|192:184|256:56|256:56,1,269.999991953373,2|0
384,304,69391,6,0,B|389:208|458:141,1,180,4|8
128,304,70343,2,0,B|123:208|54:141,1,180,0|8
376,96,71296,2,0,B|304:160|295:256,1,180,0|8
136,96,72248,2,0,B|207:160|216:256,1,180,0|8
256,80,73200,5,0
320,144,73438,1,0
408,124,73677,2,0,B|407:219|342:290,1,180,8|0
168,288,74629,1,8
167,288,74867,2,0,B|104:219|104:124,1,180,8|0
192,144,75581,1,8
384,72,76058,6,0,B|456:128,2,90,0|0|8
456,128,76772,2,0,B|374:176|345:268,1,180,8|0
256,280,77486,1,8
128,72,77962,6,0,B|56:128,2,90,0|0|8
56,128,78677,2,0,B|137:176|166:268,1,180,8|0
256,280,79391,1,8
336,96,79867,5,0
256,56,80105,1,0
256,144,80343,1,8
176,96,80581,1,2
456,232,81058,2,2,B|362:247|302:322,1,180
56,232,82010,2,2,B|149:247|209:322,1,180
256,248,82724,6,0,B|310:170|403:149,1,180,4|8
256,248,83677,2,0,B|201:170|108:149,1,180,4|8
256,48,84629,1,0
256,48,85105,5,0
320,112,85343,1,2
408,112,85581,1,0
456,192,85819,1,0
408,272,86058,1,0
320,272,86296,1,2
256,336,86534,5,0
192,272,86772,1,2
104,272,87010,1,0
56,192,87248,1,0
104,112,87486,1,2
192,112,87724,1,0
256,48,87962,1,0
320,112,88200,5,2
336,120,88319,1,2
352,128,88438,1,0
432,168,88677,1,2
360,224,88915,1,0
448,248,89153,1,0
376,304,89391,1,2
288,288,89629,1,0
288,288,89867,1,0
288,288,90105,1,2
