osu file format v9

[General]
AudioFilename: 01 - SHINY SHINY -TV mix-.mp3
AudioLeadIn: 0
PreviewTime: 54134
Countdown: 0
SampleSet: Soft
StackLeniency: 0.5
Mode: 0
LetterboxInBreaks: 0

[Editor]
Bookmarks: 38896,54153,69372
DistanceSpacing: 1
BeatDivisor: 4
GridSize: 8

[Metadata]
Title:SHINY SHINY (TV Size)
Artist:DWB feat. NIRGILIS
Creator:eldnl
Version:Easy
Source:Deadman Wonderland
Tags:OzzyOzrock Haneii

[Difficulty]
HPDrainRate:2
CircleSize:3
OverallDifficulty:1
ApproachRate:3
SliderMultiplier:1.2
SliderTickRate:2

[Events]
//Background and Video events
0,0,"BG.jpg"
Video,750,"SHINYSHINY.avi"
//Break Periods
//Storyboard Layer 0 (Background)
//Storyboard Layer 1 (Fail)
//Storyboard Layer 2 (Pass)
//Storyboard Layer 3 (Foreground)
//Storyboard Sound Samples
//Background Colour Transformations
3,100,163,162,255

[TimingPoints]
8439,476.190476190476,4,2,0,60,1,0
37486,-100,4,2,0,80,0,0
54153,-100,4,2,0,80,0,1
68915,-100,4,2,0,80,0,0
69391,-100,4,2,0,80,0,1
84629,-100,4,2,0,40,0,0

[Colours]
Combo1 : 255,9,70
Combo2 : 122,122,122
Combo3 : 187,0,4

[HitObjects]
88,264,8915,1,2
200,312,9391,2,0,B|296:325|367:257,1,180,2|2
304,152,10581,2,0,B|400:72,1,120,0|2
96,72,12248,6,0,B|64:132|96:192,1,120,2|0
200,192,13200,2,0,B|232:252|200:312,1,120,2|0
320,320,14153,2,2,B|418:236|414:108,2,240
144,336,16772,6,0,B|72:269|80:171,1,180,0|0
144,72,17962,2,0,B|228:121|319:84,1,180,2|0
408,168,19153,2,0,B|296:208,1,120,0|2
400,272,20105,2,0,B|288:312,1,120,0|2
56,128,21772,6,0,B|154:122|211:42,1,180,2|2
320,88,22962,2,0,B|440:120,1,120,0|2
416,176,23677,6,0,B|384:236|416:296,1,120,4|2
296,296,24629,2,0,B|201:321|122:262,1,180,2|0
80,152,25819,2,0,B|160:64,1,120,0|2
280,88,26772,2,0,B|333:129|398:108,1,120,2|2
432,160,27486,6,0,B|375:274|249:302,1,240,2|0
128,288,28915,2,0,B|64:264|47:198,1,120,0|2
72,88,29867,2,0,B|135:111|152:177,1,120,0|2
264,128,30819,2,0,B|200:104|183:38,2,120,0|2|0
384,160,32248,5,0
384,280,32724,2,0,B|280:344,1,120,0|2
168,304,33677,2,0,B|153:243|89:220,1,120
64,160,34391,2,0,B|78:99|142:76,2,120,2|0|2
32,216,35581,1,2
448,296,37962,6,0,B|387:313|336:268,1,120,4|4
216,248,38915,2,0,B|148:246|113:298,1,120,4|0
80,184,39867,2,0,B|40:128,2,60
168,104,40819,2,0,B|276:170|400:128,1,240,0|2
432,240,42248,1,2
328,304,42724,6,0,B|268:270|213:305,1,120,0|0
168,192,43677,2,0,B|108:225|53:190,1,120,0|0
112,88,44629,2,0,B|220:21|342:64,1,240,0|2
432,144,46058,1,2
392,256,46534,6,0,B|312:344,1,120,4|0
296,224,47486,2,0,B|216:312,1,120
96,288,48438,2,0,B|134:166|63:58,1,240,0|2
184,48,49867,1,2
256,192,50343,12,0,53200
64,312,54153,6,0,B|98:252|63:197,1,120,4|8
184,176,55105,2,0,B|151:116|186:61,1,120,0|8
304,88,56058,1,0
424,64,56534,2,0,B|411:191|304:262,1,240,8|8
192,296,57962,6,0,B|72:296,2,120,0|8|0
136,192,59391,2,0,B|54:136|47:38,1,180,8|0
224,56,60819,6,0,B|317:43|388:111,1,180,0|2
432,224,62010,1,2
288,328,62724,6,0,B|194:340|123:272,1,180,0|2
80,160,63915,1,2
256,192,64629,12,0,68438
448,72,69391,6,0,B|414:132|449:187,1,120,4|8
328,208,70343,2,0,B|361:268|326:323,1,120,0|8
208,296,71296,1,0
96,256,71772,2,0,B|61:202|95:142,1,120,8|0
192,72,72724,1,8
312,88,73200,6,0,B|432:88,2,120,0|8|0
368,192,74629,2,0,B|488:192,2,120,8|0|8
352,312,76058,5,0
256,240,76534,1,8
160,312,77010,1,0
160,72,77962,5,0
256,144,78438,1,8
352,72,78915,1,0
256,192,79867,12,0,84153
80,72,85105,5,0
192,120,85581,1,2
304,72,86058,1,0
384,160,86534,5,0
304,248,87010,1,0
192,280,87486,1,2
80,312,87962,1,0
104,192,88438,5,0
80,72,88915,1,0
192,104,89391,1,2
304,72,89867,1,0
360,72,90105,1,2
