osu file format v14

[General]
AudioFilename: CFbVWKkE1hLW.128.mp3
AudioLeadIn: 0
PreviewTime: 67443
Countdown: 0
SampleSet: None
StackLeniency: 0.7
Mode: 1
LetterboxInBreaks: 0
WidescreenStoryboard: 1

[Editor]
DistanceSpacing: 1.4
BeatDivisor: 4
GridSize: 32
TimelineZoom: 1.8

[Metadata]
Title:Boom!
TitleUnicode:Boom!
Artist:DUO KIE
ArtistUnicode:DUO KIE
Creator:dani
Version:futsuu
Source:
Tags:
BeatmapID:698460
BeatmapSetID:310027

[Difficulty]
HPDrainRate:3
CircleSize:2
OverallDifficulty:3
ApproachRate:0
SliderMultiplier:2.3
SliderTickRate:1

[Events]
//Background and Video events
0,0,"duokie.jpg",0,0
//Break Periods
//Storyboard Layer 0 (Background)
//Storyboard Layer 1 (Fail)
//Storyboard Layer 2 (Pass)
//Storyboard Layer 3 (Foreground)
//Storyboard Sound Samples

[TimingPoints]
9768,300,4,1,0,100,1,0
9768,-166.666666666667,4,1,0,100,0,1
28968,600,4,1,0,100,1,0
29121,-100,4,1,0,100,0,0
67368,300,4,1,0,100,1,0
67443,-133.333333333333,4,1,0,100,0,1
86568,600,4,1,0,100,1,0
86727,-100,4,1,0,100,0,0
124968,300,4,1,0,100,1,0
125118,-133.333333333333,4,1,0,100,0,1
144168,600,4,1,0,100,1,0
144344,-100,4,1,0,100,0,0
182568,300,4,1,0,100,1,0
182568,-133.333333333333,4,1,0,100,0,1
201768,600,4,1,0,100,1,0
202239,-100,4,1,0,100,0,0

[HitObjects]
256,192,9768,5,4,0:0:0:0:
256,224,10368,1,8,0:0:0:0:
256,224,11268,1,0,0:0:0:0:
256,224,11568,1,8,0:0:0:0:
256,224,12168,1,0,0:0:0:0:
256,224,12468,1,0,0:0:0:0:
256,224,12768,1,8,0:0:0:0:
256,224,13368,1,0,0:0:0:0:
256,224,13668,1,0,0:0:0:0:
256,224,13968,1,8,0:0:0:0:
256,224,14268,1,8,0:0:0:0:
256,224,14568,1,0,0:0:0:0:
256,224,15168,1,8,0:0:0:0:
256,224,16068,1,0,0:0:0:0:
256,224,16368,1,8,0:0:0:0:
256,224,16968,1,0,0:0:0:0:
256,224,17268,1,0,0:0:0:0:
256,224,17568,1,8,0:0:0:0:
256,224,18168,1,0,0:0:0:0:
256,224,18468,1,8,0:0:0:0:
256,224,18768,1,0,0:0:0:0:
256,224,19068,1,8,0:0:0:0:
256,224,19368,1,4,0:0:0:0:
256,224,19968,1,8,0:0:0:0:
256,224,20868,1,0,0:0:0:0:
256,224,21168,1,8,0:0:0:0:
256,224,21768,1,0,0:0:0:0:
256,224,22068,1,0,0:0:0:0:
256,224,22368,1,8,0:0:0:0:
256,224,22968,1,0,0:0:0:0:
256,224,23268,1,0,0:0:0:0:
256,224,23568,1,8,0:0:0:0:
256,224,23868,1,8,0:0:0:0:
256,224,24168,1,0,0:0:0:0:
256,224,24768,1,8,0:0:0:0:
256,224,25668,1,0,0:0:0:0:
256,224,25968,1,8,0:0:0:0:
256,224,26568,1,0,0:0:0:0:
256,224,26868,1,0,0:0:0:0:
256,224,27168,1,8,0:0:0:0:
256,224,27768,1,0,0:0:0:0:
256,224,28068,1,8,0:0:0:0:
256,224,28368,1,0,0:0:0:0:
256,224,28668,1,8,0:0:0:0:
256,224,28968,1,4,0:0:0:0:
256,224,29568,1,8,0:0:0:0:
256,192,30468,1,0,0:0:0:0:
256,192,30768,1,8,0:0:0:0:
256,192,31368,1,0,0:0:0:0:
256,192,31968,1,8,0:0:0:0:
224,192,32568,1,0,0:0:0:0:
224,192,32868,1,0,0:0:0:0:
256,192,33168,1,8,0:0:0:0:
256,192,33768,1,0,0:0:0:0:
256,192,34368,1,8,0:0:0:0:
256,192,35268,1,0,0:0:0:0:
256,192,35568,1,8,0:0:0:0:
224,192,36168,1,0,0:0:0:0:
224,192,36468,1,0,0:0:0:0:
32,224,36768,1,8,0:0:0:0:
256,192,37368,1,0,0:0:0:0:
256,192,37968,1,8,0:0:0:0:
256,192,38568,1,4,0:0:0:0:
256,192,39168,1,8,0:0:0:0:
256,224,39768,1,0,0:0:0:0:
256,192,40368,1,8,0:0:0:0:
256,192,40668,1,8,0:0:0:0:
256,224,40968,1,0,0:0:0:0:
256,192,41568,1,8,0:0:0:0:
256,192,41868,1,8,0:0:0:0:
256,224,42168,1,0,0:0:0:0:
256,192,42768,1,8,0:0:0:0:
256,224,43368,1,0,0:0:0:0:
256,192,43668,1,8,0:0:0:0:
256,192,43968,1,8,0:0:0:0:
256,224,44568,1,0,0:0:0:0:
256,192,45168,1,8,0:0:0:0:
256,224,45768,1,0,0:0:0:0:
256,192,46368,1,8,0:0:0:0:
256,192,46668,1,8,0:0:0:0:
256,224,46968,1,0,0:0:0:0:
256,192,47568,1,8,0:0:0:0:
256,192,47868,1,8,0:0:0:0:
256,224,48168,1,4,0:0:0:0:
256,224,48768,1,8,0:0:0:0:
256,224,49068,1,0,0:0:0:0:
256,224,49368,1,0,0:0:0:0:
256,224,49968,1,8,0:0:0:0:
256,224,50568,1,0,0:0:0:0:
256,224,50868,1,0,0:0:0:0:
256,224,51168,1,8,0:0:0:0:
256,224,51468,1,0,0:0:0:0:
256,224,51768,1,0,0:0:0:0:
256,224,52068,1,0,0:0:0:0:
256,224,52368,1,8,0:0:0:0:
256,224,52668,1,0,0:0:0:0:
256,224,52968,1,0,0:0:0:0:
256,224,53568,1,8,0:0:0:0:
256,224,54468,1,0,0:0:0:0:
256,224,54768,1,8,0:0:0:0:
256,224,55368,1,0,0:0:0:0:
256,224,55668,1,0,0:0:0:0:
256,224,55968,1,8,0:0:0:0:
256,224,56268,1,0,0:0:0:0:
256,224,56568,1,0,0:0:0:0:
256,224,57168,1,8,0:0:0:0:
256,224,57768,1,4,0:0:0:0:
256,224,58368,1,8,0:0:0:0:
256,224,58668,1,8,0:0:0:0:
256,224,58968,1,0,0:0:0:0:
256,224,59268,1,8,0:0:0:0:
256,224,59568,1,8,0:0:0:0:
256,224,59868,1,8,0:0:0:0:
256,224,60168,1,0,0:0:0:0:
224,224,60768,1,8,0:0:0:0:
224,224,61068,1,8,0:0:0:0:
256,224,61368,1,0,0:0:0:0:
256,224,61668,1,8,0:0:0:0:
256,224,61968,1,8,0:0:0:0:
256,224,62568,1,0,0:0:0:0:
256,224,63168,1,8,0:0:0:0:
256,224,63768,1,0,0:0:0:0:
256,224,64368,1,8,0:0:0:0:
256,224,64968,1,0,0:0:0:0:
256,224,65268,1,8,0:0:0:0:
256,224,65568,1,8,0:0:0:0:
256,224,66168,1,0,0:0:0:0:
224,256,66468,1,8,0:0:0:0:
224,256,66768,1,8,0:0:0:0:
224,256,67068,1,0,0:0:0:0:
256,224,67368,1,4,0:0:0:0:
256,224,67968,1,8,0:0:0:0:
256,224,68868,1,0,0:0:0:0:
256,224,69168,1,8,0:0:0:0:
256,224,69768,1,0,0:0:0:0:
256,224,70068,1,0,0:0:0:0:
256,224,70368,1,8,0:0:0:0:
256,224,70968,1,0,0:0:0:0:
256,224,71268,1,0,0:0:0:0:
256,224,71568,1,8,0:0:0:0:
256,224,71868,1,8,0:0:0:0:
256,224,72168,1,0,0:0:0:0:
256,224,72768,1,8,0:0:0:0:
256,224,73668,1,0,0:0:0:0:
256,224,73968,1,8,0:0:0:0:
256,224,74568,1,0,0:0:0:0:
256,224,74868,1,0,0:0:0:0:
256,224,75168,1,8,0:0:0:0:
256,224,75768,1,0,0:0:0:0:
256,224,76068,1,8,0:0:0:0:
256,224,76368,1,0,0:0:0:0:
256,224,76668,1,8,0:0:0:0:
256,224,76968,1,4,0:0:0:0:
256,224,77568,1,8,0:0:0:0:
256,224,78468,1,0,0:0:0:0:
256,224,78768,1,8,0:0:0:0:
256,224,79368,1,0,0:0:0:0:
256,224,79668,1,0,0:0:0:0:
256,224,79968,1,8,0:0:0:0:
256,224,80568,1,0,0:0:0:0:
256,224,80868,1,0,0:0:0:0:
256,224,81168,1,8,0:0:0:0:
256,224,81468,1,8,0:0:0:0:
256,224,81768,1,0,0:0:0:0:
256,224,82368,1,8,0:0:0:0:
256,224,83268,1,0,0:0:0:0:
256,224,83568,1,8,0:0:0:0:
256,224,84168,1,0,0:0:0:0:
256,224,84468,1,0,0:0:0:0:
256,224,84768,1,8,0:0:0:0:
256,224,85368,1,0,0:0:0:0:
256,224,85668,1,8,0:0:0:0:
256,224,85968,1,0,0:0:0:0:
256,224,86268,1,8,0:0:0:0:
256,224,86568,1,4,0:0:0:0:
256,224,87168,1,8,0:0:0:0:
256,224,87468,1,8,0:0:0:0:
256,224,87768,1,8,0:0:0:0:
256,224,88368,1,8,0:0:0:0:
224,224,88968,1,0,0:0:0:0:
224,224,89568,1,8,0:0:0:0:
224,224,90168,1,0,0:0:0:0:
224,224,90468,1,0,0:0:0:0:
224,224,90768,1,8,0:0:0:0:
224,224,91068,1,8,0:0:0:0:
224,224,91368,1,0,0:0:0:0:
224,224,91968,1,8,0:0:0:0:
224,224,92868,1,0,0:0:0:0:
224,224,93168,1,8,0:0:0:0:
224,224,93768,1,0,0:0:0:0:
224,224,94068,1,0,0:0:0:0:
224,224,94368,1,8,0:0:0:0:
224,224,94968,1,0,0:0:0:0:
224,224,95268,1,8,0:0:0:0:
224,224,95568,1,0,0:0:0:0:
224,224,95868,1,8,0:0:0:0:
224,224,96168,1,4,0:0:0:0:
224,224,96768,1,8,0:0:0:0:
224,224,97368,1,0,0:0:0:0:
224,224,97668,1,0,0:0:0:0:
224,224,97968,1,8,0:0:0:0:
224,224,98568,1,0,0:0:0:0:
224,224,98868,1,0,0:0:0:0:
224,224,99168,1,8,0:0:0:0:
224,224,99768,1,0,0:0:0:0:
224,224,100068,1,0,0:0:0:0:
224,256,100368,1,8,0:0:0:0:
224,224,100968,1,0,0:0:0:0:
224,224,101568,1,8,0:0:0:0:
224,224,102468,1,0,0:0:0:0:
224,224,102768,1,8,0:0:0:0:
224,224,103368,1,8,0:0:0:0:
224,224,103668,1,8,0:0:0:0:
224,224,103968,1,8,0:0:0:0:
224,224,104568,1,0,0:0:0:0:
224,224,104868,1,8,0:0:0:0:
224,224,105168,1,0,0:0:0:0:
224,224,105468,1,8,0:0:0:0:
224,224,105768,1,4,0:0:0:0:
224,224,106368,1,8,0:0:0:0:
224,224,106668,1,0,0:0:0:0:
224,224,107268,1,0,0:0:0:0:
224,224,107568,1,8,0:0:0:0:
224,224,108168,1,0,0:0:0:0:
224,224,108768,1,8,0:0:0:0:
224,224,109368,1,0,0:0:0:0:
224,224,109668,1,0,0:0:0:0:
224,224,109968,1,8,0:0:0:0:
224,224,110568,1,0,0:0:0:0:
224,224,111168,1,8,0:0:0:0:
224,224,111468,1,0,0:0:0:0:
224,224,112068,1,0,0:0:0:0:
224,224,112368,1,8,0:0:0:0:
224,224,112968,1,0,0:0:0:0:
224,224,113268,1,0,0:0:0:0:
224,224,114168,1,0,0:0:0:0:
224,224,114768,1,8,0:0:0:0:
224,224,115368,1,4,0:0:0:0:
224,224,115968,1,8,0:0:0:0:
224,224,116568,1,8,0:0:0:0:
224,224,117168,1,0,0:0:0:0:
224,224,117318,1,0,0:0:0:0:
224,224,117768,1,0,0:0:0:0:
224,224,118368,1,8,0:0:0:0:
224,224,118968,1,8,0:0:0:0:
224,224,119568,1,0,0:0:0:0:
224,224,119718,1,0,0:0:0:0:
224,224,120768,1,0,0:0:0:0:
224,224,121368,1,0,0:0:0:0:
224,224,121968,1,0,0:0:0:0:
224,224,122568,1,4,0:0:0:0:
224,224,123168,1,4,0:0:0:0:
224,224,123768,1,4,0:0:0:0:
224,224,124368,1,0,0:0:0:0:
224,224,124968,1,4,0:0:0:0:
256,224,125568,5,8,0:0:0:0:
256,224,126468,1,0,0:0:0:0:
256,224,126768,1,8,0:0:0:0:
256,224,127368,1,0,0:0:0:0:
256,224,127668,1,0,0:0:0:0:
256,224,127968,1,8,0:0:0:0:
256,224,128568,1,0,0:0:0:0:
256,224,128868,1,0,0:0:0:0:
256,224,129168,1,8,0:0:0:0:
256,224,129468,1,8,0:0:0:0:
256,224,129768,1,0,0:0:0:0:
256,224,130368,1,8,0:0:0:0:
256,224,131268,1,0,0:0:0:0:
256,224,131568,1,8,0:0:0:0:
256,224,132168,1,0,0:0:0:0:
256,224,132468,1,0,0:0:0:0:
256,224,132768,1,8,0:0:0:0:
256,224,133368,1,0,0:0:0:0:
256,224,133668,1,8,0:0:0:0:
256,224,133968,1,0,0:0:0:0:
256,224,134268,1,8,0:0:0:0:
256,224,134568,1,4,0:0:0:0:
256,224,135168,1,8,0:0:0:0:
256,224,136068,1,0,0:0:0:0:
256,224,136368,1,8,0:0:0:0:
256,224,136968,1,0,0:0:0:0:
256,224,137268,1,0,0:0:0:0:
256,224,137568,1,8,0:0:0:0:
256,224,138168,1,0,0:0:0:0:
256,224,138468,1,0,0:0:0:0:
256,224,138768,1,8,0:0:0:0:
256,224,139068,1,8,0:0:0:0:
256,224,139368,1,0,0:0:0:0:
256,224,139968,1,8,0:0:0:0:
256,224,140868,1,0,0:0:0:0:
256,224,141168,1,8,0:0:0:0:
256,224,141768,1,0,0:0:0:0:
256,224,142068,1,0,0:0:0:0:
256,224,142368,1,8,0:0:0:0:
256,224,142968,1,0,0:0:0:0:
256,224,143268,1,8,0:0:0:0:
256,224,143568,1,0,0:0:0:0:
256,224,143868,1,8,0:0:0:0:
256,224,144168,1,4,0:0:0:0:
256,224,144768,1,0,0:0:0:0:
256,224,145368,1,8,0:0:0:0:
256,224,145968,1,0,0:0:0:0:
256,224,146568,1,0,0:0:0:0:
256,224,146868,1,0,0:0:0:0:
256,224,147168,1,8,0:0:0:0:
256,224,147768,1,0,0:0:0:0:
256,224,148068,1,0,0:0:0:0:
256,224,148368,1,8,0:0:0:0:
256,224,148668,1,8,0:0:0:0:
256,224,148968,1,0,0:0:0:0:
256,224,149568,1,8,0:0:0:0:
256,224,150468,1,0,0:0:0:0:
256,224,150768,1,8,0:0:0:0:
256,224,151368,1,0,0:0:0:0:
256,224,151668,1,0,0:0:0:0:
256,224,151968,1,8,0:0:0:0:
256,224,152568,1,0,0:0:0:0:
256,224,153168,1,8,0:0:0:0:
256,224,153768,1,4,0:0:0:0:
256,224,154368,1,8,0:0:0:0:
256,224,154668,1,8,0:0:0:0:
256,224,154968,1,8,0:0:0:0:
256,224,155568,1,8,0:0:0:0:
256,224,156168,1,0,0:0:0:0:
256,224,156768,1,8,0:0:0:0:
256,224,157368,1,8,0:0:0:0:
256,224,157668,1,8,0:0:0:0:
256,224,157968,1,8,0:0:0:0:
256,224,158568,1,0,0:0:0:0:
256,224,159168,1,8,0:0:0:0:
256,224,159768,1,8,0:0:0:0:
256,224,160368,1,8,0:0:0:0:
256,224,160968,1,0,0:0:0:0:
256,224,161268,1,0,0:0:0:0:
256,224,161568,1,8,0:0:0:0:
256,224,162168,1,0,0:0:0:0:
256,224,162768,1,8,0:0:0:0:
256,224,163368,1,4,0:0:0:0:
256,224,163968,1,8,0:0:0:0:
256,224,164568,1,8,0:0:0:0:
256,224,164868,1,8,0:0:0:0:
256,224,165168,1,8,0:0:0:0:
256,224,165768,1,0,0:0:0:0:
256,224,166368,1,8,0:0:0:0:
256,224,166968,1,0,0:0:0:0:
256,224,167568,1,8,0:0:0:0:
256,224,168168,1,0,0:0:0:0:
256,224,168468,1,0,0:0:0:0:
256,224,168768,1,8,0:0:0:0:
256,224,169368,1,0,0:0:0:0:
256,224,169968,1,8,0:0:0:0:
256,224,170568,1,0,0:0:0:0:
256,224,170868,1,0,0:0:0:0:
256,224,171168,1,8,0:0:0:0:
256,224,171768,1,0,0:0:0:0:
256,224,172368,1,8,0:0:0:0:
256,224,172968,1,4,0:0:0:0:
256,224,173568,1,8,0:0:0:0:
256,224,174168,1,8,0:0:0:0:
256,224,174468,1,8,0:0:0:0:
256,224,174768,1,8,0:0:0:0:
256,224,175368,1,0,0:0:0:0:
256,224,175968,1,8,0:0:0:0:
256,224,176568,1,0,0:0:0:0:
256,224,177168,1,8,0:0:0:0:
256,224,177468,1,8,0:0:0:0:
256,224,177768,1,0,0:0:0:0:
256,224,178368,1,8,0:0:0:0:
256,224,178668,1,8,0:0:0:0:
256,224,178968,1,8,0:0:0:0:
256,224,179568,1,0,0:0:0:0:
256,224,180168,1,4,0:0:0:0:
256,224,180768,1,0,0:0:0:0:
256,224,181368,5,4,0:0:0:0:
256,224,181968,1,4,0:0:0:0:
256,224,182568,1,4,0:0:0:0:
256,224,183168,5,8,0:0:0:0:
256,224,184068,1,0,0:0:0:0:
256,224,184368,1,8,0:0:0:0:
256,224,184968,1,0,0:0:0:0:
256,224,185268,1,0,0:0:0:0:
256,224,185568,1,8,0:0:0:0:
256,224,186168,1,0,0:0:0:0:
256,224,186468,1,0,0:0:0:0:
256,224,186768,1,8,0:0:0:0:
256,224,187068,1,8,0:0:0:0:
256,224,187368,1,0,0:0:0:0:
256,224,187968,1,8,0:0:0:0:
256,224,188868,1,0,0:0:0:0:
256,224,189168,1,8,0:0:0:0:
256,224,189768,1,0,0:0:0:0:
256,224,190068,1,0,0:0:0:0:
256,224,190368,1,8,0:0:0:0:
256,224,190968,1,0,0:0:0:0:
256,224,191268,1,8,0:0:0:0:
256,224,191568,1,0,0:0:0:0:
256,224,191868,1,8,0:0:0:0:
256,224,192168,1,4,0:0:0:0:
256,224,192768,1,8,0:0:0:0:
256,224,193668,1,0,0:0:0:0:
256,224,193968,1,8,0:0:0:0:
256,224,194568,1,0,0:0:0:0:
256,224,194868,1,0,0:0:0:0:
256,224,195168,1,8,0:0:0:0:
256,224,195768,1,0,0:0:0:0:
256,224,196068,1,0,0:0:0:0:
256,224,196368,1,8,0:0:0:0:
256,224,196668,1,8,0:0:0:0:
256,224,196968,1,0,0:0:0:0:
256,224,197568,1,8,0:0:0:0:
256,224,198468,1,0,0:0:0:0:
256,224,198768,1,8,0:0:0:0:
256,224,199368,1,0,0:0:0:0:
256,224,199668,1,0,0:0:0:0:
256,224,199968,1,8,0:0:0:0:
256,224,200568,1,0,0:0:0:0:
256,224,200868,1,8,0:0:0:0:
256,224,201168,1,0,0:0:0:0:
256,224,201468,1,8,0:0:0:0:
256,224,201768,1,4,0:0:0:0:
