osu file format v14

[General]
AudioFilename: ED2.mp3
AudioLeadIn: 0
PreviewTime: 53399
Countdown: 0
SampleSet: Normal
StackLeniency: 0.7
Mode: 1
LetterboxInBreaks: 0
WidescreenStoryboard: 0

[Editor]
DistanceSpacing: 1.2
BeatDivisor: 4
GridSize: 4
TimelineZoom: 1

[Metadata]
Title:PLATINUM JET
TitleUnicode:プラチナジェット
Artist:DONUT QUINTET
ArtistUnicode:どーなつ◎くいんてっと
Creator:Charlotte
Version:Oni
Source:SHIROBAKO
Tags:ending ed tv size musashino animation musani どんどんドーナツ ! どーんといこう ! Don-Don-Donuts ! Let's go nuts ! nardoxyribonucleic hanjamon
BeatmapID:679937
BeatmapSetID:303409

[Difficulty]
HPDrainRate:6
CircleSize:5
OverallDifficulty:5
ApproachRate:5
SliderMultiplier:1.4
SliderTickRate:1

[Events]
//Background and Video events
0,0,"BG.jpg",0,120
//Break Periods
//Storyboard Layer 0 (Background)
//Storyboard Layer 1 (Fail)
//Storyboard Layer 2 (Pass)
//Storyboard Layer 3 (Foreground)
//Storyboard Sound Samples

[TimingPoints]
2102,458.015267175573,4,1,0,45,1,0
9430,-100,4,1,0,65,0,0
24086,-100,4,1,0,55,0,0
38743,-100,4,1,0,65,0,0
53399,-100,4,1,0,65,0,1
84544,-100,4,1,0,65,0,0

[HitObjects]
248,188,2102,5,0,0:0:0:0:
248,188,2560,1,0,0:0:0:0:
248,188,2789,1,8,0:0:0:0:
248,188,3247,1,8,0:0:0:0:
248,188,3476,1,0,0:0:0:0:
248,188,3934,1,0,0:0:0:0:
248,188,4163,1,8,0:0:0:0:
248,188,4392,1,0,0:0:0:0:
248,188,4621,1,8,0:0:0:0:
248,188,5079,1,0,0:0:0:0:
248,188,5308,1,0,0:0:0:0:
248,188,5766,1,8,0:0:0:0:
248,188,5995,1,0,0:0:0:0:
248,188,6109,1,0,0:0:0:0:
248,188,6224,1,8,0:0:0:0:
248,188,6453,1,8,0:0:0:0:
248,188,6682,1,0,0:0:0:0:
248,188,7025,1,0,0:0:0:0:
248,188,7369,1,0,0:0:0:0:
248,188,7483,1,0,0:0:0:0:
248,188,7598,1,8,0:0:0:0:
248,188,7827,1,0,0:0:0:0:
248,188,8056,1,8,0:0:0:0:
248,188,8399,1,8,0:0:0:0:
248,188,8628,1,8,0:0:0:0:
248,188,8743,1,0,0:0:0:0:
248,188,8972,1,12,0:0:0:0:
248,188,9430,1,12,0:0:0:0:
248,188,9659,1,0,0:0:0:0:
248,188,9773,1,0,0:0:0:0:
248,188,9888,1,8,0:0:0:0:
248,188,10117,1,8,0:0:0:0:
248,188,10346,1,0,0:0:0:0:
248,188,10804,1,8,0:0:0:0:
248,188,11033,1,0,0:0:0:0:
248,188,11147,1,0,0:0:0:0:
248,188,11262,1,8,0:0:0:0:
248,188,11491,1,8,0:0:0:0:
248,188,11720,1,0,0:0:0:0:
248,188,11949,1,8,0:0:0:0:
248,188,12063,1,8,0:0:0:0:
248,188,12178,1,0,0:0:0:0:
248,188,12636,1,8,0:0:0:0:
248,188,13094,1,8,0:0:0:0:
248,188,13323,1,0,0:0:0:0:
248,188,13437,1,0,0:0:0:0:
248,188,13552,1,8,0:0:0:0:
248,188,13781,1,8,0:0:0:0:
248,188,14010,1,0,0:0:0:0:
248,188,14468,1,8,0:0:0:0:
248,188,14697,1,0,0:0:0:0:
248,188,14926,1,8,0:0:0:0:
248,188,15155,1,8,0:0:0:0:
248,188,15269,1,8,0:0:0:0:
248,188,15384,1,0,0:0:0:0:
248,188,15498,1,0,0:0:0:0:
248,188,15613,1,8,0:0:0:0:
248,188,15727,1,8,0:0:0:0:
248,188,15842,1,0,0:0:0:0:
248,188,16071,1,8,0:0:0:0:
248,188,16300,1,0,0:0:0:0:
248,188,16414,1,0,0:0:0:0:
248,188,16529,1,0,0:0:0:0:
248,188,16758,1,12,0:0:0:0:
248,188,16987,1,0,0:0:0:0:
248,188,17101,1,0,0:0:0:0:
248,188,17216,1,8,0:0:0:0:
248,188,17445,1,8,0:0:0:0:
248,188,17674,1,0,0:0:0:0:
248,188,18132,1,8,0:0:0:0:
248,188,18361,1,0,0:0:0:0:
248,188,18475,1,0,0:0:0:0:
248,188,18590,1,8,0:0:0:0:
248,188,18819,1,8,0:0:0:0:
248,188,19048,1,0,0:0:0:0:
248,188,19277,1,8,0:0:0:0:
248,188,19391,1,8,0:0:0:0:
248,188,19506,1,0,0:0:0:0:
248,188,19735,1,8,0:0:0:0:
248,188,19964,1,0,0:0:0:0:
248,188,20079,1,0,0:0:0:0:
248,188,20193,1,8,0:0:0:0:
248,188,20422,1,0,0:0:0:0:
248,188,20537,1,0,0:0:0:0:
248,188,20651,1,8,0:0:0:0:
248,188,20766,1,8,0:0:0:0:
248,188,20880,1,0,0:0:0:0:
248,188,21109,1,8,0:0:0:0:
248,188,21224,1,8,0:0:0:0:
248,188,21338,1,0,0:0:0:0:
248,188,21453,1,0,0:0:0:0:
248,188,21567,1,0,0:0:0:0:
248,188,21682,1,0,0:0:0:0:
248,188,21796,1,8,0:0:0:0:
248,188,22025,1,4,0:0:0:0:
248,188,22483,1,12,0:0:0:0:
248,188,22941,1,12,0:0:0:0:
248,188,24086,1,0,0:0:0:0:
248,188,24315,1,0,0:0:0:0:
248,188,24544,1,8,0:0:0:0:
248,188,24773,1,0,0:0:0:0:
248,188,24888,1,8,0:0:0:0:
248,188,25117,1,8,0:0:0:0:
248,188,25231,1,0,0:0:0:0:
248,188,25460,1,8,0:0:0:0:
248,188,25690,1,0,0:0:0:0:
248,188,25804,1,0,0:0:0:0:
248,188,25918,1,8,0:0:0:0:
248,188,26147,1,0,0:0:0:0:
248,188,26376,1,8,0:0:0:0:
248,188,26605,1,0,0:0:0:0:
248,188,26720,1,8,0:0:0:0:
248,188,26834,1,0,0:0:0:0:
248,188,27063,1,0,0:0:0:0:
248,188,27292,1,8,0:0:0:0:
248,188,27521,1,0,0:0:0:0:
248,188,27979,1,0,0:0:0:0:
248,188,28208,1,8,0:0:0:0:
248,188,28437,1,0,0:0:0:0:
248,188,28552,1,0,0:0:0:0:
248,188,28666,1,8,0:0:0:0:
248,188,28895,1,0,0:0:0:0:
248,188,29124,1,8,0:0:0:0:
248,188,29239,1,8,0:0:0:0:
248,188,29353,1,0,0:0:0:0:
248,188,29582,1,0,0:0:0:0:
248,188,29811,1,8,0:0:0:0:
248,188,30040,1,0,0:0:0:0:
248,188,30269,1,8,0:0:0:0:
248,188,30727,1,0,0:0:0:0:
248,188,30956,1,0,0:0:0:0:
248,188,31185,1,8,0:0:0:0:
248,188,31643,1,0,0:0:0:0:
248,188,31872,1,8,0:0:0:0:
248,188,32101,1,0,0:0:0:0:
248,188,32216,1,8,0:0:0:0:
248,188,32445,1,8,0:0:0:0:
248,188,32560,1,0,0:0:0:0:
248,188,32789,1,8,0:0:0:0:
248,188,33019,1,0,0:0:0:0:
248,188,33133,1,8,0:0:0:0:
248,188,33247,1,8,0:0:0:0:
248,188,33476,1,0,0:0:0:0:
248,188,33591,1,0,0:0:0:0:
248,188,33705,1,8,0:0:0:0:
248,188,33934,1,0,0:0:0:0:
248,188,34392,1,8,0:0:0:0:
248,188,34621,1,8,0:0:0:0:
248,188,34850,1,4,0:0:0:0:
248,188,35308,1,0,0:0:0:0:
248,188,35537,1,8,0:0:0:0:
248,188,35766,1,0,0:0:0:0:
248,188,35880,1,8,0:0:0:0:
248,188,35995,1,0,0:0:0:0:
248,188,36109,1,0,0:0:0:0:
248,188,36224,1,8,0:0:0:0:
248,188,36338,1,8,0:0:0:0:
248,188,36453,1,0,0:0:0:0:
248,188,36682,1,12,0:0:0:0:
248,188,37369,1,0,0:0:0:0:
248,188,37827,1,8,0:0:0:0:
248,188,38056,1,0,0:0:0:0:
248,188,38285,1,8,0:0:0:0:
248,188,38514,1,8,0:0:0:0:
248,188,38743,1,0,0:0:0:0:
248,188,38972,1,0,0:0:0:0:
248,188,39086,1,0,0:0:0:0:
248,188,39201,1,8,0:0:0:0:
248,188,39430,1,0,0:0:0:0:
248,188,39659,1,8,0:0:0:0:
248,188,39888,1,8,0:0:0:0:
248,188,40346,1,8,0:0:0:0:
248,188,40804,1,0,0:0:0:0:
248,188,40918,1,0,0:0:0:0:
248,188,41033,1,0,0:0:0:0:
248,188,41262,1,8,0:0:0:0:
248,188,41491,1,0,0:0:0:0:
248,188,41720,1,8,0:0:0:0:
248,188,42178,1,0,0:0:0:0:
248,188,42407,1,8,0:0:0:0:
248,188,42636,1,0,0:0:0:0:
248,188,42750,1,0,0:0:0:0:
248,188,42865,1,0,0:0:0:0:
248,188,43094,1,0,0:0:0:0:
248,188,43323,1,8,0:0:0:0:
248,188,43552,1,0,0:0:0:0:
248,188,44010,1,0,0:0:0:0:
248,188,44468,1,0,0:0:0:0:
248,188,44697,1,8,0:0:0:0:
248,188,44926,1,0,0:0:0:0:
248,188,45040,1,0,0:0:0:0:
248,188,45155,1,0,0:0:0:0:
248,188,45384,1,12,0:0:0:0:
248,188,46071,1,0,0:0:0:0:
248,188,46185,1,8,0:0:0:0:
248,188,46414,1,8,0:0:0:0:
248,188,46529,1,0,0:0:0:0:
248,188,46758,1,0,0:0:0:0:
248,188,46872,1,8,0:0:0:0:
248,188,47102,1,8,0:0:0:0:
248,188,47216,1,0,0:0:0:0:
248,188,47445,1,8,0:0:0:0:
248,188,47903,1,8,0:0:0:0:
248,188,48018,1,0,0:0:0:0:
248,188,48247,1,0,0:0:0:0:
248,188,48361,1,8,0:0:0:0:
248,188,48590,1,8,0:0:0:0:
248,188,48705,1,0,0:0:0:0:
248,188,48819,1,0,0:0:0:0:
248,188,49048,1,0,0:0:0:0:
248,188,49277,1,8,0:0:0:0:
248,188,49506,1,8,0:0:0:0:
248,188,49621,1,8,0:0:0:0:
248,188,49735,1,0,0:0:0:0:
248,188,49850,1,0,0:0:0:0:
248,188,49964,1,8,0:0:0:0:
248,188,50193,1,0,0:0:0:0:
248,188,50422,1,8,0:0:0:0:
248,188,50651,1,0,0:0:0:0:
248,188,50880,1,8,0:0:0:0:
248,188,51338,1,12,0:0:0:0:
256,192,52483,1,4,0:0:0:0:
256,192,52712,1,4,0:0:0:0:
256,192,52941,1,4,0:0:0:0:
248,188,53399,1,12,0:0:0:0:
248,188,53628,1,0,0:0:0:0:
248,188,53742,1,0,0:0:0:0:
248,188,53857,1,8,0:0:0:0:
248,188,54086,1,0,0:0:0:0:
248,188,54315,1,0,0:0:0:0:
248,188,54429,1,8,0:0:0:0:
248,188,54658,1,8,0:0:0:0:
248,188,54773,1,0,0:0:0:0:
248,188,55002,1,8,0:0:0:0:
248,188,55116,1,0,0:0:0:0:
248,188,55231,1,8,0:0:0:0:
248,188,55460,1,8,0:0:0:0:
248,188,55689,1,0,0:0:0:0:
248,188,55803,1,8,0:0:0:0:
248,188,56032,1,0,0:0:0:0:
248,188,56261,1,8,0:0:0:0:
248,188,56376,1,8,0:0:0:0:
248,188,56491,1,0,0:0:0:0:
248,188,56605,1,8,0:0:0:0:
248,188,56834,1,0,0:0:0:0:
248,188,57063,1,8,0:0:0:0:
248,188,57521,1,0,0:0:0:0:
248,188,57979,1,8,0:0:0:0:
248,188,58323,1,0,0:0:0:0:
248,188,58437,1,8,0:0:0:0:
248,188,58666,1,8,0:0:0:0:
248,188,58895,1,0,0:0:0:0:
248,188,59010,1,8,0:0:0:0:
248,188,59239,1,8,0:0:0:0:
248,188,59354,1,0,0:0:0:0:
248,188,59582,1,8,0:0:0:0:
248,188,59697,1,8,0:0:0:0:
248,188,59811,1,0,0:0:0:0:
248,188,60040,1,0,0:0:0:0:
248,188,60269,1,8,0:0:0:0:
248,188,60727,1,4,0:0:0:0:
248,188,60956,1,8,0:0:0:0:
248,188,61070,1,0,0:0:0:0:
248,188,61185,1,0,0:0:0:0:
248,188,61414,1,8,0:0:0:0:
248,188,61643,1,0,0:0:0:0:
248,188,61757,1,8,0:0:0:0:
248,188,61986,1,8,0:0:0:0:
248,188,62102,1,0,0:0:0:0:
248,188,62330,1,0,0:0:0:0:
248,188,62444,1,8,0:0:0:0:
248,188,62559,1,8,0:0:0:0:
248,188,62788,1,0,0:0:0:0:
248,188,63018,1,8,0:0:0:0:
248,188,63131,1,8,0:0:0:0:
248,188,63360,1,0,0:0:0:0:
248,188,63589,1,8,0:0:0:0:
248,188,63704,1,0,0:0:0:0:
248,188,63819,1,0,0:0:0:0:
248,188,63933,1,0,0:0:0:0:
248,188,64162,1,0,0:0:0:0:
248,188,64391,1,8,0:0:0:0:
248,188,64850,1,0,0:0:0:0:
248,188,65308,1,0,0:0:0:0:
248,188,65422,1,8,0:0:0:0:
248,188,65651,1,8,0:0:0:0:
248,188,65995,1,0,0:0:0:0:
248,188,66224,1,8,0:0:0:0:
248,188,66338,1,0,0:0:0:0:
248,188,66567,1,0,0:0:0:0:
248,188,66911,1,8,0:0:0:0:
248,188,67369,1,8,0:0:0:0:
248,188,67598,1,0,0:0:0:0:
248,188,67827,1,0,0:0:0:0:
248,188,68056,1,12,0:0:0:0:
248,188,68285,1,0,0:0:0:0:
248,188,68399,1,0,0:0:0:0:
248,188,68514,1,8,0:0:0:0:
248,188,68743,1,0,0:0:0:0:
248,188,68972,1,0,0:0:0:0:
248,188,69086,1,8,0:0:0:0:
248,188,69315,1,8,0:0:0:0:
248,188,69430,1,0,0:0:0:0:
248,188,69659,1,8,0:0:0:0:
248,188,69773,1,0,0:0:0:0:
248,188,69888,1,8,0:0:0:0:
248,188,70117,1,8,0:0:0:0:
248,188,70346,1,0,0:0:0:0:
248,188,70460,1,8,0:0:0:0:
248,188,70689,1,0,0:0:0:0:
248,188,70918,1,8,0:0:0:0:
248,188,71033,1,0,0:0:0:0:
248,188,71148,1,0,0:0:0:0:
248,188,71262,1,8,0:0:0:0:
248,188,71491,1,0,0:0:0:0:
248,188,71720,1,8,0:0:0:0:
248,188,72178,1,0,0:0:0:0:
248,188,72636,1,0,0:0:0:0:
248,188,72751,1,8,0:0:0:0:
248,188,72980,1,8,0:0:0:0:
248,188,73094,1,0,0:0:0:0:
248,188,73323,1,8,0:0:0:0:
248,188,73552,1,0,0:0:0:0:
248,188,73667,1,0,0:0:0:0:
248,188,73896,1,8,0:0:0:0:
248,188,74011,1,0,0:0:0:0:
248,188,74239,1,8,0:0:0:0:
248,188,74468,1,0,0:0:0:0:
248,188,74926,1,8,0:0:0:0:
248,188,75384,1,4,0:0:0:0:
248,188,75613,1,8,0:0:0:0:
248,188,75727,1,0,0:0:0:0:
248,188,75842,1,0,0:0:0:0:
248,188,76071,1,8,0:0:0:0:
248,188,76300,1,0,0:0:0:0:
248,188,76414,1,8,0:0:0:0:
248,188,76643,1,8,0:0:0:0:
248,188,76758,1,0,0:0:0:0:
248,188,76987,1,0,0:0:0:0:
248,188,77101,1,0,0:0:0:0:
248,188,77216,1,8,0:0:0:0:
248,188,77445,1,0,0:0:0:0:
248,188,77675,1,8,0:0:0:0:
248,188,77788,1,8,0:0:0:0:
248,188,78017,1,0,0:0:0:0:
248,188,78246,1,8,0:0:0:0:
248,188,78361,1,0,0:0:0:0:
248,188,78476,1,0,0:0:0:0:
248,188,78590,1,8,0:0:0:0:
248,188,78819,1,0,0:0:0:0:
248,188,79048,1,8,0:0:0:0:
248,188,79506,1,0,0:0:0:0:
248,188,79735,1,0,0:0:0:0:
248,188,79850,1,0,0:0:0:0:
248,188,79964,1,8,0:0:0:0:
248,188,80422,1,0,0:0:0:0:
248,188,80651,1,8,0:0:0:0:
248,188,80766,1,0,0:0:0:0:
248,188,80880,1,8,0:0:0:0:
248,188,81109,1,0,0:0:0:0:
248,188,81338,1,8,0:0:0:0:
248,188,81567,1,0,0:0:0:0:
248,188,81681,1,8,0:0:0:0:
248,188,81796,1,8,0:0:0:0:
248,188,82254,1,0,0:0:0:0:
248,188,82483,1,8,0:0:0:0:
248,188,82941,1,8,0:0:0:0:
248,188,83170,1,0,0:0:0:0:
248,188,83399,1,0,0:0:0:0:
248,188,83514,1,0,0:0:0:0:
248,188,83628,1,8,0:0:0:0:
248,188,83857,1,0,0:0:0:0:
248,188,83972,1,0,0:0:0:0:
248,188,84087,1,8,0:0:0:0:
248,188,84315,1,8,0:0:0:0:
248,188,84544,1,4,0:0:0:0:
256,192,87979,1,8,0:0:0:0:
