osu file format v14

[General]
AudioFilename: ED2.mp3
AudioLeadIn: 0
PreviewTime: 53399
Countdown: 0
SampleSet: Normal
StackLeniency: 0.7
Mode: 1
LetterboxInBreaks: 0
WidescreenStoryboard: 0

[Editor]
DistanceSpacing: 1.2
BeatDivisor: 4
GridSize: 4
TimelineZoom: 1.1

[Metadata]
Title:PLATINUM JET
TitleUnicode:プラチナジェット
Artist:DONUT QUINTET
ArtistUnicode:どーなつ◎くいんてっと
Creator:Charlotte
Version:Kantan
Source:SHIROBAKO
Tags:ending ed tv size musashino animation musani どんどんドーナツ ! どーんといこう ! Don-Don-Donuts ! Let's go nuts ! nardoxyribonucleic hanjamon
BeatmapID:689166
BeatmapSetID:303409

[Difficulty]
HPDrainRate:8
CircleSize:5
OverallDifficulty:3
ApproachRate:5
SliderMultiplier:1.4
SliderTickRate:1

[Events]
//Background and Video events
0,0,"BG.jpg",0,120
//Break Periods
//Storyboard Layer 0 (Background)
//Storyboard Layer 1 (Fail)
//Storyboard Layer 2 (Pass)
//Storyboard Layer 3 (Foreground)
//Storyboard Sound Samples

[TimingPoints]
2102,458.015267175573,4,1,0,45,1,0
9430,-100,4,1,0,65,0,0
24086,-100,4,1,0,55,0,0
38743,-100,4,1,0,65,0,0
53399,-100,4,1,0,65,0,1
84544,-100,4,1,0,65,0,0

[HitObjects]
264,160,2102,5,0,0:0:0:0:
204,204,2789,1,8,0:0:0:0:
204,204,3934,1,0,0:0:0:0:
268,156,4621,1,8,0:0:0:0:
336,212,5766,1,0,0:0:0:0:
224,88,6682,1,8,0:0:0:0:
508,216,7598,1,0,0:0:0:0:
288,72,8399,1,8,0:0:0:0:
248,160,9430,5,4,0:0:0:0:
248,160,10346,1,0,0:0:0:0:
328,148,11262,1,0,0:0:0:0:
248,160,11720,1,8,0:0:0:0:
248,160,12178,1,0,0:0:0:0:
320,168,13094,1,0,0:0:0:0:
320,168,14010,1,0,0:0:0:0:
488,192,14468,1,8,0:0:0:0:
324,164,14926,1,0,0:0:0:0:
244,152,15842,1,0,0:0:0:0:
328,148,16758,1,4,0:0:0:0:
176,168,17674,1,0,0:0:0:0:
496,60,18590,1,0,0:0:0:0:
336,112,19048,1,8,0:0:0:0:
176,164,19506,1,0,0:0:0:0:
484,300,20422,1,8,0:0:0:0:
232,200,20880,1,8,0:0:0:0:
232,200,21338,1,0,0:0:0:0:
292,144,22025,1,12,0:0:0:0:
128,172,22483,1,12,0:0:0:0:
292,128,22941,1,12,0:0:0:0:
192,148,24086,1,0,0:0:0:0:
192,148,25002,1,0,0:0:0:0:
276,144,25918,1,0,0:0:0:0:
360,140,26376,1,8,0:0:0:0:
192,148,27292,1,8,0:0:0:0:
24,156,27750,1,0,0:0:0:0:
192,148,28666,1,0,0:0:0:0:
192,156,29582,1,0,0:0:0:0:
192,156,30040,1,8,0:0:0:0:
436,220,30956,1,8,0:0:0:0:
192,148,31414,1,0,0:0:0:0:
192,148,32331,1,0,0:0:0:0:
276,144,33247,1,0,0:0:0:0:
360,140,33705,1,8,0:0:0:0:
192,148,34850,1,12,0:0:0:0:
112,88,35995,1,8,0:0:0:0:
260,172,36682,1,4,0:0:0:0:
260,172,37827,1,8,0:0:0:0:
372,204,38743,1,4,0:0:0:0:
164,180,39201,1,8,0:0:0:0:
164,180,39659,1,0,0:0:0:0:
120,176,40575,1,0,0:0:0:0:
216,156,41491,1,8,0:0:0:0:
216,156,42407,1,0,0:0:0:0:
216,156,42865,1,8,0:0:0:0:
64,188,43323,1,0,0:0:0:0:
112,72,44239,1,0,0:0:0:0:
232,192,45155,1,8,0:0:0:0:
284,176,46071,1,0,0:0:0:0:
284,176,46529,1,8,0:0:0:0:
352,232,47445,1,8,0:0:0:0:
120,132,47903,1,0,0:0:0:0:
284,172,48361,1,8,0:0:0:0:
228,112,49506,1,8,0:0:0:0:
160,144,50193,1,0,0:0:0:0:
160,144,50651,1,0,0:0:0:0:
160,144,51338,1,4,0:0:0:0:
208,56,53399,1,4,0:0:0:0:
200,200,54315,1,8,0:0:0:0:
196,32,55231,1,0,0:0:0:0:
224,200,55689,1,0,0:0:0:0:
360,100,56147,1,8,0:0:0:0:
76,276,57063,1,8,0:0:0:0:
224,280,57979,1,0,0:0:0:0:
276,156,58895,1,8,0:0:0:0:
120,216,59353,1,8,0:0:0:0:
276,148,59811,1,0,0:0:0:0:
16,364,60727,1,4,0:0:0:0:
200,200,61643,1,8,0:0:0:0:
196,32,62560,1,0,0:0:0:0:
224,200,63018,1,0,0:0:0:0:
360,100,63476,1,8,0:0:0:0:
76,276,64392,1,0,0:0:0:0:
224,280,65308,1,8,0:0:0:0:
276,156,66224,1,0,0:0:0:0:
196,184,66682,1,8,0:0:0:0:
196,184,67140,1,8,0:0:0:0:
208,56,68056,1,4,0:0:0:0:
200,200,68972,1,8,0:0:0:0:
196,32,69888,1,0,0:0:0:0:
224,200,70346,1,0,0:0:0:0:
360,100,70804,1,8,0:0:0:0:
224,280,71720,1,8,0:0:0:0:
76,276,72636,1,0,0:0:0:0:
276,156,73552,1,0,0:0:0:0:
120,216,74010,1,8,0:0:0:0:
276,148,74468,1,0,0:0:0:0:
208,56,75384,1,4,0:0:0:0:
200,200,76300,1,8,0:0:0:0:
196,32,77216,1,0,0:0:0:0:
224,200,77674,1,0,0:0:0:0:
360,100,78132,1,8,0:0:0:0:
124,336,79048,1,12,0:0:0:0:
376,116,79964,1,0,0:0:0:0:
256,204,80880,1,0,0:0:0:0:
132,88,81338,1,8,0:0:0:0:
72,32,81796,1,0,0:0:0:0:
348,224,82712,1,8,0:0:0:0:
216,156,83628,1,12,0:0:0:0:
384,140,84086,1,12,0:0:0:0:
244,148,84544,1,4,0:0:0:0:
156,176,87979,1,8,0:0:0:0:
