osu file format v9

[General]
AudioFilename: DOES - Shura TV Size.mp3
AudioLeadIn: 1004
PreviewTime: 44730
Countdown: 0
SampleSet: Soft
StackLeniency: 0.4
Mode: 0
LetterboxInBreaks: 0

[Editor]
DistanceSpacing: 0.85
BeatDivisor: 4
GridSize: 8

[Metadata]
Title:Shura (TV Size)
Artist:DOES
Creator:Sallad4ever
Version:Normal
Source:Gintama
Tags:arien666 arken1015

[Difficulty]
HPDrainRate:3
CircleSize:4
OverallDifficulty:3
ApproachRate:4
SliderMultiplier:1
SliderTickRate:1

[Events]
//Background and Video events
Video,0,"ED5.avi"
0,0,"Shura02.jpg"
//Break Periods
//Storyboard Layer 0 (Background)
//Storyboard Layer 1 (Fail)
//Storyboard Layer 2 (Pass)
//Storyboard Layer 3 (Foreground)
//Storyboard Sound Samples
//Background Colour Transformations
3,100,163,162,255

[TimingPoints]
920,304.568527918782,4,1,1,80,1,0
5788,305.343511450382,4,1,1,80,1,0
6398,-100,4,1,1,70,0,0
10215,-100,4,1,1,80,0,0
11284,-100,4,1,1,70,0,0
15100,-100,4,1,1,80,0,0
15546,301.507537688442,4,1,1,80,1,0
16149,-100,4,1,1,70,0,0
19917,-100,4,1,1,80,0,0
20362,304.568527918782,4,1,1,80,1,0
20971,-100,4,1,1,70,0,0
23387,304.568527918782,4,1,1,70,1,0
24625,304.568527918782,4,1,1,70,1,0
25241,307.692307692308,4,1,1,75,1,0
35087,303.79746835443,4,1,1,75,1,0
44808,304.568527918782,4,1,1,70,1,0
52726,-100,4,2,2,60,0,0
53640,-100,4,1,1,75,0,0
54657,304.568527918782,4,1,1,85,1,1
64405,309.278350515464,4,1,1,85,1,1
69351,306.122448979592,4,1,1,85,1,1
73004,303.030303030303,4,1,1,85,1,1
74216,306.122448979592,4,1,1,70,1,0
82175,-100,4,2,2,60,0,0
83093,-100,4,2,1,70,0,0
84156,305.343511450382,4,1,1,80,1,0
87855,309.278350515464,4,1,1,85,1,0
89092,-100,4,1,1,100,0,0

[Colours]
Combo1 : 255,72,72
Combo2 : 192,192,192
Combo3 : 79,79,255
SliderBorder : 64,64,64

[HitObjects]
184,144,919,2,0,B|160:88|192:32|255:18|320:32|352:88|328:144,1,300,4|8
328,232,2138,2,0,B|352:288|320:344|257:358|192:344|160:288|184:232,1,300,0|8
112,192,3356,2,0,B|160:160|208:192|208:192|256:160|304:192|304:192|352:160|400:192,1,300,0|8
400,104,4574,5,4
336,48,4879,1,8
256,24,5183,1,0
176,48,5488,1,8
112,104,5788,1,4
120,288,6398,6,0,B|120:192|120:192|176:216|224:192,1,200
256,120,7314,1,8
256,32,7620,1,0
336,72,7925,1,8
408,24,8230,6,0,B|440:72|408:120|408:120|440:168|408:216,3,200
328,240,10368,1,8
256,192,10673,1,4
256,192,10978,1,8
184,240,11284,6,0,B|192:288|256:330|320:288|328:240,1,200
336,152,12200,1,8
256,112,12505,1,0
176,152,12810,1,8
184,72,13116,6,0,B|192:24|256:-18|320:24|328:72,3,200
256,112,15253,1,8
256,192,15546,1,4
256,192,15847,1,8
344,192,16149,6,0,B|408:184|440:232,1,100,0|8
408,304,16752,2,0,B|344:312|312:264,1,100,0|8
256,192,17355,2,0,B|256:296,2,100,0|8|0
256,104,18259,1,8
168,104,18561,6,0,B|64:104,1,100,0|8
8,168,19164,2,0,B|8:216|40:240|80:240,1,100,0|8
152,240,19767,2,0,B|256:240,1,100,0|8
336,240,20362,1,4
336,240,20666,1,8
336,152,20971,5,0
256,120,21275,1,8
336,152,21580,1,0
336,64,21884,1,8
336,152,22189,1,0
416,120,22493,1,8
416,208,22798,6,0,B|416:256,2,50,4|0|8
336,232,23387,2,0,B|336:280,2,50,0|0|8
256,264,23996,2,0,B|256:312,2,50,0|0|8
176,232,24625,2,0,B|200:184|256:180|256:180|312:184|336:232,1,200,0|4
344,56,25856,6,0,B|232:56,1,100,0|8
168,56,26471,2,0,B|104:72|104:128|104:128|136:176|200:152,1,200
168,328,27702,6,0,B|272:328,1,100,0|8
344,328,28317,2,0,B|376:280|344:224,1,100,0|8
328,152,28933,1,0
184,232,29548,1,0
152,64,30164,6,0,B|192:104|160:160|160:160|264:160,1,200,4|0
360,64,31394,2,0,B|320:104|352:160|352:160|248:160,1,200,0|0
200,224,32317,1,8
256,288,32625,5,0
312,224,32933,1,8
328,304,33241,2,0,B|320:352|256:393|192:352|184:304,2,200
328,304,34779,1,8
400,264,35087,6,0,B|400:160,1,100,4|8
328,120,35694,2,0,B|328:232,1,100,0|8
256,192,36302,2,0,B|240:248|288:280|288:280|256:320|192:304,1,200
72,192,37517,6,0,B|24:192|8:120|8:120|32:56|96:56,1,200,4|0
184,192,38732,2,0,B|232:192|248:264|248:264|224:328|160:328,1,200
184,192,39947,6,0,B|160:136|192:80|255:66|320:80|352:136|328:192,1,300,4|0
304,272,41162,2,0,B|280:288|256:288|232:288|208:272,3,100,0|8|0|8
160,344,42378,6,0,B|256:393|352:344,3,200,4|4|4|4
400,272,44504,1,8
424,192,44808,1,4
168,192,45721,6,0,B|104:168|120:112|120:112|73:88|88:24,1,200,8|8
160,48,46635,2,0,B|208:16|256:48|256:48|304:16|352:48,1,200,0|4
432,192,47853,5,0
432,280,48158,1,8
360,240,48462,1,0
360,328,48767,1,8
288,288,49071,2,0,B|284:296|284:296|280:280|280:280|272:296|272:296|268:280|268:280|260:296|260:296|256:280|256:280|248:296|248:296|244:280|244:280|236:296|236:296|232:280|232:280|224:296|224:296|220:280|220:280|212:296|212:296,1,200,0|4
48,280,50290,5,0
48,192,50594,1,8
48,104,50899,1,0
120,152,51203,1,8
120,232,51508,1,0
192,192,51813,2,0,B|240:192|240:192|256:216|288:216,1,100,8|4
448,248,52726,6,0,B|504:264|547:192|504:120|448:136,1,200,2|0
72,304,54657,6,0,B|176:304,1,100,4|8
256,304,55266,2,0,B|320:336|368:328,1,100,0|8
424,304,55875,2,0,B|464:248|424:208|384:168|424:104,1,200
256,80,57093,6,0,B|152:80,1,100,0|8
86,80,57702,2,0,B|38:80|14:112|16:155,1,100,0|8
84,238,58311,2,0,B|84:150|84:150|132:150|156:110|156:78,1,200
296,192,59530,6,0,B|312:152|304:112|256:104|208:112|200:152|216:192,2,200,4|0|0
168,296,61357,1,0
256,296,61662,1,8
344,296,61966,5,0
392,224,62271,1,8
440,152,62575,2,0,B|392:120|344:152|344:152|296:184|248:152,2,200
440,152,64098,1,8
440,240,64405,6,0,B|440:344,1,100,4|8
352,336,65023,2,0,B|304:312|256:336,1,100,0|8
168,344,65642,2,0,B|120:344|120:272|120:272|120:192|56:192,1,200
208,88,66879,6,0,B|312:88,1,100,4|8
312,176,67497,2,0,B|208:176,1,100,0|8
168,248,68116,1,0
344,248,68734,1,0
168,248,69351,1,0
56,24,70269,5,8
96,96,70575,1,0
160,48,70881,1,8
176,128,71187,2,0,B|200:176|256:180|256:180|312:176|336:128,1,200
352,48,72106,6,0,B|456:48,2,100,8|0|8
256,48,73004,2,0,B|256:256,1,200
296,320,73913,1,8
216,320,74216,1,4
160,72,75134,6,0,B|208:40|256:72|256:72|304:40|352:72,1,200,8|0
352,152,76052,2,0,B|304:184|256:152|256:152|208:184|160:152,1,200,0|4
80,304,77277,5,0
168,304,77583,1,8
256,304,77889,1,0
344,304,78195,1,8
432,304,78501,2,0,B|436:312|436:312|440:296|440:296|448:312|448:312|452:296|452:296|460:312|460:312|464:296|464:296|472:312|472:312|476:296|476:296|484:312|484:312|488:296|488:296|496:312|496:312|500:296|500:296|508:312|508:312,1,200,0|4
392,168,79726,5,0
336,104,80032,1,8
256,64,80338,1,0
176,104,80644,1,8
120,168,80950,1,0
200,192,81256,2,0,B|304:192,1,100,8|4
200,360,82175,6,0,B|184:304|256:261|328:304|312:360,1,200,2|0
328,144,84156,6,0,B|352:88|320:32|257:18|192:32|160:88|184:144,1,300,4|8
184,232,85377,2,0,B|160:288|192:344|255:358|320:344|352:288|328:232,1,300,0|8
400,192,86598,2,0,B|352:160|304:192|304:192|256:160|208:192|208:192|160:160|112:192,1,300,0|8
112,104,87855,5,4
176,48,88164,1,8
256,24,88473,1,0
336,48,88782,1,8
400,104,89092,1,4
