osu file format v9

[General]
AudioFilename: DOES - Shura TV Size.mp3
AudioLeadIn: 1004
PreviewTime: 44730
Countdown: 0
SampleSet: Normal
StackLeniency: 0.4
Mode: 0
LetterboxInBreaks: 0

[Editor]
DistanceSpacing: 0.8
BeatDivisor: 4
GridSize: 8

[Metadata]
Title:Shura (TV Size)
Artist:DOES
Creator:Sallad4ever
Version:Insane
Source:Gintama
Tags:arien666 arken1015

[Difficulty]
HPDrainRate:7
CircleSize:4
OverallDifficulty:7
ApproachRate:7
SliderMultiplier:1.8
SliderTickRate:1

[Events]
//Background and Video events
Video,0,"ED5.avi"
0,0,"Shura02.jpg"
//Break Periods
//Storyboard Layer 0 (Background)
//Storyboard Layer 1 (Fail)
//Storyboard Layer 2 (Pass)
//Storyboard Layer 3 (Foreground)
//Storyboard Sound Samples
//Background Colour Transformations
3,100,163,162,255

[TimingPoints]
920,304.568527918782,4,1,1,80,1,0
5788,305.343511450382,4,1,1,80,1,0
6398,-100,4,1,1,70,0,0
10215,-100,4,1,1,80,0,0
11284,-100,4,1,1,70,0,0
15100,-100,4,1,1,80,0,0
15546,301.507537688442,4,1,1,80,1,0
16149,-100,4,1,1,70,0,0
19917,-100,4,1,1,80,0,0
20362,304.568527918782,4,1,1,80,1,0
20971,-100,4,1,1,70,0,0
23387,304.568527918782,4,1,1,70,1,0
24625,304.568527918782,4,1,1,70,1,0
25241,307.692307692308,4,1,1,75,1,0
35087,303.79746835443,4,1,1,75,1,0
44808,304.568527918782,4,1,1,70,1,0
52726,-100,4,2,1,60,0,0
53640,-100,4,1,1,75,0,0
54657,304.568527918782,4,1,1,85,1,1
64405,309.278350515464,4,1,1,85,1,1
69351,306.122448979592,4,1,1,85,1,1
73004,303.030303030303,4,1,1,85,1,1
74216,306.122448979592,4,1,1,70,1,0
82175,-100,4,2,1,60,0,0
83093,-100,4,2,1,70,0,0
84156,305.343511450382,4,1,1,80,1,0
87855,309.278350515464,4,1,1,85,1,0
89092,-100,4,1,1,100,0,0

[Colours]
Combo1 : 255,72,72
Combo2 : 192,192,192
Combo3 : 79,79,255
SliderBorder : 64,64,64

[HitObjects]
256,192,463,2,0,B|256:96,2,90
256,264,919,2,0,B|360:264,1,90,4|0
360,192,1224,2,0,B|440:248,1,90,8|0
464,176,1529,2,0,B|384:120,1,90
416,56,1833,2,0,B|320:56,1,90,8|0
256,56,2138,6,0,B|208:32|160:56,1,90,0|0
120,112,2442,2,0,B|168:136|216:112,1,90,8|0
207,188,2747,2,0,B|207:284,1,90
134,278,3051,2,0,B|134:190,1,90,8|0
61,188,3356,6,0,B|13:201|13:257,1,90
56,312,3661,2,0,B|55:366|103:379,1,90,8|0
168,344,3965,1,0
240,344,4117,1,0
312,344,4270,1,8
384,344,4422,1,0
448,192,4574,5,4
64,192,4879,1,0
448,192,5183,1,4
64,192,5488,1,0
256,48,5788,1,4
256,120,5940,1,0
256,192,6093,1,8
472,96,6398,6,0,B|464:152|408:168|408:168|408:256,2,180,0|8|0
400,96,7162,1,0
400,24,7314,2,0,B|344:32|328:80|328:80|232:80,1,180,8|0
171,80,7772,1,0
96,80,7925,2,0,B|112:128|88:176,1,90,8|0
72,240,8230,6,0,B|56:288|80:336,1,90
16,368,8536,2,0,B|40:320|104:320|104:320|192:320,1,180,8|0
256,320,8994,1,0
328,320,9146,2,0,B|384:320|408:264|384:208|328:208,1,180,8|0
256,208,9604,1,0
184,208,9757,2,0,B|128:208|104:152|128:96|184:96,1,180,8|0
256,96,10215,5,0
328,112,10368,1,8
328,184,10520,1,0
256,208,10673,1,4
184,184,10826,1,0
184,112,10978,1,0
40,112,11284,6,0,B|40:216|40:216|40:272|96:296,1,180,0|8
136,320,11742,1,0
208,320,11894,2,0,B|208:216,1,90
279,230,12200,2,0,B|279:142,1,90,8|0
351,140,12505,2,0,B|351:52,1,90
280,48,12810,6,0,B|384:48|384:48|432:48|458:102,1,180,8|0
472,152,13268,1,0
480,224,13421,2,0,B|504:272|480:320,1,90,8|0
424,360,13726,2,0,B|400:312|424:264,1,90
373,218,14032,2,0,B|341:258|341:306|341:306|245:306,1,180,8|0
256,232,14490,1,0
256,306,14642,2,0,B|171:306|171:306|171:258|139:218,1,180,8|0
80,168,15100,5,0
16,120,15253,1,0
24,40,15406,1,0
104,24,15546,1,4
176,64,15696,1,0
160,144,15847,1,8
384,128,16149,6,0,B|360:88|384:48|384:48|336:16|288:48,2,180,0|8|0
416,192,16902,1,0
408,264,17053,2,0,B|358:259|344:208|344:208|248:208,1,180,8|0
256,280,17505,1,0
256,352,17656,2,0,B|160:352,1,90,8|0
184,280,17958,6,0,B|88:280,1,90
120,208,18259,2,0,B|32:208,1,90,8|0
30,135,18561,2,0,B|0:88|30:47|30:47|80:24|126:47,1,180,0|8
176,96,19013,1,0
208,160,19164,2,0,B|256:176|320:152,1,90
368,136,19465,2,0,B|416:216|360:328,1,180,8|0
304,344,19917,5,0
208,344,20068,1,0
304,344,20219,1,0
208,344,20362,1,4
304,344,20514,1,0
208,344,20666,1,0
200,136,20971,6,0,B|152:128|116:192|152:256|200:248,1,180,0|8
256,192,21427,1,0
312,136,21580,2,0,B|360:128|396:192|360:256|312:248,2,180,0|8|0
256,80,22341,1,0
312,24,22493,2,0,B|320:72|256:108|192:72|200:24,1,180,8|0
136,48,22950,5,0
96,104,23103,1,8
192,376,23387,1,0
256,336,23539,1,0
320,376,23691,1,8
480,136,23996,1,0
432,192,24148,1,0
480,248,24300,1,8
352,192,24625,5,0
304,192,24777,1,0
256,192,24929,1,8
208,192,25081,1,0
160,192,25241,1,4
32,104,25548,6,0,B|72:192|32:280,1,180,8|0
72,344,26010,1,0
120,288,26164,1,8
168,344,26317,2,0,B|256:304|344:344,1,180
342,343,26779,1,8
328,120,27087,5,0
293,56,27241,1,0
221,56,27394,1,8
184,120,27548,1,0
200,192,27702,6,0,B|192:240|256:276|320:240|312:192,1,180,0|8
328,120,28164,1,0
384,176,28317,2,0,B|394:245|344:312|262:318,1,180,0|8
220,312,28779,2,0,B|168:300|118:245|128:176,1,180
184,120,29241,6,0,B|184:32,1,90,8|0
256,32,29548,2,0,B|256:144,1,90
328,120,29856,2,0,B|328:16,1,90,8|0
400,32,30164,6,0,B|400:120|400:120|464:128|464:200,1,180,4|8
392,192,30625,1,0
320,208,30779,2,0,B|328:256|382:265|382:265|382:353,1,180,0|8
312,355,31241,2,0,B|320:307|255:271|192:307|200:355,1,180
256,368,31702,2,0,B|256:176,1,180,8|0
256,112,32164,1,0
256,40,32317,1,8
112,40,32625,6,0,B|76:82|33:78|33:78|45:119|9:162,2,180,0|8|0
120,184,33548,1,8
144,256,33702,2,0,B|136:304|200:340|264:304|256:256,1,180
256,184,34164,1,8
256,112,34317,1,0
256,40,34471,1,8
256,40,34779,1,8
400,40,35087,6,0,B|435:82|478:78|478:78|466:119|502:162,1,180,4|8
488,304,35694,1,0
432,344,35846,1,0
384,288,35998,1,8
336,336,36150,2,0,B|280:336|256:301|256:301|232:336|176:336,1,180
177,335,36605,1,8
24,304,36909,5,0
80,344,37061,1,0
128,288,37213,1,8
72,248,37365,1,0
48,184,37517,6,0,B|72:144|48:96|48:96|136:96,1,180,4|8
200,64,37973,1,0
200,136,38124,2,0,B|192:184|256:220|320:184|312:136,1,180,0|8
375,96,38580,2,0,B|464:96|464:96|440:144|464:184,1,180,0|0
488,248,39036,2,0,B|496:296|432:332|368:296|376:248,1,180,8|0
320,200,39492,5,0
256,176,39643,1,8
200,136,39795,1,0
152,192,39947,2,0,B|152:269|152:269|152:309|176:333|216:333,1,180,0|8
392,352,40555,5,0
440,296,40707,1,0
368,280,40859,1,8
416,232,41011,1,0
352,200,41162,6,0,B|387:133|495:160|483:242,2,180,0|8|0
304,248,41922,1,0
256,304,42074,1,8
152,200,42378,1,0
112,64,42681,1,8
256,40,42985,1,0
400,64,43289,1,8
464,192,43593,5,0
400,320,43897,1,8
256,344,44200,1,0
168,280,44352,1,0
200,176,44504,1,8
312,176,44656,1,0
344,280,44808,1,4
440,176,45112,6,0,B|440:88,1,90,8|0
368,154,45417,2,0,B|368:64,1,90
296,64,45721,2,0,B|208:64|208:64|232:112|200:160,1,180,8|0
144,112,46178,1,0
64,112,46330,2,0,B|64:216,1,90,8|0
136,184,46635,2,0,B|136:288,1,90,0|0
208,248,46939,2,0,B|208:360,1,90,8|0
256,192,47244,6,0,B|352:192,1,90,4|0
424,192,47549,1,8
424,264,47701,1,0
432,336,47853,2,0,B|472:336|496:312|496:272|496:272|496:178,1,180,0|8
496,120,48310,1,0
424,64,48462,2,0,B|400:112|424:160,1,90,0|0
344,64,48767,2,0,B|256:64,1,90,8|0
272,136,49071,2,0,B|168:136,1,90
208,208,49376,2,0,B|112:208,1,90,8|0
32,296,49681,6,0,B|32:208,1,90,4|0
32,136,49985,1,8
104,136,50137,1,0
176,136,50290,2,0,B|176:88|144:56|144:56|240:56,1,180,0|8
304,88,50747,1,0
366,132,50899,2,0,B|416:144|416:200,1,90,0|0
344,200,51203,2,0,B|344:296,1,90,8|0
304,352,51508,2,0,B|216:352,1,90
232,280,51813,2,0,B|128:280,1,90,8|0
72,280,52117,1,4
192,80,52726,5,2
320,80,53335,1,0
256,264,54173,6,0,B|256:352,2,90
256,192,54657,2,0,B|256:0,1,180,4|8
184,32,55113,1,0
120,64,55266,1,0
64,112,55418,1,0
96,176,55570,1,8
152,128,55722,2,0,B|184:184|160:240|112:256|64:240,1,180
75,243,56179,1,8
200,320,56484,5,0
256,360,56636,1,0
312,320,56788,1,8
292,250,56941,1,0
220,250,57093,6,0,B|224:187|276:165|328:168|358:219,1,180,0|8
408,248,57550,1,0
456,192,57702,1,0
408,144,57854,1,0
456,96,58007,1,8
416,40,58159,2,0,B|320:40|320:40|344:80|312:136,1,180
256,80,58616,2,0,B|231:120|255:160|255:160|159:160,1,180,8|0
88,160,59073,2,0,B|64:208|96:264,2,90,0|8|0
136,304,59530,6,0,B|200:304|200:304|224:304|256:288|256:256|256:256|256:200,1,180,4|8
256,152,59986,1,0
256,80,60139,2,0,B|319:80|319:80|343:80|375:96|375:128|375:128|375:162,1,180,0|8
312,192,60596,2,0,B|320:240|256:276|192:240|200:192,1,180,0|0
128,192,61052,1,8
144,120,61205,1,0
200,72,61357,5,0
312,312,61662,1,8
272,56,61966,1,0
240,328,62271,1,8
344,64,62575,5,0
344,64,62728,1,0
344,64,62880,1,8
408,96,63032,2,0,B|436:145|408:184|408:184|368:208|320:184,1,180
257,156,63489,1,8
257,228,63641,1,0
96,192,63794,1,4
416,192,64098,1,4
344,320,64405,6,0,B|160:320,1,180,4|8
160,248,64868,1,0
200,184,65023,1,0
257,228,65178,1,0
312,184,65332,1,8
312,112,65487,2,0,B|320:64|256:28|192:64|200:112,1,180,0|0
136,152,65951,6,0,B|48:200,1,90,8|0
128,320,66260,2,0,B|216:272,1,90
168,216,66569,2,0,B|80:264,1,90,8|0
176,376,66879,6,0,B|344:280,1,180,4|8
392,248,67343,1,0
456,208,67497,2,0,B|496:180|497:116|448:78|401:91,1,180,0|8
416,156,67961,2,0,B|456:129|457:65|408:27|362:39,1,180,0|0
375,105,68425,6,0,B|207:201,1,180,8|0
152,224,68889,1,0
144,152,69044,1,8
80,112,69198,1,0
39,53,69351,6,0,B|87:21|127:53|167:85|215:53,1,180,0|8
256,112,69810,1,0
312,160,69963,1,0
256,208,70116,1,0
312,256,70269,1,8
448,352,70575,5,4
448,32,70881,1,8
64,32,71187,1,0
64,352,71493,1,8
256,352,71799,5,4
448,192,72106,1,8
256,32,72412,1,0
64,192,72718,1,8
184,272,73004,5,4
328,272,73307,1,8
312,112,73610,1,0
200,112,73761,1,0
168,208,73913,1,8
256,272,74064,1,0
344,208,74216,1,4
488,208,74522,6,0,B|488:120,1,90,8|0
416,118,74828,2,0,B|416:206,1,90
416,280,75134,2,0,B|400:320|416:368|416:368|368:352|328:368,1,180,8|0
256,368,75593,1,0
208,312,75746,2,0,B|112:312,1,90,8|0
168,168,76052,2,0,B|264:168,1,90,0|0
232,240,76358,2,0,B|128:240,1,90,8|0
184,96,76664,6,0,B|288:96,1,90,4|0
328,48,76971,1,8
400,48,77124,1,0
472,48,77277,2,0,B|466:106|408:120|408:120|408:208,1,180
336,192,77736,1,0
256,152,77889,2,0,B|256:256,1,90
184,96,78195,2,0,B|184:192,1,90,8|0
112,40,78501,2,0,B|112:136,1,90
112,344,78807,2,0,B|112:248,1,90,8|0
24,192,79113,6,0,B|128:192,1,90,4|0
184,192,79420,1,8
256,192,79573,1,0
256,264,79726,2,0,B|248:312|272:344|304:344|304:344|392:344,1,180
451,343,80185,1,0
480,280,80338,2,0,B|480:224|432:200,1,90
368,200,80644,2,0,B|368:104,1,90,8|0
368,38,80950,2,0,B|312:46|296:100,1,90,8|0
200,208,81256,2,0,B|256:200|272:146,1,90,8|0
368,40,81562,1,4
184,352,82175,5,2
328,352,82787,1,0
256,192,83705,6,0,B|256:288,2,90
256,120,84156,2,0,B|152:120,1,90,4|0
152,192,84461,2,0,B|72:136,1,90,8|0
48,208,84766,2,0,B|128:264,1,90
96,328,85072,2,0,B|192:328,1,90,8|0
256,328,85377,6,0,B|304:352|352:328,1,90,0|0
392,272,85682,2,0,B|344:248|296:272,1,90,8|0
305,196,85988,2,0,B|305:100,1,90
378,106,86293,2,0,B|378:194,1,90,8|0
451,196,86598,6,0,B|499:183|499:127,1,90
456,72,86904,2,0,B|457:18|409:5,1,90,8|0
344,40,87209,1,0
272,40,87362,1,0
200,40,87514,1,8
128,40,87667,1,0
64,192,87855,5,4
448,192,88164,1,0
64,192,88473,1,4
448,192,88782,1,0
256,352,89092,1,4
