osu file format v9

[General]
AudioFilename: Donten (TV).mp3
AudioLeadIn: 2000
PreviewTime: 56234
Countdown: 0
SampleSet: Normal
StackLeniency: 0.7
Mode: 0
LetterboxInBreaks: 0
SkinPreference:taiko

[Editor]
DistanceSpacing: 1
BeatDivisor: 2
GridSize: 8

[Metadata]
Title:Donten (TV Size)
Artist:DOES
Creator:arien666
Version:Muzukashii
Source:Gintama
Tags:taiko taikosu arken1015 op5

[Difficulty]
HPDrainRate:5
CircleSize:4
OverallDifficulty:5
ApproachRate:5
SliderMultiplier:1.44
SliderTickRate:1

[Events]
//Background and Video events
0,0,"donchan.jpg"
Video,-300,"donchan.avi"
//Break Periods
//Storyboard Layer 0 (Background)
//Storyboard Layer 1 (Fail)
//Storyboard Layer 2 (Pass)
//Storyboard Layer 3 (Foreground)
//Storyboard Sound Samples
//Background Colour Transformations
3,100,163,162,255

[TimingPoints]
640,331.491712707182,4,1,1,80,1,0
3291,337.078651685393,4,1,1,80,1,0
7335,322.58064516129,4,1,1,80,1,0
8625,320.855614973262,4,1,1,80,1,0
11191,315.789473684211,4,1,1,80,1,0
13717,326.086956521739,4,1,1,80,1,0
16325,319.148936170213,4,1,1,80,1,0
21431,314.13612565445,4,1,1,80,1,0
28970,319.148936170213,4,1,1,80,1,0
31523,315.789473684211,4,1,1,80,1,0
40365,319.148936170213,4,1,1,80,1,0
45471,309.757356737223,4,1,1,80,1,0
46707,315.789473684211,4,1,1,80,1,0
55549,342.857142857143,4,1,1,80,1,0
56920,319.148936170213,4,1,1,80,1,1
67090,314.96062992126,4,1,1,80,1,1
84723,315.789473684211,4,1,1,80,1,1
85986,-100,4,1,1,80,0,0

[Colours]
Combo1 : 68,166,164
Combo2 : 202,64,11

[HitObjects]
488,368,640,1,4
24,24,1965,5,4
488,24,3291,5,4
24,360,4639,5,4
488,192,5987,5,4
256,16,6661,1,4
24,192,7335,6,0,B|80:248,1,72
125,293,7657,2,0,B|205:293,1,72,0|0
248,241,7980,2,0,B|304:185,1,72
349,140,8302,2,0,B|429:140,1,72,0|0
493,140,8625,5,0
493,283,8945,1,8
360,344,9266,2,0,B|320:344|287:305,1,72
256,256,9587,1,8
184,136,9908,5,0
96,16,10229,1,8
16,136,10550,2,0,B|16:192|64:224,1,72
88,255,10870,1,8
184,368,11191,5,0
328,368,11506,1,8
456,304,11822,2,0,B|488:272|488:240,1,72
488,168,12138,1,8
456,24,12454,5,0
312,24,12769,1,8
184,88,13085,2,0,B|152:120|104:120,1,72
48,120,13401,1,0
48,120,13717,1,4
472,192,16325,5,0
328,192,16644,1,8
184,192,16963,2,0,B|141:192|120:160,1,72
88,98,17282,1,8
88,98,17601,1,0
360,192,18239,2,0,B|400:192|416:232,2,72,0|0|8
216,192,18878,5,0
72,192,19197,1,8
2,318,19516,2,0,B|2:358|50:382,1,72
111,375,19835,1,8
256,376,20154,1,0
480,192,20793,2,8,B|480:112|408:64,1,144,8|8
272,40,21431,5,0
240,184,21745,1,8
200,320,22059,2,0,B|184:360|136:360,1,72
72,360,22373,1,8
72,360,22687,1,0
72,72,23315,2,8,B|72:32|24:8,2,72,8|8|0
152,192,23944,5,0
256,96,24258,1,0
368,192,24572,2,0,B|408:192|432:232,2,72,0|0|8
328,328,25200,2,0,B|184:328,1,144
40,328,25828,2,0,B|96:272,1,72
142,225,26143,2,0,B|86:169,1,72
40,123,26457,6,0,B|97:65|179:65,1,144,0|8
312,64,27085,2,0,B|368:120,1,72
413,165,27399,2,0,B|351:227,1,72,8|0
311,266,27713,2,0,B|256:352|195:261,1,144,0|8
97,165,28341,2,0,B|74:124|33:123,2,72,0|0|8
104,304,28970,6,0,B|144:352|256:352,1,144,0|8
376,352,29608,2,0,B|432:296,1,72
477,250,29927,2,0,B|477:170,1,72,8|0
477,105,30246,2,0,B|433:49|341:49,1,144,0|8
208,48,30884,2,0,B|112:48|48:88,1,144,0|8
16,216,31523,2,0,B|16:384|136:392|256:384|256:216,2,432,0|0|0
328,32,36575,6,0,B|160:32,1,144,0|8
40,48,37207,2,0,B|8:64|0:104,1,72
0,176,37523,2,0,B|0:256|88:320,1,144,8|0
352,344,38471,2,0,B|400:344|416:288,1,72
434,239,38786,1,8
432,96,39101,6,0,B|384:40|288:32,1,144,0|8
160,32,39733,2,0,B|87:62,1,72
33,100,40049,2,0,B|0:168|0:241,1,144,8|0
256,368,41003,2,8,B|304:320|320:352|344:320|392:376,1,144
472,256,41641,6,0,B|408:192|474:127,1,144,0|8
328,128,42279,2,0,B|248:128,1,72
184,128,42599,2,0,B|99:128|66:30,1,144,8|0
0,328,43556,2,8,B|24:376|80:376,1,72
125,372,43875,1,0
268,372,44194,6,0,B|364:372|416:291,1,144
464,192,44833,2,0,B|464:112,1,72
464,47,45152,1,8
320,48,45471,2,0,B|256:106|190:47,1,144
48,40,46090,2,0,B|48:136,1,72
115,85,46400,2,0,B|115:165,1,72
72,211,46707,6,0,B|72:272|162:332,1,144,0|8
256,224,47338,2,0,B|336:224,1,72
364,286,47654,2,0,B|460:286,1,72,8|0
472,224,47970,2,0,B|472:144|424:88,1,144,0|8
292,37,48601,2,0,B|212:37,1,72
147,37,48917,1,8
44,138,49233,6,0,B|44:218|100:290,1,144,0|8
184,376,49864,2,0,B|224:304,1,72
256,251,50180,1,8
293,313,50338,2,0,B|328:376,1,72
400,251,50812,1,8
256,251,51128,1,0
112,251,51443,1,8
48,88,51759,6,0,B|256:187|466:87,2,432
256,192,54285,12,2,55549
256,192,56234,5,4
496,384,56920,5,0
496,384,57239,1,8
360,328,57558,2,0,B|336:272|288:256,1,72
256,233,57877,1,8
194,271,58037,2,0,B|176:272|152:328,1,72
16,376,58515,1,0
34,233,58834,1,0
256,48,59473,5,0
256,48,59792,1,8
119,92,60111,2,0,B|175:148,1,72
220,193,60430,2,0,B|301:193,1,72,8|0
343,141,60749,2,0,B|399:85,2,72,0|0|8
256,256,61388,1,0
56,48,62026,5,0
56,48,62345,1,8
161,148,62664,2,0,B|209:204,1,72
256,256,62983,1,8
304,202,63143,2,0,B|351:148,1,72
453,45,63622,2,0,B|453:116|411:184,1,144
208,384,64579,5,0
304,280,64898,1,8
312,136,65217,1,0
256,88,65377,1,0
200,136,65537,1,8
255,269,65856,1,4
360,88,66175,1,12
152,88,66494,1,12
256,360,67090,5,0
328,240,67404,1,8
184,240,67719,1,0
112,256,67877,1,0
79,192,68034,1,8
112,128,68192,1,0
184,144,68349,1,0
256,19,68664,1,0
328,144,68979,1,0
496,376,69609,5,0
496,376,69924,1,8
352,376,70239,1,0
287,345,70397,1,0
256,280,70554,1,8
187,302,70712,1,0
115,296,70869,1,0
59,251,71027,1,0
16,192,71184,1,8
116,89,71499,1,0
256,56,71814,1,0
396,89,72129,1,0
256,344,72759,5,0
256,344,72916,1,0
256,344,73074,1,8
408,192,73389,1,0
408,192,73546,1,0
408,192,73704,1,8
256,40,74019,1,0
256,40,74176,1,0
256,40,74334,1,8
104,192,74649,1,0
104,192,74806,1,0
104,192,74964,1,8
256,192,75278,5,0
256,192,75436,1,0
256,192,75593,1,0
256,192,75751,1,0
256,192,75908,12,0,78113
256,192,78428,5,0
256,120,78586,1,0
256,48,78743,1,8
112,48,79058,1,0
112,120,79215,1,0
112,192,79373,1,8
256,192,79688,5,8
256,264,79845,1,8
256,336,80003,1,0
400,336,80318,1,8
400,264,80475,1,8
400,192,80633,1,0
256,192,80948,12,0,83152
360,128,83467,5,0
360,128,83625,1,0
360,128,83782,1,8
152,128,84097,1,0
152,128,84255,1,0
152,128,84412,1,8
32,208,84723,6,0,B|104:376|256:392|408:376|480:207,1,576,0|4
