osu file format v9

[General]
AudioFilename: Donten (TV).mp3
AudioLeadIn: 2000
PreviewTime: 56234
Countdown: 0
SampleSet: Normal
StackLeniency: 0.7
Mode: 0
LetterboxInBreaks: 0
SkinPreference:taiko

[Editor]
DistanceSpacing: 1
BeatDivisor: 2
GridSize: 8

[Metadata]
Title:Donten (TV Size)
Artist:DOES
Creator:arien666
Version:Futsuu
Source:Gintama
Tags:taiko taikosu arken1015 op5

[Difficulty]
HPDrainRate:3
CircleSize:3
OverallDifficulty:3
ApproachRate:3
SliderMultiplier:0.72
SliderTickRate:2

[Events]
//Background and Video events
0,0,"donchan.jpg"
Video,-300,"donchan.avi"
//Break Periods
//Storyboard Layer 0 (Background)
//Storyboard Layer 1 (Fail)
//Storyboard Layer 2 (Pass)
//Storyboard Layer 3 (Foreground)
//Storyboard Sound Samples
//Background Colour Transformations
3,100,163,162,255

[TimingPoints]
640,331.491712707182,4,1,1,80,1,0
3291,337.078651685393,4,1,1,80,1,0
7335,322.58064516129,4,1,1,80,1,0
8625,320.855614973262,4,1,1,80,1,0
11191,315.789473684211,4,1,1,80,1,0
13717,326.086956521739,4,1,1,80,1,0
16325,319.148936170213,4,1,1,80,1,0
21431,314.13612565445,4,1,1,80,1,0
28970,319.148936170213,4,1,1,80,1,0
31523,315.789473684211,4,1,1,80,1,0
40365,319.148936170213,4,1,1,80,1,0
45471,309.757356737223,4,1,1,80,1,0
46707,315.789473684211,4,1,1,80,1,0
55549,342.857142857143,4,1,1,80,1,0
56920,319.148936170213,4,1,1,80,1,1
67090,314.96062992126,4,1,1,80,1,1
84723,315.789473684211,4,1,1,80,1,1
85986,-100,4,1,1,80,0,0

[Colours]
Combo1 : 68,166,164
Combo2 : 202,64,11

[HitObjects]
32,352,640,1,4
480,32,3291,5,4
256,192,4639,1,4
32,24,5987,5,4
168,72,6661,1,4
256,192,7335,5,0
304,240,7657,1,0
352,288,7980,2,0,B|384:312|424:312,1,72
488,312,8625,5,0
488,168,9266,2,0,B|464:128|416:120,1,72
360,112,9908,1,0
216,112,10550,1,0
96,192,11191,5,0
216,272,11822,2,0,B|256:304|288:304,1,72
352,304,12454,1,0
440,192,13085,1,0
352,80,13717,1,4
40,192,16325,5,0
184,192,16963,2,0,B|224:192|248:152,1,72
256,88,17601,1,0
256,88,18239,1,0
360,192,18878,5,0
400,328,19516,2,0,B|320:328,1,72
256,328,20154,1,0
472,192,21431,5,0
328,192,22059,2,0,B|288:192|264:152,1,72
256,88,22687,1,0
256,88,23315,1,8
152,192,23944,5,0
112,328,24572,2,0,B|192:328,1,72
256,328,25200,1,0
312,192,25828,1,8
256,56,26457,1,0
112,304,27713,6,0,B|192:304,1,72
256,304,28341,1,0
328,304,28656,1,0
400,304,28970,1,0
472,24,30246,6,0,B|392:24,1,72
328,24,30884,1,0
256,24,31204,1,0
256,192,31523,12,0,33733
472,344,36575,5,0
328,344,37207,2,0,B|248:344,1,72
184,344,37838,1,0
103,224,38470,1,0
40,96,39101,5,0
184,96,39733,2,0,B|264:96,1,72
328,96,40364,1,0
256,376,41641,5,0
256,232,42279,2,0,B|256:160,1,72
256,88,42918,1,0
256,88,43556,1,8
160,192,44194,5,0
304,192,44832,2,0,B|376:192,1,72
448,192,45471,1,0
448,336,46090,1,8
312,336,46707,1,0
32,192,47970,6,0,B|88:136,1,72
128,88,48601,1,0
184,40,48917,1,0
256,24,49233,1,0
480,192,50496,6,0,B|424:248,1,72
384,296,51127,1,0
328,344,51443,1,0
256,360,51759,1,0
344,88,53022,6,0,B|312:19|198:19|166:89,1,216
256,192,54285,12,2,55549
256,192,56234,5,4
112,192,56920,5,0
112,336,57558,1,0
256,336,58196,2,0,B|336:336,1,72
400,336,58834,1,0
432,192,59473,5,0
360,192,59792,1,0
288,192,60111,2,0,B|240:240,2,36
324,129,60749,1,0
443,48,61387,1,8
456,192,62026,5,0
392,320,62664,1,0
256,368,63302,2,0,B|176:368,1,72
112,368,63940,1,0
40,240,64579,5,0
64,168,64898,1,0
112,224,65217,1,0
136,152,65536,1,0
160,80,65856,1,4
432,192,67090,5,0
400,56,67719,1,0
256,32,68349,2,0,B|168:32,1,72
112,32,68979,1,0
40,156,69609,5,0
40,228,69924,1,0
104,192,70239,2,0,B|176:192,1,72
248,192,70869,1,0
312,168,71184,1,0
376,136,71499,1,0
504,192,72129,5,0
256,336,73389,1,0
256,192,74019,1,0
256,48,74649,1,0
256,192,75278,2,0,B|336:192,1,72
256,192,75908,12,0,78113
256,192,78428,5,0
256,120,78743,1,0
256,48,79058,1,0
376,120,79688,5,8
376,192,80003,1,8
376,264,80318,1,8
256,192,80948,12,0,83152
112,264,83467,5,0
112,192,83782,1,0
112,120,84097,1,0
256,120,84723,6,0,B|400:120|400:264|255:264,1,288,0|4
