osu file format v13

[General]
AudioFilename: DO-KO - Dream Diary.mp3
AudioLeadIn: 0
PreviewTime: 1000
Countdown: 0
SampleSet: Soft
StackLeniency: 0.7
Mode: 0
LetterboxInBreaks: 0
WidescreenStoryboard: 0

[Editor]
DistanceSpacing: 1.2
BeatDivisor: 4
GridSize: 4
TimelineZoom: 1

[Metadata]
Title:Dream Diary
TitleUnicode:Dream Diary
Artist:DO-KO
ArtistUnicode:DO-KO
Creator:andrei7
Version:Normal
Source:
Tags:Poniko's House instrumental train calm
BeatmapID:556860
BeatmapSetID:241034

[Difficulty]
HPDrainRate:4
CircleSize:4
OverallDifficulty:5
ApproachRate:5.8
SliderMultiplier:1.4
SliderTickRate:1

[Events]
//Background and Video events
0,0,"wallhaven-54326.jpg",0,0
//Break Periods
//Storyboard Layer 0 (Background)
//Storyboard Layer 1 (Fail)
//Storyboard Layer 2 (Pass)
//Storyboard Layer 3 (Foreground)
//Storyboard Sound Samples
//Background Colour Transformations
3,100,163,162,255

[TimingPoints]
1000,521.739130434783,4,2,1,15,1,0

[Colours]
Combo1 : 235,220,130
Combo2 : 255,228,196
Combo3 : 215,181,130
Combo4 : 205,133,63

[HitObjects]
60,108,1000,6,0,P|127:87|196:78,1,140,2|0,0:0|0:0,0:0:0:0:
360,120,2043,2,0,P|392:124|440:128,1,70
392,216,2565,2,0,B|356:216|328:244|328:244|300:268|264:268,1,140,2|0,0:0|0:0,0:0:0:0:
100,256,3608,2,0,P|130:271|153:298,1,70
76,336,4130,2,0,P|20:276|40:196,2,140,2|0|0,0:0|0:0|0:0,0:0:0:0:
236,284,5695,2,0,B|261:258|301:258|301:258|337:255|363:230,2,140,2|0|0,0:0|0:0|0:0,0:0:0:0:
404,304,7260,6,0,P|444:248|344:148,1,210,2|0,0:0|0:0,0:0:0:0:
288,140,8304,1,0,0:0:0:0:
208,112,8565,1,0,0:0:0:0:
156,48,8826,2,0,P|132:80|168:184,1,140,2|0,0:0|0:0,0:0:0:0:
256,304,9869,1,0,0:0:0:0:
406,224,10391,2,0,B|388:192|362:172|362:172|400:132|392:76|356:48,1,210,2|0,0:0|0:0,0:0:0:0:
300,112,11434,1,0,0:0:0:0:
212,112,11695,1,0,0:0:0:0:
156,48,11956,2,0,B|120:76|112:132|150:172|150:172|124:196|105:224,1,210,2|0,0:0|0:0,0:0:0:0:
168,280,13000,2,0,P|187:251|213:226,1,70
232,144,13521,6,0,P|272:168|284:272,1,140,2|0,0:0|0:0,0:0:0:0:
448,316,14565,2,0,P|424:284|412:240,1,70
424,172,15086,2,0,B|412:104|412:104|352:64,1,140,2|0,0:0|0:0,0:0:0:0:
180,64,16130,2,0,P|136:80|108:88,1,70
192,72,16652,2,0,B|168:100|168:136|168:136|168:172|144:200,2,140,2|0|0,0:0|0:0|0:0,0:0:0:0:
320,132,18217,2,0,B|344:160|344:196|344:196|344:232|368:260,2,140,2|0|0,0:0|0:0|0:0,0:0:0:0:
448,244,19782,6,0,P|428:316|352:340,1,140,2|0,0:0|0:0,0:0:0:0:
292,304,20565,1,0,0:0:0:0:
213,259,20826,2,0,P|178:255|143:260,1,70
139,341,21347,2,0,P|79:310|64:244,1,140,2|0,0:0|0:0,0:0:0:0:
224,192,22391,1,0,0:0:0:0:
64,140,22913,2,0,P|79:73|139:42,1,140,2|0,0:0|0:0,0:0:0:0:
143,123,23695,1,0,0:0:0:0:
116,204,23956,2,0,P|80:220|24:216,1,70
36,299,24478,2,0,P|86:345|152:333,1,140,2|0,0:0|0:0,0:0:0:0:
184,264,25260,1,0,0:0:0:0:
215,194,25521,6,0,P|258:246|244:312,2,140,0|2|0,0:0|0:0|0:0,0:0:0:0:
164,128,26826,1,0,0:0:0:0:
192,48,27086,2,0,P|228:28|276:24,1,70
336,52,27608,2,0,P|344:88|440:132,1,140,2|0,0:0|0:0,0:0:0:0:
272,192,28652,2,0,L|352:192,1,70
428,249,29173,2,0,P|363:269|336:332,1,140,2|0,0:0|0:0,0:0:0:0:
416,328,29956,2,0,L|436:256,1,70
404,180,30478,1,0,0:0:0:0:
472,128,30739,2,0,P|424:96|344:116,1,140,2|0,0:0|0:0,0:0:0:0:
180,120,31782,2,0,P|176:80|192:36,1,70
164,112,32304,6,0,P|99:93|40:128,1,140,2|0,0:0|0:0,0:0:0:0:
96,192,33086,2,0,L|172:192,2,70
39,255,33869,2,0,P|99:290|164:271,1,140,2|0,0:0|0:0,0:0:0:0:
256,132,34913,1,0,0:0:0:0:
347,271,35434,2,0,P|412:290|472:255,1,140,2|0,0:0|0:0,0:0:0:0:
416,192,36217,2,0,L|340:192,2,70
472,128,37000,2,0,P|412:93|347:112,1,140,2|0,0:0|0:0,0:0:0:0:
292,176,37782,1,0,0:0:0:0:
236,240,38043,2,0,P|176:274|111:255,1,140,0|2,0:0|0:0,0:0:0:0:
76,92,39086,5,0,0:0:0:0:
244,68,39608,2,0,P|236:32|220:4,1,70
160,64,40130,2,0,P|176:120|272:148,1,140,2|0,0:0|0:0,0:0:0:0:
404,212,41173,2,0,P|428:184|456:168,1,70
478,250,41695,2,0,P|436:290|339:266,2,140,2|0|0,0:0|0:0|0:0,0:0:0:0:
478,134,43260,2,0,P|436:93|339:117,2,140,2|0|0,0:0|0:0|0:0,0:0:0:0:
320,192,44826,6,0,B|272:224|220:192|220:192|169:163|122:195,1,210,2|0,0:0|0:0,0:0:0:0:
172,264,45869,2,0,P|184:304|184:344,1,70
84,302,46391,2,0,B|92:292|92:268|92:268|57:255|36:216|44:180,1,140,2|0,0:0|0:0,0:0:0:0:
92,24,47434,1,0,0:0:0:0:
212,136,47956,2,0,B|244:183|213:235|213:235|185:287|218:333,1,210,2|0,0:0|0:0,0:0:0:0:
284,280,49000,2,0,P|324:264|360:260,1,70
431,270,49521,2,0,P|361:337|284:280,1,210,2|0,0:0|0:0,0:0:0:0:
356,236,50565,1,0,0:0:0:0:
