osu file format v5

[General]
AudioFilename: DNAngel - Opening.mp3
AudioLeadIn: 0
PreviewTime: -1
Countdown: 1
SampleSet: Normal
StackLeniency: 0.7
Mode: 0
LetterboxInBreaks: 1

[Metadata]
Title:Opening
Artist:DNAngel
Creator:Keanaza
Version:Normal
Source:
Tags:

[Difficulty]
HPDrainRate:5
CircleSize:5
OverallDifficulty:5
SliderMultiplier:0.499999999999999
SliderTickRate:1

[Events]
//Background and Video events
//Break Periods
//Storyboard Layer 0 (Background)
//Storyboard Layer 1 (Failing)
//Storyboard Layer 2 (Passing)
//Storyboard Layer 3 (Foreground)
//Storyboard Sound Samples
//Background Colour Transformations
3,100,163,162,255

[TimingPoints]
0,400,4,1,0,100

[HitObjects]
64,64,800,2,0,L|320:288,1,324.999999999999
320,320,4800,5,0
256,288,5200,1,0
416,64,6800,5,0
416,160,7000,1,0
416,256,7200,1,0
352,320,7600,5,2
352,320,7800,1,2
320,96,8400,5,2
256,160,8800,6,0,L|96:288,1,200
256,192,10800,12,2,14000
96,96,14400,5,0
352,96,15200,1,0
384,256,17000,1,0
224,256,18800,1,0
64,256,20200,1,0
64,128,21800,1,0
192,128,23600,1,0
320,128,24400,1,0
416,128,25200,1,0
416,192,26600,1,0
416,224,27200,1,0
416,224,27400,1,0
352,288,27800,5,0
224,288,28200,1,0
288,224,28600,1,2
288,224,29000,1,2
64,64,29800,5,2
64,128,30000,2,2,L|64:256,2,125
96,64,33200,5,4
96,64,33600,1,4
96,64,33800,1,4
416,64,34800,5,0
352,128,35200,1,0
288,192,35400,1,0
64,64,36000,5,2
64,160,36200,2,2,L|64:288,1,125
32,64,37600,6,0,L|96:64,1,49.9999999999999
160,128,39800,5,0
160,128,40200,1,0
160,128,40400,1,0
160,128,40800,1,0
384,96,41400,1,0
352,160,41800,1,0
288,224,42000,1,0
192,288,42400,1,0
64,64,43000,5,0
64,64,43200,1,0
64,64,43400,1,0
64,64,43600,1,0
128,64,44000,1,0
256,64,44200,1,0
448,64,44800,6,0,L|448:192|352:288|192:224|384:96,1,649.999999999999
256,192,50400,12,0,52400
64,64,52800,1,0
96,96,53000,1,0
160,32,53400,5,0
192,64,53600,1,0
320,64,54000,1,2
288,128,54200,2,2,L|128:256,1,200
416,64,56400,5,2
416,128,56600,1,2
416,192,56800,1,2
416,256,57000,1,2
416,320,57200,1,2
352,320,57400,1,2
448,64,58800,5,6
384,64,59000,2,6,L|192:64,1,175
160,128,60800,1,6
416,64,61400,1,6
416,128,61800,1,6
192,64,62400,5,6
192,64,62800,1,6
192,64,63200,1,6
192,160,63400,5,6
224,160,63600,1,6
256,160,64000,1,6
384,64,65600,5,6
384,64,66000,1,6
384,160,66200,2,6,L|320:288,1,125
328,271,67400,1,6
96,64,68000,5,6
96,160,68200,1,6
192,160,68400,1,6
192,64,68600,1,6
320,64,69000,5,6
320,160,69400,1,6
448,64,69800,1,6
448,160,70200,1,6
64,64,71800,5,4
64,64,72000,1,4
64,64,72200,1,4
64,64,72600,1,4
64,64,72800,1,4
192,64,73400,5,4
192,64,73600,1,4
192,64,73800,1,4
192,64,74200,1,4
192,64,74400,1,4
448,64,75200,5,4
448,160,75400,2,4,L|384:256|288:256|256:256,1,224.999999999999
256,192,77600,12,4,81800
