osu file format v14

[General]
AudioFilename: [Neutral Spoilers] DM vs. POCKET - uNDeRWoRLD MoNaRCHy (Undertale Remix 7).mp3
AudioLeadIn: 0
PreviewTime: -1
Countdown: 1
SampleSet: None
StackLeniency: 0.7
Mode: 0
LetterboxInBreaks: 1
WidescreenStoryboard: 0

[Editor]
DistanceSpacing: 1.4
BeatDivisor: 4
GridSize: 4
TimelineZoom: 1

[Metadata]
Title:uNDeRWoRLD MoNaRCHy
TitleUnicode:uNDeRWoRLD MoNaRCHy
Artist:DM vs POCKET
ArtistUnicode:DM vs POCKET
Creator:KyariPamyu
Version:Mercy Or Fight?
Source:
Tags:
BeatmapID:1551841
BeatmapSetID:735092

[Difficulty]
HPDrainRate:5
CircleSize:3
OverallDifficulty:7
ApproachRate:8
SliderMultiplier:1.4
SliderTickRate:1

[Events]
//Background and Video events
0,0,"a2qawqa.jpg",0,0
//Break Periods
2,64559,66151
//Storyboard Layer 0 (Background)
//Storyboard Layer 1 (Fail)
//Storyboard Layer 2 (Pass)
//Storyboard Layer 3 (Foreground)
//Storyboard Sound Samples

[TimingPoints]
291.699,338.983050847458,4,3,0,100,1,0
11478,-200,4,3,0,100,0,0
39839,-76.9230769230769,4,3,0,100,0,0
44867,-200,4,3,0,100,0,0
45715,-76.9230769230769,4,3,0,100,0,0
55715,-200,4,3,0,100,0,0
56562,-76.9230769230769,4,3,0,100,0,0
66393,-76.9230769230769,4,3,0,100,0,0
107410,-76.9230769230769,4,3,0,100,0,0
118596,-76.9230769230769,4,3,0,100,0,0
129783,-76.9230769230769,4,3,0,100,0,0
172834,-76.9230769230769,4,3,0,100,0,0
216562,-76.9230769230769,4,3,0,100,0,0

[HitObjects]
0,328,12156,5,2,0:0:0:0:
108,164,12834,1,2,0:0:0:0:
292,304,13512,2,2,B|260:228|392:148|312:20,1,280
184,104,15545,1,2,0:0:0:0:
68,208,16223,2,2,B|144:272|256:128|352:196,1,280
400,324,18257,1,2,0:0:0:0:
492,200,18935,1,2,0:0:0:0:
372,124,19274,2,2,P|300:104|296:104,1,70
240,228,19952,2,2,P|316:256|324:256,1,70
444,276,20630,6,2,P|504:272|528:256,1,70
508,128,21308,1,2,0:0:0:0:
376,80,21647,1,2,0:0:0:0:
128,256,22777,5,2,0:0:0:0:
188,280,22890,1,2,0:0:0:0:
236,280,23003,2,2,P|312:288|376:264,1,140
156,88,24359,2,2,B|240:32|324:144|428:92,1,280
500,240,26393,1,2,0:0:0:0:
252,368,27071,2,2,B|180:284|340:200|240:96,1,280
91,45,29105,1,2,0:0:0:0:
256,192,29952,12,2,31901,0:0:0:0:
120,64,32608,5,2,0:0:0:0:
336,240,33286,1,2,0:0:0:0:
112,304,33964,1,2,0:0:0:0:
256,192,35376,12,2,38766,0:0:0:0:
52,68,40122,5,2,0:0:0:0:
100,168,40292,1,2,0:0:0:0:
200,208,40461,2,2,P|268:176|296:136,1,90.9999958343508
312,61,40800,1,2,0:0:0:0:
411,104,40969,2,2,P|443:172|417:309,2,181.999991668702
489,69,41817,2,2,P|537:57|591:62,1,90.9999958343508
483,202,42156,2,2,P|472:252|481:310,1,90.9999958343508
377,308,42495,2,2,P|307:291|172:322,1,181.999991668702
124,244,43003,1,2,0:0:0:0:
67,150,43173,1,2,0:0:0:0:
58,41,43342,6,2,P|106:34|188:52,1,90.9999958343508
224,116,43681,2,2,P|315:122|410:100,2,181.999991668702
196,222,44528,2,2,P|219:273|250:311,1,90.9999958343508
349,297,44867,2,2,P|410:265|454:192,1,140
431,89,45715,2,2,P|362:59|328:21,1,90.9999958343508
243,69,46054,1,2,0:0:0:0:
138,98,46223,1,2,0:0:0:0:
136,207,46393,2,2,P|238:230|298:304,2,181.999991668702
68,128,47240,2,2,P|103:66|139:52,1,90.9999958343508
218,101,47579,2,2,P|272:112|325:100,1,90.9999958343508
381,187,47918,6,2,P|417:228|556:261,1,181.999991668702
463,347,48427,2,2,P|396:334|365:340,1,90.9999958343508
264,331,48766,1,2,0:0:0:0:
159,298,48935,1,2,0:0:0:0:
87,215,49105,2,2,P|125:173|163:37,2,181.999991668702
13,134,49952,2,2,P|62:107|85:55,1,90.9999958343508
187,58,50291,2,2,P|258:78|399:68,2,181.999991668702
212,165,51139,1,2,0:0:0:0:
302,225,51308,1,2,0:0:0:0:
365,314,51478,6,2,P|463:312|477:299,1,90.9999958343508
428,212,51817,2,2,P|425:136|463:33,2,181.999991668702
319,196,52664,1,2,0:0:0:0:
221,147,52834,1,2,0:0:0:0:
134,80,53003,2,2,P|85:64|7:78,1,90.9999958343508
28,173,53342,2,2,P|34:244|-6:351,1,181.999991668702
107,353,53851,2,2,P|169:329|217:329,1,90.9999958343508
302,325,54190,5,2,0:0:0:0:
378,247,54359,1,2,0:0:0:0:
385,138,54528,2,2,P|361:88|238:40,2,181.999991668702
283,181,55376,1,2,0:0:0:0:
189,219,55545,1,2,0:0:0:0:
87,259,55715,2,2,P|41:216|18:135,1,140
103,76,56562,1,2,0:0:0:0:
211,88,56732,1,2,0:0:0:0:
304,143,56901,1,2,0:0:0:0:
385,215,57071,1,2,0:0:0:0:
409,321,57240,6,2,P|328:338|206:303,2,181.999991668702
503,264,58088,2,2,P|504:183|528:157,1,90.9999958343508
441,90,58427,1,2,0:0:0:0:
332,90,58596,1,2,0:0:0:0:
224,110,58766,2,2,P|141:126|46:85,1,181.999991668702
30,198,59274,2,2,P|27:256|40:299,1,90.9999958343508
126,347,59613,1,2,0:0:0:0:
207,274,59783,1,2,0:0:0:0:
310,306,59952,2,2,P|396:255|491:266,2,181.999991668702
299,196,60800,1,2,0:0:0:0:
304,87,60969,5,2,0:0:0:0:
195,75,61139,1,2,0:0:0:0:
110,144,61308,1,2,0:0:0:0:
60,246,61478,2,2,P|99:297|236:337,1,181.999991668702
256,192,61986,12,2,64359,0:0:0:0:
74,47,66901,5,2,0:0:0:0:
0,200,67240,2,2,P|127:312|254:330,1,272.999987503052
395,77,68427,1,2,0:0:0:0:
206,187,68935,1,2,0:0:0:0:
403,281,69274,1,2,0:0:0:0:
196,351,69613,2,2,P|133:353|21:284,1,181.999991668702
57,102,70461,1,2,0:0:0:0:
383,80,71139,1,2,0:0:0:0:
326,290,71647,1,2,0:0:0:0:
146,165,71986,1,2,0:0:0:0:
22,344,72325,6,2,P|99:340|212:275,1,181.999991668702
435,73,73173,1,2,0:0:0:0:
48,67,73851,1,2,0:0:0:0:
328,234,74359,1,2,0:0:0:0:
128,323,74698,1,2,0:0:0:0:
224,127,75037,2,2,P|314:55|405:37,1,181.999991668702
512,314,75884,1,2,0:0:0:0:
86,213,76562,1,2,0:0:0:0:
375,58,77071,1,2,0:0:0:0:
252,238,77410,1,2,0:0:0:0:
64,125,77749,6,2,P|114:76|239:53,1,181.999991668702
447,149,78596,1,2,0:0:0:0:
36,297,79274,1,2,0:0:0:0:
108,87,79783,2,2,P|194:66|303:87,2,181.999991668702
233,266,80800,1,2,0:0:0:0:
485,57,81308,1,2,0:0:0:0:
440,319,81986,1,2,0:0:0:0:
154,157,82495,1,2,0:0:0:0:
11,292,82834,2,2,P|109:325|205:311,1,181.999991668702
154,157,83512,1,2,0:0:0:0:
454,26,84020,5,2,0:0:0:0:
427,242,84528,1,2,0:0:0:0:
211,274,84867,1,2,0:0:0:0:
61,40,85545,1,2,0:0:0:0:
11,155,86223,2,2,P|35:203|263:223,1,272.999987503052
437,65,87410,1,2,0:0:0:0:
453,243,87918,1,2,0:0:0:0:
231,246,88257,1,2,0:0:0:0:
12,248,88596,1,2,0:0:0:0:
111,53,88935,6,2,P|202:46|380:109,1,272.999987503052
133,198,90122,1,2,0:0:0:0:
512,287,90630,2,2,P|434:340|321:350,1,181.999991668702
167,230,91308,1,2,0:0:0:0:
55,41,91647,1,2,0:0:0:0:
379,91,92156,1,2,0:0:0:0:
204,66,92834,1,2,0:0:0:0:
39,209,93342,1,2,0:0:0:0:
219,332,93681,1,2,0:0:0:0:
406,219,94020,2,2,P|459:169|496:59,1,181.999991668702
179,108,94867,5,2,0:0:0:0:
34,257,95545,1,2,0:0:0:0:
355,320,96054,1,2,0:0:0:0:
445,121,96393,1,2,0:0:0:0:
238,192,96732,1,2,0:0:0:0:
54,73,97071,2,2,P|121:60|243:66,1,181.999991668702
320,131,97579,1,2,0:0:0:0:
49,316,98088,2,2,L|140:303,1,90.9999958343508
466,292,98766,2,2,L|363:292,1,90.9999958343508
366,182,99105,2,2,L|484:182,2,90.9999958343508
157,249,99783,5,2,0:0:0:0:
74,73,100122,2,2,L|179:73,1,90.9999958343508
17,258,100800,1,2,0:0:0:0:
17,258,100969,1,2,0:0:0:0:
143,59,101478,2,2,L|248:59,1,90.9999958343508
231,168,101817,2,2,L|352:168,2,90.9999958343508
203,278,102495,5,2,0:0:0:0:
420,297,102834,2,2,L|550:297,1,90.9999958343508
283,60,103512,2,2,L|393:59,1,90.9999958343508
76,197,104190,2,2,L|199:197,1,90.9999958343508
169,305,104528,2,2,L|298:306,1,90.9999958343508
365,336,104867,1,2,0:0:0:0:
256,146,105206,1,2,0:0:0:0:
489,116,105545,1,2,0:0:0:0:
489,116,105715,1,2,0:0:0:0:
161,117,106223,5,2,0:0:0:0:
52,306,106562,1,2,0:0:0:0:
161,117,107240,1,0,0:0:0:0:
52,307,107918,5,2,0:0:0:0:
68,105,108257,2,0,P|116:111|169:105,1,90.9999958343508
249,197,108596,1,0,0:0:0:0:
351,120,108766,1,0,0:0:0:0:
414,230,108935,2,0,P|378:273|341:298,1,90.9999958343508
225,323,109274,1,0,0:0:0:0:
101,291,109444,1,0,0:0:0:0:
37,180,109613,2,0,P|102:155|141:115,1,90.9999958343508
168,24,109952,6,0,P|242:17|286:32,1,90.9999958343508
351,107,110291,1,0,0:0:0:0:
439,198,110461,1,0,0:0:0:0:
374,307,110630,1,0,0:0:0:0:
250,338,110800,1,0,0:0:0:0:
130,293,110969,2,0,P|131:230|109:180,1,90.9999958343508
144,78,111308,1,0,0:0:0:0:
264,34,111478,1,0,0:0:0:0:
351,107,111647,2,0,P|396:192|421:207,1,90.9999958343508
308,285,111986,2,0,P|271:320|107:320,1,181.999991668702
118,212,112495,5,0,0:0:0:0:
150,89,112664,2,0,P|215:72|363:93,1,181.999991668702
401,186,113173,1,0,0:0:0:0:
440,306,113342,2,0,P|348:299|232:324,1,181.999991668702
131,318,113851,1,0,0:0:0:0:
76,203,114020,1,0,0:0:0:0:
70,75,114190,2,0,P|158:73|194:57,1,90.9999958343508
269,135,114528,1,0,0:0:0:0:
377,67,114698,1,0,0:0:0:0:
381,193,114867,2,0,P|418:223|465:237,1,90.9999958343508
361,319,115206,6,0,P|299:302|239:316,1,90.9999958343508
146,284,115545,1,0,0:0:0:0:
91,168,115715,1,0,0:0:0:0:
158,60,115884,2,0,P|205:78|266:53,1,90.9999958343508
339,154,116223,1,0,0:0:0:0:
440,75,116393,1,0,0:0:0:0:
444,195,116562,2,0,P|460:259|495:308,2,90.9999958343508
440,75,117071,1,0,0:0:0:0:
339,154,117240,1,0,0:0:0:0:
286,270,117410,6,0,P|222:297|85:286,1,181.999991668702
102,167,117918,1,0,0:0:0:0:
120,40,118088,2,0,P|190:78|303:73,1,181.999991668702
439,135,118766,2,0,P|424:211|459:313,1,181.999991668702
328,295,119274,2,0,P|260:266|134:275,1,181.999991668702
157,140,119783,2,0,P|241:140|333:44,1,181.999991668702
378,193,120291,2,0,P|387:239|424:290,1,90.9999958343508
287,312,120630,2,0,P|212:284|90:291,1,181.999991668702
115,156,121139,6,0,P|220:158|298:122,1,181.999991668702
183,56,121647,2,0,P|97:44|70:19,1,90.9999958343508
19,145,121986,2,0,P|22:226|72:329,1,181.999991668702
170,246,122495,2,0,P|253:215|354:234,1,181.999991668702
411,337,123003,2,0,P|459:306|467:254,1,90.9999958343508
430,165,123342,2,0,P|370:115|307:18,1,181.999991668702
224,123,123851,2,0,P|141:125|37:183,1,181.999991668702
151,249,124359,6,0,P|203:297|211:347,1,90.9999958343508
309,235,124698,2,0,P|350:211|488:241,1,181.999991668702
436,110,125206,2,0,P|362:107|256:41,1,181.999991668702
200,164,125715,2,0,P|150:186|112:234,1,90.9999958343508
176,328,126054,2,0,P|262:302|383:322,1,181.999991668702
326,185,126562,2,0,P|413:189|512:135,1,181.999991668702
492,277,127071,2,0,P|517:345|536:352,1,90.9999958343508
400,352,127410,2,0,P|317:349|210:289,1,181.999991668702
185,186,127918,1,0,0:0:0:0:
409,65,128257,5,0,0:0:0:0:
154,64,128935,1,0,0:0:0:0:
409,65,129613,1,0,0:0:0:0:
222,238,129952,2,0,P|268:291|307:307,1,90.9999958343508
378,212,130291,1,0,0:0:0:0:
476,293,130461,1,0,0:0:0:0:
490,166,130630,2,0,P|526:117|527:67,1,90.9999958343508
409,65,130969,1,0,0:0:0:0:
283,86,131139,1,0,0:0:0:0:
158,111,131308,2,0,P|78:126|61:151,1,90.9999958343508
66,257,131647,6,0,P|99:326|99:352,1,90.9999958343508
227,340,131986,1,0,0:0:0:0:
320,253,132156,1,0,0:0:0:0:
406,160,132325,1,0,0:0:0:0:
493,66,132495,1,0,0:0:0:0:
367,44,132664,2,0,P|286:61|246:42,2,90.9999958343508
493,66,133173,1,0,0:0:0:0:
406,160,133342,1,0,0:0:0:0:
320,253,133512,1,0,0:0:0:0:
203,303,133681,6,0,P|49:302|21:280,1,181.999991668702
60,164,134190,1,0,0:0:0:0:
99,43,134359,2,0,P|155:29|299:60,1,181.999991668702
480,201,135037,2,0,P|456:240|328:317,1,181.999991668702
242,236,135545,1,0,0:0:0:0:
127,179,135715,2,0,P|73:187|23:171,1,90.9999958343508
80,58,136054,1,0,0:0:0:0:
206,45,136223,1,0,0:0:0:0:
307,122,136393,2,0,P|361:195|388:209,1,90.9999958343508
314,313,136732,2,0,P|252:324|210:317,1,90.9999958343508
106,272,137071,5,0,0:0:0:0:
170,162,137240,1,0,0:0:0:0:
106,272,137410,1,0,0:0:0:0:
170,162,137579,1,0,0:0:0:0:
238,262,137749,2,0,P|291:247|356:258,1,90.9999958343508
352,123,138088,2,0,P|381:87|388:38,2,90.9999958343508
444,211,138596,1,0,0:0:0:0:
442,338,138766,1,0,0:0:0:0:
316,355,138935,1,0,0:0:0:0:
194,331,139105,6,0,P|103:275|65:175,1,181.999991668702
155,114,139613,1,0,0:0:0:0:
251,29,139783,2,0,P|330:73|404:178,1,181.999991668702
422,261,140461,2,0,P|370:291|243:289,1,181.999991668702
139,355,140969,2,0,P|103:280|14:188,1,181.999991668702
138,126,141478,2,0,P|193:91|323:79,1,181.999991668702
293,202,141986,2,0,P|383:222|402:216,1,90.9999958343508
462,319,142325,2,0,P|483:179|520:120,1,181.999991668702
380,103,142834,6,0,P|265:98|201:61,1,181.999991668702
167,188,143342,2,0,P|136:251|44:324,1,181.999991668702
174,355,143851,2,0,P|228:326|283:338,1,90.9999958343508
334,226,144190,2,0,P|356:148|443:37,1,181.999991668702
284,64,144698,2,0,P|189:106|70:126,1,181.999991668702
142,246,145206,2,0,P|179:282|196:335,1,90.9999958343508
299,298,145545,2,0,P|373:248|488:228,1,181.999991668702
415,108,146054,2,0,P|352:122|194:113,1,181.999991668702
143,210,146562,2,0,P|83:223|41:257,1,90.9999958343508
39,112,146901,6,0,P|103:83|189:0,1,181.999991668702
218,131,147410,2,0,P|336:137|427:183,1,181.999991668702
316,262,147918,2,0,P|328:308|320:356,1,90.9999958343508
212,325,148257,2,0,P|120:323|33:255,1,181.999991668702
131,176,148766,2,0,P|190:139|238:37,1,181.999991668702
344,110,149274,2,0,P|398:93|466:102,1,90.9999958343508
512,186,149613,2,0,P|430:226|346:327,1,181.999991668702
343,103,150630,1,0,0:0:0:0:
51,37,151308,5,0,0:0:0:0:
0,140,151478,1,0,0:0:0:0:
50,256,151647,1,0,0:0:0:0:
0,140,151817,1,0,0:0:0:0:
51,37,151986,2,0,P|90:73|300:95,1,272.999987503052
294,350,152834,2,0,P|317:291|350:269,2,90.9999958343508
274,223,153342,1,0,0:0:0:0:
121,18,153681,1,0,0:0:0:0:
14,180,154020,5,0,0:0:0:0:
25,307,154190,1,0,0:0:0:0:
137,366,154359,1,0,0:0:0:0:
257,327,154528,1,0,0:0:0:0:
346,231,154698,2,0,P|368:127|505:37,1,272.999987503052
245,57,155545,2,0,L|146:57,1,90.9999958343508
146,184,155884,2,0,L|273:185,1,90.9999958343508
450,324,156393,1,0,0:0:0:0:
195,324,156732,5,0,0:0:0:0:
303,258,156901,1,0,0:0:0:0:
195,324,157071,1,0,0:0:0:0:
303,258,157240,1,0,0:0:0:0:
195,324,157410,2,0,P|129:282|33:113,1,272.999987503052
276,37,158257,2,0,L|393:37,1,90.9999958343508
406,158,158596,1,0,0:0:0:0:
492,251,158766,1,0,0:0:0:0:
239,283,159105,1,0,0:0:0:0:
8,173,159444,6,0,P|103:124|293:144,1,272.999987503052
239,283,160461,6,0,P|316:277|401:208,1,181.999991668702
367,90,160969,2,0,P|418:76|566:113,1,181.999991668702
159,85,161817,1,0,0:0:0:0:
2,286,162156,1,0,0:0:0:0:
108,216,162325,1,0,0:0:0:0:
206,297,162495,1,0,0:0:0:0:
305,217,162664,1,0,0:0:0:0:
399,303,162834,2,0,P|503:316|592:273,1,181.999991668702
504,179,163342,2,0,P|426:153|333:80,1,181.999991668702
227,144,163851,6,0,P|170:133|100:153,1,90.9999958343508
97,258,164190,2,0,P|214:314|268:297,1,181.999991668702
482,181,164867,1,0,0:0:0:0:
392,271,165037,1,0,0:0:0:0:
344,153,165206,1,0,0:0:0:0:
421,51,165376,1,0,0:0:0:0:
344,153,165545,2,0,P|290:177|127:171,1,181.999991668702
145,309,166054,6,0,P|230:304|325:352,1,181.999991668702
392,271,166562,2,0,P|416:215|460:191,1,90.9999958343508
344,153,166901,2,0,P|271:144|159:82,1,181.999991668702
45,160,167579,2,0,P|35:209|47:271,1,90.9999958343508
167,246,167918,2,0,P|168:324|155:353,1,90.9999958343508
290,316,168257,2,0,P|343:268|461:226,1,181.999991668702
343,148,168766,2,0,P|289:140|178:70,1,181.999991668702
86,159,169274,2,0,P|44:186|-7:180,2,90.9999958343508
257,348,169952,1,0,0:0:0:0:
268,93,170291,6,0,B|338:169|442:37|541:93,1,272.999987503052
415,295,171308,2,0,B|367:339|263:228|216:295,1,181.999991668702
179,162,171817,2,0,B|125:208|52:118|4:162,1,181.999991668702
36,338,172664,1,0,0:0:0:0:
33,83,173003,6,0,P|74:63|143:55,1,90.9999958343508
182,173,173342,1,0,0:0:0:0:
295,115,173512,1,0,0:0:0:0:
351,229,173681,2,0,P|407:274|425:314,1,90.9999958343508
289,310,174020,1,0,0:0:0:0:
162,326,174190,2,0,P|65:295|26:217,1,181.999991668702
81,113,174698,2,0,P|146:95|193:59,1,90.9999958343508
283,131,175037,2,0,P|354:147|391:145,1,90.9999958343508
433,237,175376,1,0,0:0:0:0:
346,330,175545,1,0,0:0:0:0:
220,305,175715,6,0,P|170:258|116:243,1,90.9999958343508
45,176,176054,1,0,0:0:0:0:
150,105,176223,1,0,0:0:0:0:
276,83,176393,2,0,P|352:100|388:93,1,90.9999958343508
450,192,176732,1,0,0:0:0:0:
401,309,176901,2,0,P|272:255|204:263,1,181.999991668702
122,322,177410,1,0,0:0:0:0:
101,196,177579,1,0,0:0:0:0:
54,76,177749,2,0,P|105:67|160:42,1,90.9999958343508
261,94,178088,6,0,P|304:57|354:37,1,90.9999958343508
424,133,178427,1,0,0:0:0:0:
339,227,178596,1,0,0:0:0:0:
436,309,178766,2,0,P|376:331|352:360,1,90.9999958343508
235,315,179105,1,0,0:0:0:0:
129,244,179274,2,0,P|94:207|78:61,1,181.999991668702
194,44,179783,5,0,0:0:0:0:
305,105,179952,1,0,0:0:0:0:
409,178,180122,2,0,P|491:183|532:202,1,90.9999958343508
432,294,180461,1,0,0:0:0:0:
306,312,180630,2,0,P|245:268|106:244,1,181.999991668702
70,135,181139,6,0,P|129:77|252:51,1,181.999991668702
308,143,181647,2,0,P|388:151|484:110,1,181.999991668702
479,241,182156,2,0,P|412:258|324:329,1,181.999991668702
240,231,182664,2,0,P|161:220|60:251,1,181.999991668702
73,66,183512,1,0,0:0:0:0:
326,89,183851,6,0,P|406:89|434:70,1,90.9999958343508
442,209,184190,1,0,0:0:0:0:
344,289,184359,2,0,P|296:279|237:294,1,90.9999958343508
129,265,184698,2,0,P|36:263|-18:198,1,181.999991668702
72,108,185206,1,0,0:0:0:0:
193,67,185376,2,0,P|248:44|293:53,1,90.9999958343508
410,260,185715,2,0,P|324:280|252:341,1,181.999991668702
161,249,186223,2,0,P|105:247|68:229,1,90.9999958343508
72,108,186562,5,0,0:0:0:0:
193,69,186732,1,0,0:0:0:0:
319,78,186901,1,0,0:0:0:0:
430,140,187071,2,0,P|376:194|350:311,1,181.999991668702
220,295,187579,1,0,0:0:0:0:
115,257,187749,1,0,0:0:0:0:
63,140,187918,2,0,P|116:103|150:51,1,90.9999958343508
253,43,188257,1,0,0:0:0:0:
344,131,188427,2,0,P|354:181|437:284,1,181.999991668702
306,297,188935,5,0,0:0:0:0:
185,253,189105,1,0,0:0:0:0:
116,146,189274,2,0,P|170:128|220:100,1,90.9999958343508
303,37,189613,1,0,0:0:0:0:
333,161,189783,2,0,P|409:188|544:149,1,181.999991668702
467,293,190291,2,0,P|405:305|372:331,1,90.9999958343508
260,281,190630,2,0,P|246:217|207:170,2,90.9999958343508
137,319,191139,2,0,P|91:294|50:147,1,181.999991668702
85,58,191647,5,0,0:0:0:0:
169,153,191817,1,0,0:0:0:0:
259,64,191986,2,0,P|361:113|446:113,1,181.999991668702
386,237,192495,2,0,P|313:270|234:348,1,181.999991668702
127,279,193003,2,0,P|136:195|97:77,1,181.999991668702
228,50,193512,2,0,P|289:69|329:53,1,90.9999958343508
378,172,193851,1,0,0:0:0:0:
493,118,194020,1,0,0:0:0:0:
378,172,194190,1,0,0:0:0:0:
493,118,194359,2,0,P|494:193|534:335,1,181.999991668702
418,328,194867,6,0,P|375:316|303:329,1,90.9999958343508
207,279,195206,1,0,0:0:0:0:
109,196,195376,1,0,0:0:0:0:
79,72,195545,2,0,P|156:82|270:56,1,181.999991668702
370,122,196054,1,0,0:0:0:0:
472,46,196223,1,0,0:0:0:0:
498,171,196393,2,0,P|460:216|451:269,1,90.9999958343508
342,312,196732,2,0,P|246:329|135:312,1,181.999991668702
115,201,197240,2,0,P|152:168|172:127,1,90.9999958343508
218,13,197579,2,0,P|162:27|110:18,1,90.9999958343508
36,112,197918,6,0,P|40:204|103:295,1,181.999991668702
242,204,198427,2,0,P|296:163|360:153,1,90.9999958343508
393,259,198766,5,0,0:0:0:0:
456,148,198936,1,0,0:0:0:0:
388,40,199105,1,0,0:0:0:0:
269,86,199275,2,0,P|192:95|54:66,1,181.999991668702
39,219,199783,1,0,0:0:0:0:
98,332,199953,1,0,0:0:0:0:
187,242,200122,1,0,0:0:0:0:
347,248,200291,2,0,P|422:232|516:153,1,181.999991668702
452,51,200800,5,0,0:0:0:0:
329,82,200969,1,0,0:0:0:0:
201,89,201139,1,0,0:0:0:0:
80,130,201308,2,0,P|123:182|136:318,1,181.999991668702
269,310,201817,2,0,P|314:277|381:269,1,90.9999958343508
344,140,202156,1,0,0:0:0:0:
468,165,202325,1,0,0:0:0:0:
392,268,202495,1,0,0:0:0:0:
265,259,202664,1,0,0:0:0:0:
142,223,202834,6,0,P|83:168|28:57,1,181.999991668702
162,88,203342,2,0,P|246:87|353:41,1,181.999991668702
389,169,203851,2,0,P|406:231|490:337,1,181.999991668702
344,333,204359,2,0,P|238:282|157:282,1,181.999991668702
99,176,204867,2,0,P|170:152|276:62,1,181.999991668702
360,161,205376,2,0,P|398:188|468:194,1,90.9999958343508
408,314,205715,2,0,P|356:307|308:326,1,90.9999958343508
219,297,206054,1,0,0:0:0:0:
123,213,206223,2,0,P|183:190|268:84,1,181.999991668702
373,163,206732,6,0,P|438:157|486:121,1,90.9999958343508
410,27,207071,2,0,P|341:35|302:68,1,90.9999958343508
224,107,207410,1,0,0:0:0:0:
102,144,207579,2,0,P|92:242|148:333,1,181.999991668702
234,241,208088,2,0,P|308:208|353:218,1,90.9999958343508
412,291,208427,1,0,0:0:0:0:
487,188,208596,1,0,0:0:0:0:
382,114,208766,2,0,P|286:98|204:43,1,181.999991668702
139,156,209274,2,0,P|63:184|54:206,1,90.9999958343508
113,303,209613,2,0,P|190:297|230:317,1,90.9999958343508
16,217,209952,6,0,P|5:129|59:22,1,181.999991668702
164,72,210461,2,0,P|223:70|263:48,1,90.9999958343508
283,180,210800,1,0,0:0:0:0:
262,305,210969,1,0,0:0:0:0:
383,266,211139,2,0,P|434:213|539:180,1,181.999991668702
448,86,211647,2,0,P|393:86|326:52,1,90.9999958343508
246,134,211986,1,0,0:0:0:0:
127,182,212156,1,0,0:0:0:0:
59,289,212325,2,0,P|130:302|228:366,1,181.999991668702
285,247,212834,5,0,0:0:0:0:
407,282,213003,1,0,0:0:0:0:
417,154,213173,2,0,P|438:110|479:89,2,90.9999958343508
335,55,213681,2,0,P|224:95|138:86,1,181.999991668702
131,216,214190,2,0,P|93:272|-36:311,1,181.999991668702
184,346,214698,2,0,P|252:321|388:330,1,181.999991668702
369,194,215206,2,0,P|383:97|459:40,1,181.999991668702
315,34,215715,1,0,0:0:0:0:
198,84,215884,2,0,P|125:128|100:123,1,90.9999958343508
54,235,216223,1,0,0:0:0:0:
172,283,216393,6,0,P|259:295|374:253,1,181.999991668702
319,144,216901,2,0,P|392:123|509:146,1,181.999991668702
468,265,217410,2,0,P|394:307|388:338,1,90.9999958343508
273,264,217749,1,0,0:0:0:0:
151,300,217918,2,0,P|88:308|24:285,1,90.9999958343508
72,176,218257,2,0,P|100:140|104:64,1,90.9999958343508
228,32,218596,1,0,0:0:0:0:
348,76,218766,1,0,0:0:0:0:
452,148,218935,2,0,P|412:184|392:244,1,90.9999958343508
300,320,219274,1,0,0:0:0:0:
172,328,219444,6,0,P|104:348|72:344,1,90.9999958343508
32,232,219783,1,0,0:0:0:0:
44,104,219952,2,0,P|84:72|100:28,1,90.9999958343508
220,72,220291,1,0,0:0:0:0:
344,40,220461,2,0,P|364:92|404:120,1,90.9999958343508
452,228,220800,2,0,P|384:240|272:304,1,181.999991668702
220,72,221478,1,0,0:0:0:0:
32,244,221817,1,0,0:0:0:0:
220,72,222156,1,0,0:0:0:0:
32,244,222495,1,0,0:0:0:0:
280,304,222834,6,0,P|312:220|392:152,2,181.999991668702
220,72,223851,1,0,0:0:0:0:
32,244,224190,1,0,0:0:0:0:
220,72,224528,1,0,0:0:0:0:
