osu file format v5

[General]
AudioFilename: R3 (Omega Mix).mp3
AudioLeadIn: 0
PreviewTime: -1
Countdown: 1
SampleSet: Normal
StackLeniency: 0.8
Mode: 0
LetterboxInBreaks: 1

[Metadata]
Title:R3 (Omega Mix)
Artist:DM Ashura feat. Tiger Yamato
Creator:Takuma
Version:Insane
Source:
Tags:

[Difficulty]
HPDrainRate:6
CircleSize:5
OverallDifficulty:7
SliderMultiplier:1.4
SliderTickRate:1

[Events]
//Background and Video events
0,0,"R3 (Omega Mix)-bg.png"
//Break Periods
2,35118,45358
2,61125,61181
//Storyboard Layer 0 (Background)
//Storyboard Layer 1 (Failing)
//Storyboard Layer 2 (Passing)
//Storyboard Layer 3 (Foreground)
//Storyboard Sound Samples
//Background Colour Transformations
3,100,163,162,255

[TimingPoints]
11639,363.74658987572,4,1,0,100,1,0

[Colours]
Combo1 : 190,90,105
Combo2 : 96,122,200
Combo3 : 140,211,75
Combo4 : 223,228,14
Combo5 : 231,122,50

[HitObjects]
104,120,11639,2,0,B|224:120,1,105,4|0
240,120,12002,1,0
304,152,12184,1,0
408,152,12457,1,0
408,152,12548,2,0,B|408:224,2,70
408,224,13093,6,0,B|328:304,1,105
224,295,13639,2,0,B|304:216,2,105
152,296,14367,1,0
96,256,14548,6,0,B|96:136,1,105
96,112,14912,1,0
160,88,15094,2,0,B|160:200,1,105
160,232,15458,1,0
224,256,15640,2,0,B|296:256,1,70
272,184,16003,6,0,B|352:104,2,105
224,88,16822,1,0
344,112,17095,2,0,B|416:184,1,70
344,216,17458,6,0,B|344:336,1,105
344,360,17822,1,0
272,352,18004,2,0,B|272:232,1,105
272,208,18368,2,0,B|192:208,2,70
320,152,18913,6,0,B|400:72,2,105
256,64,19732,1,0
152,64,20005,2,0,B|80:136,1,70
48,160,20368,5,0
112,240,20641,1,0
112,240,20732,1,0
160,192,20914,1,0
208,280,21187,1,0
208,280,21278,1,0
264,232,21460,2,0,B|320:176,1,70
256,192,21823,12,4,23278
256,192,23551,5,0
256,192,23642,1,0
304,144,23824,1,0
352,96,24006,2,0,B|408:152,1,70,4|2
448,192,24370,2,0,B|392:248,1,70,2|2
352,296,24733,1,6
280,296,24915,5,0
280,296,25006,1,0
280,296,25097,1,0
280,296,25279,1,0
208,296,25461,2,0,B|208:224,1,70,4|2
168,168,25825,2,0,B|88:168,1,70,2|2
72,144,26097,1,2
48,112,26188,1,6
104,64,26370,5,0
104,64,26461,1,0
104,64,26552,1,0
104,64,26734,1,0
176,64,26916,2,0,B|248:64,1,70,4|2
224,128,27280,2,0,B|296:128,1,70,2|2
328,64,27643,1,6
400,64,27825,5,0
400,64,27916,1,0
400,64,28007,1,0
400,64,28189,1,0
456,120,28371,2,0,B|456:192,1,70,4|0
400,232,28735,2,0,B|328:232,1,70,2|2
304,248,29007,1,2
272,264,29098,1,6
200,264,29280,5,0
200,264,29371,1,0
200,264,29462,1,0
200,264,29644,1,0
136,232,29826,2,0,B|136:160,1,70,4|2
200,192,30190,2,0,B|200:120,1,70,2|2
136,88,30553,1,6
200,56,30735,5,0
200,56,30826,1,0
200,56,30917,1,0
200,56,31099,1,0
272,56,31281,2,0,B|328:112,1,70,4|2
368,152,31645,2,0,B|312:208,1,70,2|2
288,224,31917,1,0
264,248,32008,1,6
192,248,32190,5,0
192,248,32281,1,0
192,248,32372,1,0
192,248,32554,1,0
192,320,32736,2,0,B|264:320,1,70,4|2
120,320,33100,2,0,B|120:240,1,70,2|2
256,192,33463,12,4,34918
256,152,46558,6,0,B|256:80,1,70,4|0
256,224,46922,2,0,B|256:296,1,70
112,296,47286,2,0,B|200:296,1,70
184,152,47649,2,0,B|184:224,1,70
184,80,48013,2,0,B|256:80,1,70
112,96,48377,2,0,B|112:168,1,70
112,304,48741,2,0,B|112:224,1,70
248,232,49104,1,2
336,120,49468,6,0,B|408:120,1,70
264,120,49832,2,0,B|264:192,1,70
264,48,50196,2,0,B|192:48,1,70,0|2
336,48,50559,2,0,B|416:48,1,70
408,184,50923,2,0,B|408:112,1,70,2|0
408,256,51287,2,0,B|336:256,1,70,2|0
264,256,51651,5,2
208,208,51832,1,2
264,168,52014,1,2
208,120,52196,1,2
256,192,52378,12,2,56197
256,192,56379,5,0
256,192,56561,1,4
256,120,56743,2,0,B|216:120,2,35
328,120,57107,2,0,B|328:160,2,35,0|0|0
328,48,57471,1,0
328,48,57562,1,0
328,48,57652,1,4
328,48,57743,1,0
328,48,57834,1,4
400,48,58016,1,0
400,120,58198,6,0,B|400:192,1,70,4|0
360,248,58562,2,0,B|280:248,1,70,4|0
216,248,58926,2,0,B|216:168,1,70,4|0
216,104,59289,2,0,B|144:104,1,70,4|0
72,104,59653,2,0,B|72:184,1,70,4|0
72,240,60017,2,0,B|144:240,1,70,4|0
144,168,60381,1,4
216,168,60562,2,4,B|216:240,2,70
256,192,62381,12,4,64018
256,192,64291,5,0
256,192,64382,1,0
256,192,64564,1,0
256,120,64746,2,0,B|336:120,1,70,4|2
392,120,65109,2,0,B|392:200,1,70,2|2
392,256,65473,1,6
320,256,65655,5,0
320,256,65746,1,0
320,256,65837,1,0
320,256,66019,1,0
248,256,66200,2,0,B|168:256,1,70,4|2
208,320,66564,2,0,B|136:320,1,70,2|2
112,296,66837,1,2
88,272,66928,1,6
48,216,67110,5,0
48,216,67201,1,0
48,216,67292,1,0
48,216,67474,1,0
48,144,67655,2,0,B|120:144,1,70,4|2
184,144,68019,2,0,B|184:64,1,70,2|2
256,72,68383,1,6
328,72,68565,6,0,B|360:104,1,35
376,120,68747,1,0
376,120,68929,1,0
424,168,69110,2,0,B|368:224,1,70,4|0
320,264,69474,2,0,B|264:208,1,70,2|2
248,192,69747,1,2
248,192,69838,1,6
192,232,70020,5,0
192,232,70111,1,0
192,232,70202,1,0
192,232,70384,1,0
128,192,70565,2,0,B|128:112,1,70,4|2
192,88,70929,2,0,B|264:88,1,70,2|2
312,136,71293,1,6
384,136,71475,6,0,B|416:168,2,35
384,136,71839,1,0
360,200,72020,2,0,B|360:272,1,70,4|2
296,304,72384,2,0,B|296:224,1,70,2|2
296,200,72657,1,2
296,200,72748,1,6
256,136,72930,5,0
256,136,73021,1,0
256,136,73112,1,0
256,136,73294,1,0
184,136,73475,2,0,B|128:192,1,70,4|2
88,240,73839,2,0,B|144:296,1,70,2|2
160,312,74112,1,2
184,336,74203,1,6
256,336,74385,5,0
256,336,74476,1,0
256,336,74567,1,0
256,336,74749,1,0
256,264,74930,2,4,L|336:264,4,70
256,192,75840,5,0
256,192,75931,1,0
256,192,76022,1,0
256,192,76204,1,0
184,192,76386,2,0,B|184:272,1,70,4|2
112,264,76749,2,0,B|112:184,1,70,2|2
112,120,77113,1,6
184,120,77295,5,0
184,120,77386,1,0
184,120,77477,1,0
184,120,77659,1,0
256,120,77840,2,0,B|336:120,1,70,4|2
296,56,78204,2,0,B|368:56,1,70,2|2
392,80,78477,1,2
416,104,78568,1,6
464,160,78750,5,0
464,160,78841,1,0
464,160,78932,1,0
464,160,79114,1,0
464,232,79295,2,0,B|392:232,1,70,4|2
320,232,79659,2,0,B|320:312,1,70,2|2
248,304,80023,1,6
176,304,80205,6,0,B|144:272,1,35
128,256,80387,1,0
128,256,80569,1,0
80,200,80750,2,0,B|136:144,1,70,4|0
192,120,81114,2,0,B|248:176,1,70,2|2
264,192,81387,1,2
264,192,81478,1,6
320,152,81660,5,0
320,152,81751,1,0
320,152,81842,1,0
320,152,82024,1,0
384,192,82205,2,0,B|384:272,1,70,4|2
320,296,82569,2,0,B|248:296,1,70,2|2
200,248,82933,1,6
128,248,83115,6,0,B|96:216,2,35
128,248,83479,1,0
152,184,83660,2,0,B|152:112,1,70,4|2
216,80,84024,2,0,B|216:160,1,70,2|2
216,184,84297,1,2
216,184,84388,1,6
256,248,84570,5,0
256,248,84661,1,0
256,248,84752,1,0
256,248,84934,1,0
328,248,85115,2,0,B|384:192,1,70,4|2
424,144,85479,2,0,B|368:88,1,70,2|2
256,192,85843,12,0,86571
256,192,86753,6,4,B|256:272,2,70
256,112,87298,1,0
256,112,87571,1,0
256,112,87662,1,0
200,152,87843,1,0
96,152,88116,1,0
96,152,88207,2,0,B|96:224,2,70
96,224,88752,6,0,B|176:304,1,105
280,295,89298,2,0,B|200:216,2,105
352,296,90026,1,0
408,256,90207,6,0,B|408:144,1,105
408,112,90571,1,0
344,88,90753,2,0,B|344:200,1,105
344,224,91117,1,0
280,256,91299,2,0,B|208:256,1,70
232,184,91662,6,0,B|152:104,2,105
280,88,92481,1,0
160,112,92754,2,0,B|88:184,1,70
160,216,93117,6,0,B|160:336,1,105
160,352,93481,1,0
232,352,93663,2,0,B|232:232,1,105
232,208,94027,2,0,B|312:208,2,70
184,152,94572,6,0,B|104:72,2,105
248,64,95391,1,0
352,64,95664,2,0,B|424:136,1,70
456,160,96027,5,0
392,240,96300,1,0
392,240,96391,1,0
344,192,96573,1,0
296,280,96846,1,0
296,280,96937,1,0
240,232,97119,2,0,B|184:176,1,70
144,128,97483,6,0,B|64:208,1,105
144,128,98028,2,0,B|264:128,1,105
352,128,98574,2,0,B|424:128,1,70
424,200,98938,6,0,B|424:272,1,70,4|0
352,272,99301,2,0,B|280:272,1,70,0|0
280,200,99665,2,0,B|280:120,1,70,0|0
352,128,100029,2,0,B|424:128,1,70
424,200,100393,6,0,B|344:200,1,70,4|0
280,200,100756,2,0,B|280:280,1,70
208,272,101120,1,4
136,272,101302,2,4,B|136:344,2,70,4|4|4
256,192,101848,12,4,103303
