osu file format v14

[General]
AudioFilename: deltaMAX.mp3
AudioLeadIn: 1000
PreviewTime: 50149
Countdown: 1
SampleSet: None
StackLeniency: 0.2
Mode: 0
LetterboxInBreaks: 1
WidescreenStoryboard: 1

[Editor]
Bookmarks: 11850,28439,41420,52084,61137,75952,87824,97731,106231,113676,116246
DistanceSpacing: 0.5
BeatDivisor: 1
GridSize: 4
TimelineZoom: 0.4999996

[Metadata]
Title:deltaMAX
TitleUnicode:deltaMAX
Artist:DM Ashura
ArtistUnicode:DM Ashura
Creator:lsckjy
Version:deathstack 8/1
Source:DDR Forever
Tags:Dance Dance Revolution Universe 3 stepmania ignorethis lzy Doomsday tsuka Frank7654321
BeatmapID:824341
BeatmapSetID:367807

[Difficulty]
HPDrainRate:5
CircleSize:3
OverallDifficulty:0
ApproachRate:0
SliderMultiplier:2
SliderTickRate:0.5

[Events]
//Background and Video events
0,0,"deltaMAX-bg.png",0,0
//Break Periods
//Storyboard Layer 0 (Background)
//Storyboard Layer 1 (Fail)
//Storyboard Layer 2 (Pass)
//Storyboard Layer 3 (Foreground)
Sprite,Foreground,Centre,"nothing.png",320,240 F,0,125410,,0
//Storyboard Sound Samples

[TimingPoints]
315,600,4,1,0,80,1,0
8715,-100,4,1,0,17,0,0
9915,594.088816278034,4,1,0,40,1,1
10509,588.264130594637,4,1,0,40,1,0
11097,582.552551094713,4,1,0,40,1,0
11680,576.950814943026,4,1,0,40,1,0
12257,571.455783608743,4,1,0,40,1,0
12828,566.064437001745,4,1,0,40,1,0
13394,560.773867937754,4,1,0,40,1,0
13955,555.581276910968,4,1,0,40,1,0
14511,550.483967154457,4,1,0,40,1,0
15061,545.479339969999,4,1,0,40,1,0
15606,540.564890310374,4,1,0,40,1,0
16147,535.73820259833,4,1,0,40,1,0
16683,530.996946767556,4,1,0,40,1,0
17214,526.33887451204,4,1,0,40,1,0
17740,521.761815731119,4,1,0,40,1,0
18262,517.263675158412,4,1,0,40,1,0
18779,512.84242916364,4,1,0,40,1,0
19292,508.496122717064,4,1,0,40,1,0
19800,504.222866506996,4,1,0,40,1,0
20304,500.020834201425,4,1,0,40,1,0
20804,495.888259845448,4,1,0,40,1,0
21300,491.823435386696,4,1,0,40,1,0
21792,487.824708321476,4,1,0,40,1,0
22280,483.890479454817,4,1,0,40,1,0
22764,480.019200768031,4,1,0,40,1,0
23244,476.209373387833,4,1,0,40,1,0
23720,472.459545651404,4,1,0,40,1,0
24192,468.768311262159,4,1,0,40,1,0
24661,465.1343075313,4,1,0,40,1,0
25126,461.556213700527,4,1,0,40,1,0
25588,458.032749341578,4,1,0,40,1,0
26046,454.562672828516,4,1,0,40,1,0
26501,451.144779878943,4,1,0,45,1,0
26952,447.777902160528,4,1,0,45,1,0
27400,444.46090595948,4,1,0,45,1,0
27844,441.192690907754,4,1,0,45,1,0
28285,437.972188766013,4,1,0,45,1,0
28723,434.798362259502,4,1,0,45,1,0
29158,431.670203964171,4,1,0,45,1,0
29590,428.586735240544,4,1,0,45,1,0
30019,425.547005212951,4,1,0,45,1,0
30445,422.550089791894,4,1,0,45,1,0
30868,419.595090737438,4,1,0,45,1,0
31288,416.681134761624,4,1,0,45,1,0
31705,413.807372668023,4,1,0,45,1,0
32119,410.972978526662,4,1,0,45,1,0
32530,408.177148882615,4,1,0,45,1,0
32938,405.419101996689,4,1,0,45,1,0
33343,402.698077116682,4,1,0,45,1,0
33746,400.013333777793,4,1,0,45,1,0
34146,397.364151130832,4,1,0,45,1,0
34543,394.749827296951,4,1,0,45,1,0
34938,392.169678747671,4,1,0,45,1,0
35330,389.623039709081,4,1,0,45,1,0
35720,387.109261589084,4,1,0,45,1,0
36107,384.62771242668,4,1,0,45,1,0
36492,382.177776362305,4,1,0,45,1,0
36874,379.758853128264,4,1,0,45,1,0
37254,377.370357558414,4,1,0,45,1,0
37631,375.011719116222,4,1,0,45,1,0
38006,372.682381440417,4,1,0,45,1,0
38379,370.381801907466,4,1,0,45,1,0
38749,368.10945121016,4,1,0,45,1,0
39117,365.864812951614,4,1,0,45,1,0
39483,363.647383254038,4,1,0,50,1,0
39847,361.456670381638,4,1,0,50,1,0
40208,359.292194377077,4,1,0,50,1,0
40567,357.153486710914,4,1,0,50,1,0
40924,355.040089943489,4,1,0,50,1,0
41279,352.951557398747,4,1,0,50,1,0
41632,350.887452849499,4,1,0,50,1,0
41983,348.847350213669,4,1,0,50,1,0
42332,346.830833261077,4,1,0,50,1,0
42679,344.837495330326,4,1,0,50,1,0
43024,342.866939055402,4,1,0,50,1,0
43367,340.918776101594,4,1,0,50,1,0
43708,338.992626910365,4,1,0,50,1,0
44047,337.088120452822,4,1,0,50,1,0
44384,335.204893991452,4,1,0,50,1,0
44719,333.342592849801,4,1,0,50,1,0
45052,331.500870189784,4,1,0,50,1,0
45384,329.679386796341,4,1,0,50,1,0
45714,327.877810869149,4,1,0,50,1,0
46042,326.095817821136,4,1,0,50,1,0
46368,324.333090083516,4,1,0,50,1,0
46692,322.589316917121,4,1,0,50,1,0
47015,320.864194229792,4,1,0,50,1,0
47336,319.157424399585,4,1,0,50,1,0
47655,317.468716103601,4,1,0,50,1,0
47972,315.797784152215,4,1,0,50,1,0
48288,314.144349328516,4,1,0,50,1,0
48602,312.508138232766,4,1,0,50,1,0
48915,310.888883131687,4,1,0,50,1,0
49226,309.286321812418,4,1,0,50,1,0
49535,307.70019744096,4,1,0,50,1,0
49843,306.13025842496,4,1,0,50,1,0
50149,304.576258280667,4,1,0,55,1,1
50454,303.037955503927,4,1,0,55,1,1
50757,301.515113445061,4,1,0,55,1,1
51059,300.007500187505,4,1,0,55,1,1
51359,298.51488843006,4,1,0,55,1,1
51658,297.037055372658,4,1,0,55,1,1
51955,295.573782605483,4,1,0,55,1,1
52251,294.124856001373,4,1,0,55,1,1
52545,292.690065611356,4,1,0,55,1,1
52838,291.269205563242,4,1,0,55,1,1
53129,289.862073963139,4,1,0,55,1,1
53419,288.468472799827,4,1,0,55,1,1
53707,287.088207851862,4,1,0,55,1,1
53994,285.721088597348,4,1,0,55,1,1
54280,284.366928126259,4,1,0,55,1,1
54564,283.025543055261,4,1,0,55,1,1
54847,281.696753444917,4,1,0,55,1,1
55129,280.380382719222,4,1,0,55,1,1
55409,279.076257587386,4,1,0,55,1,1
55688,277.784207967777,4,1,0,55,1,1
55966,276.504066913984,4,1,0,55,1,1
56243,275.235670542902,4,1,0,55,1,1
56518,273.978857964794,4,1,0,55,1,1
56792,272.733471215255,4,1,0,55,1,1
57065,271.499355189031,4,1,0,55,1,1
57336,270.276357575621,4,1,0,55,1,1
57606,269.06432879661,4,1,0,55,1,1
57875,267.863121944686,4,1,0,55,1,1
58143,266.672592724283,4,1,0,55,1,1
58410,265.492599393792,4,1,0,55,1,1
58675,264.323002709311,4,1,0,55,1,1
58939,263.163665869866,4,1,0,55,1,1
59202,262.014454464071,4,1,0,60,1,1
59202,-200,4,1,0,60,0,1
59464,260.875236418183,4,1,0,60,1,0
59725,259.745881945497,4,1,0,60,1,0
59985,258.626263497058,4,1,0,60,1,0
60244,257.516255713642,4,1,0,60,1,0
60502,256.415735378961,4,1,0,60,1,0
60758,255.324581374072,4,1,0,60,1,0
61013,254.242674632937,4,1,0,60,1,0
61267,253.169898099116,4,1,0,60,1,0
61267,-200,4,1,0,60,0,0
61520,252.106136683544,4,1,0,60,1,0
61772,251.051277223373,4,1,0,60,1,0
62023,250.005208441843,4,1,0,60,1,0
62273,248.967820909147,4,1,0,60,1,0
62522,247.939007004277,4,1,0,60,1,0
62770,246.918660877796,4,1,0,60,1,0
63017,245.906678415541,4,1,0,60,1,0
63262,244.902957203208,4,1,0,60,1,0
63262,-200,4,1,0,60,0,0
63508,243.907396491799,4,1,0,60,1,0
63752,242.91989716391,4,1,0,60,1,0
63995,241.940361700841,4,1,0,60,1,0
64237,240.968694150485,4,1,0,60,1,0
64478,240.004800096002,4,1,0,60,1,0
64718,239.048586625232,4,1,0,60,1,0
64957,238.099962300839,4,1,0,60,1,0
65195,237.158837131169,4,1,0,60,1,0
65195,-200,4,1,0,60,0,0
65432,236.225122541782,4,1,0,60,1,0
65668,235.298731347673,4,1,0,60,1,0
65903,234.379577726127,4,1,0,60,1,0
66137,233.467577190218,4,1,0,60,1,0
66370,232.562646562918,4,1,0,60,1,0
66603,231.664703951814,4,1,0,60,1,0
66835,230.773668724399,4,1,0,60,1,0
67066,229.889461483936,4,1,0,60,1,0
67066,-200,4,1,0,60,0,0
67296,229.012004045879,4,1,0,60,1,0
67525,228.141219414818,4,1,0,60,1,0
67753,227.277031761965,4,1,0,60,1,0
67980,226.41936640314,4,1,0,60,1,0
68206,225.568149777251,4,1,0,60,1,0
68432,224.72330942527,4,1,0,60,1,0
68657,223.884773969664,4,1,0,60,1,0
68881,223.052473094295,4,1,0,60,1,0
68881,-200,4,1,0,60,0,0
69104,222.226337524769,4,1,0,60,1,0
69326,221.406299009207,4,1,0,60,1,0
69547,220.592290299454,4,1,0,60,1,0
69768,219.784245132695,4,1,0,60,1,0
69988,218.982098213471,4,1,0,60,1,0
70207,218.185785196094,4,1,0,60,1,0
70425,217.39524266744,4,1,0,60,1,0
70642,216.610408130111,4,1,0,60,1,0
70642,-200,4,1,0,60,0,0
70859,215.831219985971,4,1,0,60,1,0
71075,215.057617520027,4,1,0,60,1,0
71290,214.289540884659,4,1,0,60,1,0
71504,213.526931084183,4,1,0,60,1,0
71718,212.769729959751,4,1,0,60,1,0
71931,212.017880174561,4,1,0,60,1,0
72143,211.271325199387,4,1,0,60,1,0
72354,210.530009298409,4,1,0,60,1,0
72354,-200,4,1,0,60,0,0
72565,209.793877515341,4,1,0,60,1,0
72775,209.062875659855,4,1,0,60,1,0
72984,208.336950294276,4,1,0,60,1,0
73192,207.616048720566,4,1,0,60,1,0
73400,206.900118967568,4,1,0,60,1,0
73607,206.189109778519,4,1,0,60,1,0
73813,205.482970598812,4,1,0,60,1,0
74018,204.78165156402,4,1,0,65,1,0
74223,204.085103488155,4,1,1,65,1,0
74427,203.393277852167,4,1,1,65,1,0
74630,202.706126792682,4,1,1,65,1,0
74833,202.023603090961,4,1,1,65,1,0
75035,201.345660162083,4,1,1,65,1,0
75236,200.672252044349,4,1,1,65,1,0
75437,200.00333338889,4,1,1,65,1,0
75637,199.338859449493,4,1,1,65,1,0
75836,198.678786072617,4,1,1,65,1,0
76035,198.023069687619,4,1,1,65,1,0
76233,197.371667297159,4,1,1,65,1,0
76430,196.724536467811,4,1,1,65,1,0
76627,196.081635320839,4,1,1,65,1,0
76823,195.442922523168,4,1,1,65,1,0
77018,194.808357278527,4,1,1,65,1,0
77213,194.177899318759,4,1,1,65,1,0
77407,193.551508895305,4,1,1,65,1,0
77601,192.929146770848,4,1,1,65,1,0
77794,192.310774211125,4,1,1,65,1,0
77986,191.696352976885,4,1,1,65,1,0
78178,191.085845316008,4,1,1,65,1,0
78369,190.479213955777,4,1,1,65,1,0
78559,189.876422095286,4,1,1,65,1,0
78749,189.277433398003,4,1,1,65,1,0
78938,188.682211984465,4,1,1,65,1,0
79127,188.090722425116,4,1,1,65,1,0
79315,187.502929733277,4,1,1,65,1,0
79503,186.918799358245,4,1,1,65,1,0
79690,186.338297178528,4,1,1,65,1,0
79876,185.761389495193,4,1,1,65,1,0
80062,185.188043025355,4,1,1,65,1,0
80247,184.618224895768,4,1,1,65,1,0
80432,184.051902636544,4,1,1,65,1,0
80616,183.489044174987,4,1,1,65,1,0
80799,182.92961782954,4,1,1,65,1,0
80982,182.373592303834,4,1,1,65,1,0
81164,181.820936680859,4,1,1,65,1,0
81346,181.271620417227,4,1,1,65,1,0
81527,180.72561333755,4,1,1,65,1,0
81708,180.182885628913,4,1,1,65,1,0
81888,179.643407835447,4,1,1,65,1,0
82068,179.107150852998,4,1,1,65,1,0
82247,178.574085923898,4,1,1,65,1,0
82426,178.044184631819,4,1,1,65,1,0
82604,177.517418896729,4,1,1,65,1,0
82782,176.993760969926,4,1,1,65,1,0
82959,176.473183429168,4,1,1,65,1,0
83135,175.955659173888,4,1,1,65,1,0
83311,175.441161420489,4,1,1,65,1,0
83486,174.929663697722,4,1,1,65,1,0
83661,174.421139842149,4,1,1,65,1,0
83835,173.915563993681,4,1,1,65,1,0
84009,173.412910591194,4,1,1,65,1,0
84182,172.913154368219,4,1,1,65,1,0
84355,172.416270348712,4,1,1,65,1,0
84527,171.922233842892,4,1,1,65,1,0
84699,171.431020443149,4,1,1,65,1,0
84870,170.942606020029,4,1,1,65,1,0
85041,170.456966718277,4,1,1,65,1,0
85211,169.97407895296,4,1,1,65,1,0
85381,169.493919405641,4,1,1,65,1,0
85550,169.016465020634,4,1,1,65,1,0
85719,168.541693001306,4,1,1,65,1,0
85888,168.069580806454,4,1,1,70,1,1
86056,167.600106146734,4,1,1,70,1,1
86224,167.133246981156,4,1,1,70,1,1
86391,166.668981513632,4,1,1,70,1,1
86558,166.207288189587,4,1,1,70,1,1
86724,165.74814569262,4,1,1,70,1,1
86890,165.291532941225,4,1,1,70,1,1
87055,164.837429085564,4,1,1,70,1,1
87220,164.385813504295,4,1,1,70,1,1
87384,163.936665801445,4,1,1,70,1,1
87548,163.489965803349,4,1,1,70,1,1
87711,163.045693555619,4,1,1,70,1,1
87874,162.60382932018,4,1,1,70,1,1
88037,162.164353572346,4,1,1,70,1,1
88199,161.727246997938,4,1,1,70,1,1
88361,161.292490490464,4,1,1,70,1,1
88522,160.860065148326,4,1,1,70,1,1
88683,160.429952272089,4,1,1,70,1,1
88843,160.002133361778,4,1,1,70,1,1
89003,159.57659011423,4,1,1,70,1,1
89163,159.153304420483,4,1,1,70,1,1
89322,158.732258363206,4,1,1,70,1,1
89481,158.313434214172,4,1,1,70,1,1
89639,157.896814431769,4,1,1,70,1,1
89797,157.482381658552,4,1,1,70,1,1
89954,157.070118718831,4,1,1,70,1,1
90111,156.6600086163,4,1,1,70,1,1
90268,156.2520345317,4,1,1,70,1,1
90424,155.846179820517,4,1,1,70,1,1
90580,155.442428010726,4,1,1,70,1,1
90735,155.040762800553,4,1,1,70,1,1
90890,154.641168056289,4,1,1,70,1,1
91045,154.243627810126,4,1,1,70,1,1
91199,153.848126258029,4,1,1,70,1,1
91353,153.454647757644,4,1,1,70,1,1
91506,153.063176826235,4,1,1,70,1,1
91659,152.673698138653,4,1,1,70,1,1
91812,152.286196525337,4,1,1,70,1,1
91964,151.900656970341,4,1,1,70,1,1
92116,151.517064609402,4,1,1,70,1,1
92268,151.135404728019,4,1,1,70,1,1
92419,150.755662759582,4,1,1,70,1,1
92570,150.377824283512,4,1,1,70,1,1
92720,150.001875023438,4,1,1,70,1,1
92870,149.627800845397,4,1,1,70,1,1
93020,149.255587756067,4,1,1,70,1,1
93169,148.885221901016,4,1,1,70,1,1
93318,148.51668956299,4,1,1,70,1,1
93467,148.149977160212,4,1,1,70,1,1
93615,147.78507124472,4,1,1,70,1,1
93763,147.421958500719,4,1,1,70,1,1
93910,147.060625742963,4,1,1,70,1,1
94057,146.701059915158,4,1,1,70,1,1
94204,146.343248088391,4,1,1,70,1,1
94350,145.98717745958,4,1,1,70,1,1
94496,145.632835349944,4,1,1,70,1,1
94642,145.280209203501,4,1,1,70,1,1
94787,144.929286585587,4,1,1,70,1,1
94932,144.580055181388,4,1,1,70,1,1
95077,144.232502794505,4,1,1,70,1,1
95221,143.886617345532,4,1,1,70,1,1
95365,143.542386870656,4,1,1,70,1,1
95509,143.199799520281,4,1,1,70,1,1
95652,142.858843557661,4,1,1,70,1,1
95795,142.51950735757,4,1,1,75,1,1
95938,142.181779404969,4,1,1,75,1,1
96080,141.845648293715,4,1,1,75,1,1
96222,141.511102725268,4,1,1,75,1,1
96364,141.178131507429,4,1,1,75,1,1
96505,140.846723553093,4,1,1,75,1,1
96646,140.516867879015,4,1,1,75,1,1
96787,140.188553604598,4,1,1,75,1,1
96927,139.861769950699,4,1,1,75,1,1
97067,139.536506238445,4,1,1,75,1,1
97207,139.212751888073,4,1,1,75,1,1
97346,138.890496417783,4,1,1,75,1,1
97485,138.569729442603,4,1,1,75,1,1
97624,138.25044067328,4,1,1,75,1,1
97762,137.932619915171,4,1,1,75,1,1
97900,137.616257067168,4,1,1,75,1,1
98038,137.301342120619,4,1,1,75,1,1
98175,136.987865158278,4,1,1,75,1,1
98312,136.675816353261,4,1,1,75,1,1
98449,136.365185968022,4,1,1,75,1,1
98585,136.055964353337,4,1,1,75,1,1
98721,135.748141947307,4,1,1,75,1,1
98857,135.441709274371,4,1,1,75,1,1
98992,135.136656944335,4,1,1,75,1,1
99127,134.832975651412,4,1,1,75,1,1
99262,134.530656173275,4,1,1,75,1,1
99397,134.229689370127,4,1,1,75,1,1
99531,133.930066183774,4,1,1,75,1,1
99665,133.631777636722,4,1,1,75,1,1
99799,133.334814831276,4,1,1,75,1,1
99932,133.039168948658,4,1,1,75,1,1
100065,132.744831248133,4,1,1,75,1,1
100198,132.451793066149,4,1,1,75,1,1
100330,132.160045815483,4,1,1,75,1,1
100462,131.869580984406,4,1,1,75,1,1
100594,131.580390135857,4,1,1,75,1,1
100726,131.292464906618,4,1,1,75,1,1
100857,131.005797006518,4,1,1,75,1,1
100988,130.720378217628,4,1,1,75,1,1
101119,130.436200393483,4,1,1,75,1,1
101249,130.153255458302,4,1,1,75,1,1
101379,129.871535406227,4,1,1,75,1,1
101509,129.591032300565,4,1,1,75,1,1
101639,129.311738273042,4,1,1,75,1,1
101768,129.03364552307,4,1,1,75,1,1
101897,128.756746317021,4,1,1,75,1,1
102026,128.481032987505,4,1,1,75,1,1
102154,128.20649793267,4,1,1,75,1,1
102282,127.933133615497,4,1,1,75,1,1
102410,127.660932563112,4,1,1,75,1,1
102538,127.389887366108,4,1,1,75,1,1
102665,127.119990677867,4,1,1,75,1,1
102792,126.851235213903,4,1,1,75,1,1
102919,126.5836137512,4,1,1,75,1,1
103046,126.31711912757,4,1,1,75,1,1
103172,126.051744241011,4,1,1,75,1,1
103298,125.787482049078,4,1,1,75,1,1
103424,125.524325568259,4,1,1,75,1,1
103550,125.26226787336,4,1,1,75,1,1
103675,125.001302096897,4,1,1,75,1,1
103800,124.741421428497,4,1,1,75,1,1
103925,124.482619114306,4,1,1,75,1,1
104049,124.224888456402,4,1,1,75,1,1
104173,123.968222812219,4,1,1,75,1,1
104297,123.712615593975,4,1,1,80,1,1
104421,123.45806026811,4,1,1,80,1,1
104544,123.204550354726,4,1,1,80,1,1
104667,122.952079427043,4,1,1,80,1,1
104790,122.70064111085,4,1,1,80,1,1
104913,122.45022908397,4,1,1,80,1,1
105035,122.200837075734,4,1,1,80,1,1
105157,121.952458866452,4,1,1,80,1,1
105279,121.705088286899,4,1,1,80,1,1
105401,121.458719217806,4,1,1,80,1,1
105522,121.213345589349,4,1,1,80,1,1
105643,120.968961380659,4,1,1,80,1,1
105764,120.725560619322,4,1,1,80,1,1
105885,120.483137380897,4,1,1,80,1,1
106005,120.241685788435,4,1,1,80,1,1
106125,120.001200012,4,1,1,80,1,1
106245,119.761674268206,4,1,1,80,1,1
106365,119.523102819749,4,1,1,80,1,1
106485,119.28547997495,4,1,1,80,1,1
106604,119.048800087302,4,1,1,80,1,1
106723,118.813057555025,4,1,1,80,1,1
106842,118.578246820621,4,1,1,80,1,1
106961,118.344362370438,4,1,1,80,1,1
107079,118.11139873424,4,1,1,80,1,1
107197,117.879350484779,4,1,1,80,1,1
107315,117.648212237375,4,1,1,80,1,1
107433,117.417978649498,4,1,1,80,1,1
107550,117.188644420356,4,1,1,80,1,1
107667,116.96020429049,4,1,1,80,1,1
107784,116.732653041372,4,1,1,80,1,1
107901,116.505985495005,4,1,1,80,1,1
108018,116.280196513532,4,1,1,80,1,1
108134,116.055280998849,4,1,1,80,1,1
108250,115.831233892219,4,1,1,80,1,1
108366,115.608050173894,4,1,1,80,1,1
108482,115.385724862739,4,1,1,80,1,1
108597,115.164253015864,4,1,1,80,1,1
108712,114.943629728254,4,1,1,80,1,1
108827,114.72385013241,4,1,1,80,1,1
108942,114.50490939799,4,1,1,80,1,1
109057,114.286802731455,4,1,1,80,1,1
109171,114.069525375716,4,1,1,80,1,1
109285,113.853072609797,4,1,1,80,1,1
109399,113.637439748482,4,1,1,80,1,1
109513,113.422622141986,4,1,1,80,1,1
109626,113.208615175615,4,1,1,80,1,1
109739,112.995414269438,4,1,1,80,1,1
109852,112.783014877959,4,1,1,80,1,1
109965,112.571412489798,4,1,1,80,1,1
110078,112.360602627365,4,1,1,80,1,1
110190,112.15058084655,4,1,1,80,1,1
110302,111.941342736406,4,1,1,80,1,1
110414,111.732883918845,4,1,1,80,1,1
110526,111.525200048328,4,1,1,80,1,1
110638,111.318286811566,4,1,1,80,1,1
110749,111.112139927222,4,1,1,80,1,1
110860,110.906755145611,4,1,1,80,1,1
110971,110.702128248416,4,1,1,80,1,1
111082,110.498255048389,4,1,1,80,1,1
111192,110.295131389075,4,1,1,80,1,1
111302,110.092753144524,4,1,1,80,1,1
111412,109.891116219013,4,1,1,80,1,1
111522,109.690216546769,4,1,1,80,1,1
111632,109.490050091698,4,1,1,80,1,1
111741,109.290612847112,4,1,1,90,1,1
111850,109.091900835462,4,1,1,90,1,1
111959,108.893910108077,4,1,1,90,1,1
112068,108.696636744898,4,1,1,90,1,1
112177,108.500076854221,4,1,1,90,1,1
112286,108.304226572442,4,1,1,90,1,1
112394,108.109082063802,4,1,1,90,1,1
112502,107.91463952014,4,1,1,90,1,1
112610,107.720895160639,4,1,1,90,1,1
112718,107.527845231588,4,1,1,90,1,1
112826,107.335486006136,4,1,1,90,1,1
112933,107.143813784052,4,1,1,90,1,1
113040,106.952824891487,4,1,1,90,1,1
113147,106.762515680744,4,1,1,90,1,1
113254,106.57288253004,4,1,1,90,1,1
113361,106.383921843279,4,1,1,90,1,1
113467,106.195630049823,4,1,1,90,1,1
113573,106.008003604272,4,1,1,90,1,1
113679,105.821038986234,4,1,1,90,1,1
113785,105.634732700112,4,1,1,90,1,1
113891,105.449081274879,4,1,1,90,1,1
113996,105.264081263871,4,1,1,90,1,1
114101,105.079729244564,4,1,1,90,1,1
114206,104.896021818373,4,1,1,90,1,1
114311,104.712041884817,4,1,0,100,1,1
114337,-100,4,1,1,100,0,0

[Colours]
Combo1 : 0,255,0
Combo2 : 244,0,6
Combo3 : 129,69,252
Combo4 : 255,255,255

[HitObjects]
256,192,9915,1,0,0:0:0:0:
256,192,14511,1,0,0:0:0:0:
256,192,18779,1,0,0:0:0:0:
256,192,22763,1,0,0:0:0:0:
256,192,26501,1,0,0:0:0:0:
256,192,30018,1,0,0:0:0:0:
256,192,33343,1,0,0:0:0:0:
256,192,36491,1,0,0:0:0:0:
256,192,39483,1,0,0:0:0:0:
256,192,42331,1,0,0:0:0:0:
256,192,45052,1,0,0:0:0:0:
256,192,47655,1,0,0:0:0:0:
256,192,50149,1,0,0:0:0:0:
256,192,52545,5,0,0:0:0:0:
256,192,54847,1,0,0:0:0:0:
256,192,57065,1,0,0:0:0:0:
256,192,59202,1,0,0:0:0:0:
256,192,61267,1,0,0:0:0:0:
256,192,63262,1,0,0:0:0:0:
256,192,65195,1,0,0:0:0:0:
256,192,67066,1,0,0:0:0:0:
256,192,68880,1,0,0:0:0:0:
256,192,70642,1,0,0:0:0:0:
256,192,72354,1,0,0:0:0:0:
256,192,74018,1,0,0:0:0:0:
256,192,75637,5,0,0:0:0:0:
256,192,77212,1,0,0:0:0:0:
256,192,78748,1,0,0:0:0:0:
256,192,80247,1,0,0:0:0:0:
256,192,81707,1,0,0:0:0:0:
256,192,83135,1,0,0:0:0:0:
256,192,84527,1,0,0:0:0:0:
256,192,85888,1,0,0:0:0:0:
256,192,87220,1,0,0:0:0:0:
256,192,88522,1,0,0:0:0:0:
256,192,89797,1,0,0:0:0:0:
256,192,91044,1,0,0:0:0:0:
256,192,92267,1,0,0:0:0:0:
256,192,93466,5,0,0:0:0:0:
256,192,94642,1,0,0:0:0:0:
256,192,95795,1,0,0:0:0:0:
256,192,96927,1,0,0:0:0:0:
256,192,98038,1,0,0:0:0:0:
256,192,99127,1,0,0:0:0:0:
256,192,100198,1,0,0:0:0:0:
256,192,101249,1,0,0:0:0:0:
256,192,102282,1,0,0:0:0:0:
256,192,103298,1,0,0:0:0:0:
256,192,104297,1,0,0:0:0:0:
256,192,105279,1,0,0:0:0:0:
256,192,106245,5,0,0:0:0:0:
256,192,107200,1,0,0:0:0:0:
256,192,108134,1,0,0:0:0:0:
256,192,109057,1,0,0:0:0:0:
256,192,109965,1,0,0:0:0:0:
256,192,110860,1,0,0:0:0:0:
256,192,111741,5,0,0:0:0:0:
256,192,112610,5,0,0:0:0:0:
256,192,113467,5,0,0:0:0:0:
256,192,114311,5,0,0:0:0:0:
