osu file format v14

[General]
AudioFilename: deltaMAX.mp3
AudioLeadIn: 1000
PreviewTime: 50149
Countdown: 1
SampleSet: None
StackLeniency: 0.2
Mode: 0
LetterboxInBreaks: 1
WidescreenStoryboard: 1

[Editor]
Bookmarks: 11850,28439,41420,52084,61137,75952,87824,97731,106231,113676,116246
DistanceSpacing: 0.5
BeatDivisor: 8
GridSize: 4
TimelineZoom: 8

[Metadata]
Title:deltaMAX
TitleUnicode:deltaMAX
Artist:DM Ashura
ArtistUnicode:DM Ashura
Creator:lsckjy
Version:deathstack 1/8
Source:DDR Forever
Tags:Dance Dance Revolution Universe 3 stepmania ignorethis lzy Doomsday tsuka Frank7654321
BeatmapID:824338
BeatmapSetID:367807

[Difficulty]
HPDrainRate:5
CircleSize:3
OverallDifficulty:0
ApproachRate:0
SliderMultiplier:2
SliderTickRate:0.5

[Events]
//Background and Video events
0,0,"deltaMAX-bg.png",0,0
//Break Periods
//Storyboard Layer 0 (Background)
//Storyboard Layer 1 (Fail)
//Storyboard Layer 2 (Pass)
//Storyboard Layer 3 (Foreground)
Sprite,Foreground,Centre,"nothing.png",320,240 F,0,125410,,0
//Storyboard Sound Samples

[TimingPoints]
315,600,4,1,0,80,1,0
8715,-100,4,1,0,17,0,0
9915,594.088816278034,4,1,0,40,1,1
10509,588.264130594637,4,1,0,40,1,0
11097,582.552551094713,4,1,0,40,1,0
11680,576.950814943026,4,1,0,40,1,0
12257,571.455783608743,4,1,0,40,1,0
12828,566.064437001745,4,1,0,40,1,0
13394,560.773867937754,4,1,0,40,1,0
13955,555.581276910968,4,1,0,40,1,0
14511,550.483967154457,4,1,0,40,1,0
15061,545.479339969999,4,1,0,40,1,0
15606,540.564890310374,4,1,0,40,1,0
16147,535.73820259833,4,1,0,40,1,0
16683,530.996946767556,4,1,0,40,1,0
17214,526.33887451204,4,1,0,40,1,0
17740,521.761815731119,4,1,0,40,1,0
18262,517.263675158412,4,1,0,40,1,0
18779,512.84242916364,4,1,0,40,1,0
19292,508.496122717064,4,1,0,40,1,0
19800,504.222866506996,4,1,0,40,1,0
20304,500.020834201425,4,1,0,40,1,0
20804,495.888259845448,4,1,0,40,1,0
21300,491.823435386696,4,1,0,40,1,0
21792,487.824708321476,4,1,0,40,1,0
22280,483.890479454817,4,1,0,40,1,0
22764,480.019200768031,4,1,0,40,1,0
23244,476.209373387833,4,1,0,40,1,0
23720,472.459545651404,4,1,0,40,1,0
24192,468.768311262159,4,1,0,40,1,0
24661,465.1343075313,4,1,0,40,1,0
25126,461.556213700527,4,1,0,40,1,0
25588,458.032749341578,4,1,0,40,1,0
26046,454.562672828516,4,1,0,40,1,0
26501,451.144779878943,4,1,0,45,1,0
26952,447.777902160528,4,1,0,45,1,0
27400,444.46090595948,4,1,0,45,1,0
27844,441.192690907754,4,1,0,45,1,0
28285,437.972188766013,4,1,0,45,1,0
28723,434.798362259502,4,1,0,45,1,0
29158,431.670203964171,4,1,0,45,1,0
29590,428.586735240544,4,1,0,45,1,0
30019,425.547005212951,4,1,0,45,1,0
30445,422.550089791894,4,1,0,45,1,0
30868,419.595090737438,4,1,0,45,1,0
31288,416.681134761624,4,1,0,45,1,0
31705,413.807372668023,4,1,0,45,1,0
32119,410.972978526662,4,1,0,45,1,0
32530,408.177148882615,4,1,0,45,1,0
32938,405.419101996689,4,1,0,45,1,0
33343,402.698077116682,4,1,0,45,1,0
33746,400.013333777793,4,1,0,45,1,0
34146,397.364151130832,4,1,0,45,1,0
34543,394.749827296951,4,1,0,45,1,0
34938,392.169678747671,4,1,0,45,1,0
35330,389.623039709081,4,1,0,45,1,0
35720,387.109261589084,4,1,0,45,1,0
36107,384.62771242668,4,1,0,45,1,0
36492,382.177776362305,4,1,0,45,1,0
36874,379.758853128264,4,1,0,45,1,0
37254,377.370357558414,4,1,0,45,1,0
37631,375.011719116222,4,1,0,45,1,0
38006,372.682381440417,4,1,0,45,1,0
38379,370.381801907466,4,1,0,45,1,0
38749,368.10945121016,4,1,0,45,1,0
39117,365.864812951614,4,1,0,45,1,0
39483,363.647383254038,4,1,0,50,1,0
39847,361.456670381638,4,1,0,50,1,0
40208,359.292194377077,4,1,0,50,1,0
40567,357.153486710914,4,1,0,50,1,0
40924,355.040089943489,4,1,0,50,1,0
41279,352.951557398747,4,1,0,50,1,0
41632,350.887452849499,4,1,0,50,1,0
41983,348.847350213669,4,1,0,50,1,0
42332,346.830833261077,4,1,0,50,1,0
42679,344.837495330326,4,1,0,50,1,0
43024,342.866939055402,4,1,0,50,1,0
43367,340.918776101594,4,1,0,50,1,0
43708,338.992626910365,4,1,0,50,1,0
44047,337.088120452822,4,1,0,50,1,0
44384,335.204893991452,4,1,0,50,1,0
44719,333.342592849801,4,1,0,50,1,0
45052,331.500870189784,4,1,0,50,1,0
45384,329.679386796341,4,1,0,50,1,0
45714,327.877810869149,4,1,0,50,1,0
46042,326.095817821136,4,1,0,50,1,0
46368,324.333090083516,4,1,0,50,1,0
46692,322.589316917121,4,1,0,50,1,0
47015,320.864194229792,4,1,0,50,1,0
47336,319.157424399585,4,1,0,50,1,0
47655,317.468716103601,4,1,0,50,1,0
47972,315.797784152215,4,1,0,50,1,0
48288,314.144349328516,4,1,0,50,1,0
48602,312.508138232766,4,1,0,50,1,0
48915,310.888883131687,4,1,0,50,1,0
49226,309.286321812418,4,1,0,50,1,0
49535,307.70019744096,4,1,0,50,1,0
49843,306.13025842496,4,1,0,50,1,0
50149,304.576258280667,4,1,0,55,1,1
50454,303.037955503927,4,1,0,55,1,1
50757,301.515113445061,4,1,0,55,1,1
51059,300.007500187505,4,1,0,55,1,1
51359,298.51488843006,4,1,0,55,1,1
51658,297.037055372658,4,1,0,55,1,1
51955,295.573782605483,4,1,0,55,1,1
52251,294.124856001373,4,1,0,55,1,1
52545,292.690065611356,4,1,0,55,1,1
52838,291.269205563242,4,1,0,55,1,1
53129,289.862073963139,4,1,0,55,1,1
53419,288.468472799827,4,1,0,55,1,1
53707,287.088207851862,4,1,0,55,1,1
53994,285.721088597348,4,1,0,55,1,1
54280,284.366928126259,4,1,0,55,1,1
54564,283.025543055261,4,1,0,55,1,1
54847,281.696753444917,4,1,0,55,1,1
55129,280.380382719222,4,1,0,55,1,1
55409,279.076257587386,4,1,0,55,1,1
55688,277.784207967777,4,1,0,55,1,1
55966,276.504066913984,4,1,0,55,1,1
56243,275.235670542902,4,1,0,55,1,1
56518,273.978857964794,4,1,0,55,1,1
56792,272.733471215255,4,1,0,55,1,1
57065,271.499355189031,4,1,0,55,1,1
57336,270.276357575621,4,1,0,55,1,1
57606,269.06432879661,4,1,0,55,1,1
57875,267.863121944686,4,1,0,55,1,1
58143,266.672592724283,4,1,0,55,1,1
58410,265.492599393792,4,1,0,55,1,1
58675,264.323002709311,4,1,0,55,1,1
58939,263.163665869866,4,1,0,55,1,1
59202,262.014454464071,4,1,0,60,1,1
59202,-200,4,1,0,60,0,1
59464,260.875236418183,4,1,0,60,1,0
59725,259.745881945497,4,1,0,60,1,0
59985,258.626263497058,4,1,0,60,1,0
60244,257.516255713642,4,1,0,60,1,0
60502,256.415735378961,4,1,0,60,1,0
60758,255.324581374072,4,1,0,60,1,0
61013,254.242674632937,4,1,0,60,1,0
61267,253.169898099116,4,1,0,60,1,0
61267,-200,4,1,0,60,0,0
61520,252.106136683544,4,1,0,60,1,0
61772,251.051277223373,4,1,0,60,1,0
62023,250.005208441843,4,1,0,60,1,0
62273,248.967820909147,4,1,0,60,1,0
62522,247.939007004277,4,1,0,60,1,0
62770,246.918660877796,4,1,0,60,1,0
63017,245.906678415541,4,1,0,60,1,0
63262,244.902957203208,4,1,0,60,1,0
63262,-200,4,1,0,60,0,0
63508,243.907396491799,4,1,0,60,1,0
63752,242.91989716391,4,1,0,60,1,0
63995,241.940361700841,4,1,0,60,1,0
64237,240.968694150485,4,1,0,60,1,0
64478,240.004800096002,4,1,0,60,1,0
64718,239.048586625232,4,1,0,60,1,0
64957,238.099962300839,4,1,0,60,1,0
65195,237.158837131169,4,1,0,60,1,0
65195,-200,4,1,0,60,0,0
65432,236.225122541782,4,1,0,60,1,0
65668,235.298731347673,4,1,0,60,1,0
65903,234.379577726127,4,1,0,60,1,0
66137,233.467577190218,4,1,0,60,1,0
66370,232.562646562918,4,1,0,60,1,0
66603,231.664703951814,4,1,0,60,1,0
66835,230.773668724399,4,1,0,60,1,0
67066,229.889461483936,4,1,0,60,1,0
67066,-200,4,1,0,60,0,0
67296,229.012004045879,4,1,0,60,1,0
67525,228.141219414818,4,1,0,60,1,0
67753,227.277031761965,4,1,0,60,1,0
67980,226.41936640314,4,1,0,60,1,0
68206,225.568149777251,4,1,0,60,1,0
68432,224.72330942527,4,1,0,60,1,0
68657,223.884773969664,4,1,0,60,1,0
68881,223.052473094295,4,1,0,60,1,0
68881,-200,4,1,0,60,0,0
69104,222.226337524769,4,1,0,60,1,0
69326,221.406299009207,4,1,0,60,1,0
69547,220.592290299454,4,1,0,60,1,0
69768,219.784245132695,4,1,0,60,1,0
69988,218.982098213471,4,1,0,60,1,0
70207,218.185785196094,4,1,0,60,1,0
70425,217.39524266744,4,1,0,60,1,0
70642,216.610408130111,4,1,0,60,1,0
70642,-200,4,1,0,60,0,0
70859,215.831219985971,4,1,0,60,1,0
71075,215.057617520027,4,1,0,60,1,0
71290,214.289540884659,4,1,0,60,1,0
71504,213.526931084183,4,1,0,60,1,0
71718,212.769729959751,4,1,0,60,1,0
71931,212.017880174561,4,1,0,60,1,0
72143,211.271325199387,4,1,0,60,1,0
72354,210.530009298409,4,1,0,60,1,0
72354,-200,4,1,0,60,0,0
72565,209.793877515341,4,1,0,60,1,0
72775,209.062875659855,4,1,0,60,1,0
72984,208.336950294276,4,1,0,60,1,0
73192,207.616048720566,4,1,0,60,1,0
73400,206.900118967568,4,1,0,60,1,0
73607,206.189109778519,4,1,0,60,1,0
73813,205.482970598812,4,1,0,60,1,0
74018,204.78165156402,4,1,0,65,1,0
74223,204.085103488155,4,1,1,65,1,0
74427,203.393277852167,4,1,1,65,1,0
74630,202.706126792682,4,1,1,65,1,0
74833,202.023603090961,4,1,1,65,1,0
75035,201.345660162083,4,1,1,65,1,0
75236,200.672252044349,4,1,1,65,1,0
75437,200.00333338889,4,1,1,65,1,0
75637,199.338859449493,4,1,1,65,1,0
75836,198.678786072617,4,1,1,65,1,0
76035,198.023069687619,4,1,1,65,1,0
76233,197.371667297159,4,1,1,65,1,0
76430,196.724536467811,4,1,1,65,1,0
76627,196.081635320839,4,1,1,65,1,0
76823,195.442922523168,4,1,1,65,1,0
77018,194.808357278527,4,1,1,65,1,0
77213,194.177899318759,4,1,1,65,1,0
77407,193.551508895305,4,1,1,65,1,0
77601,192.929146770848,4,1,1,65,1,0
77794,192.310774211125,4,1,1,65,1,0
77986,191.696352976885,4,1,1,65,1,0
78178,191.085845316008,4,1,1,65,1,0
78369,190.479213955777,4,1,1,65,1,0
78559,189.876422095286,4,1,1,65,1,0
78749,189.277433398003,4,1,1,65,1,0
78938,188.682211984465,4,1,1,65,1,0
79127,188.090722425116,4,1,1,65,1,0
79315,187.502929733277,4,1,1,65,1,0
79503,186.918799358245,4,1,1,65,1,0
79690,186.338297178528,4,1,1,65,1,0
79876,185.761389495193,4,1,1,65,1,0
80062,185.188043025355,4,1,1,65,1,0
80247,184.618224895768,4,1,1,65,1,0
80432,184.051902636544,4,1,1,65,1,0
80616,183.489044174987,4,1,1,65,1,0
80799,182.92961782954,4,1,1,65,1,0
80982,182.373592303834,4,1,1,65,1,0
81164,181.820936680859,4,1,1,65,1,0
81346,181.271620417227,4,1,1,65,1,0
81527,180.72561333755,4,1,1,65,1,0
81708,180.182885628913,4,1,1,65,1,0
81888,179.643407835447,4,1,1,65,1,0
82068,179.107150852998,4,1,1,65,1,0
82247,178.574085923898,4,1,1,65,1,0
82426,178.044184631819,4,1,1,65,1,0
82604,177.517418896729,4,1,1,65,1,0
82782,176.993760969926,4,1,1,65,1,0
82959,176.473183429168,4,1,1,65,1,0
83135,175.955659173888,4,1,1,65,1,0
83311,175.441161420489,4,1,1,65,1,0
83486,174.929663697722,4,1,1,65,1,0
83661,174.421139842149,4,1,1,65,1,0
83835,173.915563993681,4,1,1,65,1,0
84009,173.412910591194,4,1,1,65,1,0
84182,172.913154368219,4,1,1,65,1,0
84355,172.416270348712,4,1,1,65,1,0
84527,171.922233842892,4,1,1,65,1,0
84699,171.431020443149,4,1,1,65,1,0
84870,170.942606020029,4,1,1,65,1,0
85041,170.456966718277,4,1,1,65,1,0
85211,169.97407895296,4,1,1,65,1,0
85381,169.493919405641,4,1,1,65,1,0
85550,169.016465020634,4,1,1,65,1,0
85719,168.541693001306,4,1,1,65,1,0
85888,168.069580806454,4,1,1,70,1,1
86056,167.600106146734,4,1,1,70,1,1
86224,167.133246981156,4,1,1,70,1,1
86391,166.668981513632,4,1,1,70,1,1
86558,166.207288189587,4,1,1,70,1,1
86724,165.74814569262,4,1,1,70,1,1
86890,165.291532941225,4,1,1,70,1,1
87055,164.837429085564,4,1,1,70,1,1
87220,164.385813504295,4,1,1,70,1,1
87384,163.936665801445,4,1,1,70,1,1
87548,163.489965803349,4,1,1,70,1,1
87711,163.045693555619,4,1,1,70,1,1
87874,162.60382932018,4,1,1,70,1,1
88037,162.164353572346,4,1,1,70,1,1
88199,161.727246997938,4,1,1,70,1,1
88361,161.292490490464,4,1,1,70,1,1
88522,160.860065148326,4,1,1,70,1,1
88683,160.429952272089,4,1,1,70,1,1
88843,160.002133361778,4,1,1,70,1,1
89003,159.57659011423,4,1,1,70,1,1
89163,159.153304420483,4,1,1,70,1,1
89322,158.732258363206,4,1,1,70,1,1
89481,158.313434214172,4,1,1,70,1,1
89639,157.896814431769,4,1,1,70,1,1
89797,157.482381658552,4,1,1,70,1,1
89954,157.070118718831,4,1,1,70,1,1
90111,156.6600086163,4,1,1,70,1,1
90268,156.2520345317,4,1,1,70,1,1
90424,155.846179820517,4,1,1,70,1,1
90580,155.442428010726,4,1,1,70,1,1
90735,155.040762800553,4,1,1,70,1,1
90890,154.641168056289,4,1,1,70,1,1
91045,154.243627810126,4,1,1,70,1,1
91199,153.848126258029,4,1,1,70,1,1
91353,153.454647757644,4,1,1,70,1,1
91506,153.063176826235,4,1,1,70,1,1
91659,152.673698138653,4,1,1,70,1,1
91812,152.286196525337,4,1,1,70,1,1
91964,151.900656970341,4,1,1,70,1,1
92116,151.517064609402,4,1,1,70,1,1
92268,151.135404728019,4,1,1,70,1,1
92419,150.755662759582,4,1,1,70,1,1
92570,150.377824283512,4,1,1,70,1,1
92720,150.001875023438,4,1,1,70,1,1
92870,149.627800845397,4,1,1,70,1,1
93020,149.255587756067,4,1,1,70,1,1
93169,148.885221901016,4,1,1,70,1,1
93318,148.51668956299,4,1,1,70,1,1
93467,148.149977160212,4,1,1,70,1,1
93615,147.78507124472,4,1,1,70,1,1
93763,147.421958500719,4,1,1,70,1,1
93910,147.060625742963,4,1,1,70,1,1
94057,146.701059915158,4,1,1,70,1,1
94204,146.343248088391,4,1,1,70,1,1
94350,145.98717745958,4,1,1,70,1,1
94496,145.632835349944,4,1,1,70,1,1
94642,145.280209203501,4,1,1,70,1,1
94787,144.929286585587,4,1,1,70,1,1
94932,144.580055181388,4,1,1,70,1,1
95077,144.232502794505,4,1,1,70,1,1
95221,143.886617345532,4,1,1,70,1,1
95365,143.542386870656,4,1,1,70,1,1
95509,143.199799520281,4,1,1,70,1,1
95652,142.858843557661,4,1,1,70,1,1
95795,142.51950735757,4,1,1,75,1,1
95938,142.181779404969,4,1,1,75,1,1
96080,141.845648293715,4,1,1,75,1,1
96222,141.511102725268,4,1,1,75,1,1
96364,141.178131507429,4,1,1,75,1,1
96505,140.846723553093,4,1,1,75,1,1
96646,140.516867879015,4,1,1,75,1,1
96787,140.188553604598,4,1,1,75,1,1
96927,139.861769950699,4,1,1,75,1,1
97067,139.536506238445,4,1,1,75,1,1
97207,139.212751888073,4,1,1,75,1,1
97346,138.890496417783,4,1,1,75,1,1
97485,138.569729442603,4,1,1,75,1,1
97624,138.25044067328,4,1,1,75,1,1
97762,137.932619915171,4,1,1,75,1,1
97900,137.616257067168,4,1,1,75,1,1
98038,137.301342120619,4,1,1,75,1,1
98175,136.987865158278,4,1,1,75,1,1
98312,136.675816353261,4,1,1,75,1,1
98449,136.365185968022,4,1,1,75,1,1
98585,136.055964353337,4,1,1,75,1,1
98721,135.748141947307,4,1,1,75,1,1
98857,135.441709274371,4,1,1,75,1,1
98992,135.136656944335,4,1,1,75,1,1
99127,134.832975651412,4,1,1,75,1,1
99262,134.530656173275,4,1,1,75,1,1
99397,134.229689370127,4,1,1,75,1,1
99531,133.930066183774,4,1,1,75,1,1
99665,133.631777636722,4,1,1,75,1,1
99799,133.334814831276,4,1,1,75,1,1
99932,133.039168948658,4,1,1,75,1,1
100065,132.744831248133,4,1,1,75,1,1
100198,132.451793066149,4,1,1,75,1,1
100330,132.160045815483,4,1,1,75,1,1
100462,131.869580984406,4,1,1,75,1,1
100594,131.580390135857,4,1,1,75,1,1
100726,131.292464906618,4,1,1,75,1,1
100857,131.005797006518,4,1,1,75,1,1
100988,130.720378217628,4,1,1,75,1,1
101119,130.436200393483,4,1,1,75,1,1
101249,130.153255458302,4,1,1,75,1,1
101379,129.871535406227,4,1,1,75,1,1
101509,129.591032300565,4,1,1,75,1,1
101639,129.311738273042,4,1,1,75,1,1
101768,129.03364552307,4,1,1,75,1,1
101897,128.756746317021,4,1,1,75,1,1
102026,128.481032987505,4,1,1,75,1,1
102154,128.20649793267,4,1,1,75,1,1
102282,127.933133615497,4,1,1,75,1,1
102410,127.660932563112,4,1,1,75,1,1
102538,127.389887366108,4,1,1,75,1,1
102665,127.119990677867,4,1,1,75,1,1
102792,126.851235213903,4,1,1,75,1,1
102919,126.5836137512,4,1,1,75,1,1
103046,126.31711912757,4,1,1,75,1,1
103172,126.051744241011,4,1,1,75,1,1
103298,125.787482049078,4,1,1,75,1,1
103424,125.524325568259,4,1,1,75,1,1
103550,125.26226787336,4,1,1,75,1,1
103675,125.001302096897,4,1,1,75,1,1
103800,124.741421428497,4,1,1,75,1,1
103925,124.482619114306,4,1,1,75,1,1
104049,124.224888456402,4,1,1,75,1,1
104173,123.968222812219,4,1,1,75,1,1
104297,123.712615593975,4,1,1,80,1,1
104421,123.45806026811,4,1,1,80,1,1
104544,123.204550354726,4,1,1,80,1,1
104667,122.952079427043,4,1,1,80,1,1
104790,122.70064111085,4,1,1,80,1,1
104913,122.45022908397,4,1,1,80,1,1
105035,122.200837075734,4,1,1,80,1,1
105157,121.952458866452,4,1,1,80,1,1
105279,121.705088286899,4,1,1,80,1,1
105401,121.458719217806,4,1,1,80,1,1
105522,121.213345589349,4,1,1,80,1,1
105643,120.968961380659,4,1,1,80,1,1
105764,120.725560619322,4,1,1,80,1,1
105885,120.483137380897,4,1,1,80,1,1
106005,120.241685788435,4,1,1,80,1,1
106125,120.001200012,4,1,1,80,1,1
106245,119.761674268206,4,1,1,80,1,1
106365,119.523102819749,4,1,1,80,1,1
106485,119.28547997495,4,1,1,80,1,1
106604,119.048800087302,4,1,1,80,1,1
106723,118.813057555025,4,1,1,80,1,1
106842,118.578246820621,4,1,1,80,1,1
106961,118.344362370438,4,1,1,80,1,1
107079,118.11139873424,4,1,1,80,1,1
107197,117.879350484779,4,1,1,80,1,1
107315,117.648212237375,4,1,1,80,1,1
107433,117.417978649498,4,1,1,80,1,1
107550,117.188644420356,4,1,1,80,1,1
107667,116.96020429049,4,1,1,80,1,1
107784,116.732653041372,4,1,1,80,1,1
107901,116.505985495005,4,1,1,80,1,1
108018,116.280196513532,4,1,1,80,1,1
108134,116.055280998849,4,1,1,80,1,1
108250,115.831233892219,4,1,1,80,1,1
108366,115.608050173894,4,1,1,80,1,1
108482,115.385724862739,4,1,1,80,1,1
108597,115.164253015864,4,1,1,80,1,1
108712,114.943629728254,4,1,1,80,1,1
108827,114.72385013241,4,1,1,80,1,1
108942,114.50490939799,4,1,1,80,1,1
109057,114.286802731455,4,1,1,80,1,1
109171,114.069525375716,4,1,1,80,1,1
109285,113.853072609797,4,1,1,80,1,1
109399,113.637439748482,4,1,1,80,1,1
109513,113.422622141986,4,1,1,80,1,1
109626,113.208615175615,4,1,1,80,1,1
109739,112.995414269438,4,1,1,80,1,1
109852,112.783014877959,4,1,1,80,1,1
109965,112.571412489798,4,1,1,80,1,1
110078,112.360602627365,4,1,1,80,1,1
110190,112.15058084655,4,1,1,80,1,1
110302,111.941342736406,4,1,1,80,1,1
110414,111.732883918845,4,1,1,80,1,1
110526,111.525200048328,4,1,1,80,1,1
110638,111.318286811566,4,1,1,80,1,1
110749,111.112139927222,4,1,1,80,1,1
110860,110.906755145611,4,1,1,80,1,1
110971,110.702128248416,4,1,1,80,1,1
111082,110.498255048389,4,1,1,80,1,1
111192,110.295131389075,4,1,1,80,1,1
111302,110.092753144524,4,1,1,80,1,1
111412,109.891116219013,4,1,1,80,1,1
111522,109.690216546769,4,1,1,80,1,1
111632,109.490050091698,4,1,1,80,1,1
111741,109.290612847112,4,1,1,90,1,1
111850,109.091900835462,4,1,1,90,1,1
111959,108.893910108077,4,1,1,90,1,1
112068,108.696636744898,4,1,1,90,1,1
112177,108.500076854221,4,1,1,90,1,1
112286,108.304226572442,4,1,1,90,1,1
112394,108.109082063802,4,1,1,90,1,1
112502,107.91463952014,4,1,1,90,1,1
112610,107.720895160639,4,1,1,90,1,1
112718,107.527845231588,4,1,1,90,1,1
112826,107.335486006136,4,1,1,90,1,1
112933,107.143813784052,4,1,1,90,1,1
113040,106.952824891487,4,1,1,90,1,1
113147,106.762515680744,4,1,1,90,1,1
113254,106.57288253004,4,1,1,90,1,1
113361,106.383921843279,4,1,1,90,1,1
113467,106.195630049823,4,1,1,90,1,1
113573,106.008003604272,4,1,1,90,1,1
113679,105.821038986234,4,1,1,90,1,1
113785,105.634732700112,4,1,1,90,1,1
113891,105.449081274879,4,1,1,90,1,1
113996,105.264081263871,4,1,1,90,1,1
114101,105.079729244564,4,1,1,90,1,1
114206,104.896021818373,4,1,1,90,1,1
114311,104.712041884817,4,1,0,100,1,1
114337,-100,4,1,1,100,0,0

[Colours]
Combo1 : 0,255,0
Combo2 : 244,0,6
Combo3 : 129,69,252
Combo4 : 255,255,255

[HitObjects]
415,196,9915,1,0,0:0:0:0:
414,201,9989,1,0,0:0:0:0:
414,206,10063,1,0,0:0:0:0:
413,211,10137,1,0,0:0:0:0:
413,216,10212,1,0,0:0:0:0:
412,221,10286,1,0,0:0:0:0:
411,226,10360,1,0,0:0:0:0:
410,231,10434,1,0,0:0:0:0:
408,236,10509,1,0,0:0:0:0:
407,241,10582,1,0,0:0:0:0:
405,245,10656,1,0,0:0:0:0:
403,250,10729,1,0,0:0:0:0:
402,255,10803,1,0,0:0:0:0:
400,259,10876,1,0,0:0:0:0:
397,264,10950,1,0,0:0:0:0:
395,268,11023,1,0,0:0:0:0:
392,273,11097,1,0,0:0:0:0:
390,277,11169,1,0,0:0:0:0:
387,281,11242,1,0,0:0:0:0:
384,285,11315,1,0,0:0:0:0:
381,289,11388,1,0,0:0:0:0:
378,293,11461,1,0,0:0:0:0:
375,297,11533,1,0,0:0:0:0:
372,300,11606,1,0,0:0:0:0:
368,304,11680,1,0,0:0:0:0:
364,308,11752,1,0,0:0:0:0:
361,311,11824,1,0,0:0:0:0:
357,314,11896,1,0,0:0:0:0:
353,317,11968,1,0,0:0:0:0:
349,320,12040,1,0,0:0:0:0:
345,323,12112,1,0,0:0:0:0:
341,326,12184,1,0,0:0:0:0:
337,328,12257,1,0,0:0:0:0:
332,331,12328,1,0,0:0:0:0:
328,333,12399,1,0,0:0:0:0:
323,336,12471,1,0,0:0:0:0:
319,338,12542,1,0,0:0:0:0:
314,339,12614,1,0,0:0:0:0:
309,341,12685,1,0,0:0:0:0:
305,343,12757,1,0,0:0:0:0:
300,344,12828,1,0,0:0:0:0:
295,346,12898,1,0,0:0:0:0:
290,347,12969,1,0,0:0:0:0:
285,348,13040,1,0,0:0:0:0:
280,349,13111,1,0,0:0:0:0:
275,349,13181,1,0,0:0:0:0:
270,350,13252,1,0,0:0:0:0:
265,350,13323,1,0,0:0:0:0:
260,351,13394,1,0,0:0:0:0:
255,351,13464,1,0,0:0:0:0:
251,351,13534,1,0,0:0:0:0:
246,350,13604,1,0,0:0:0:0:
241,350,13674,1,0,0:0:0:0:
236,349,13744,1,0,0:0:0:0:
231,349,13814,1,0,0:0:0:0:
226,348,13884,1,0,0:0:0:0:
221,347,13955,1,0,0:0:0:0:
216,346,14024,1,0,0:0:0:0:
211,344,14093,1,0,0:0:0:0:
206,343,14163,1,0,0:0:0:0:
202,341,14232,1,0,0:0:0:0:
197,339,14302,1,0,0:0:0:0:
192,338,14371,1,0,0:0:0:0:
188,336,14441,1,0,0:0:0:0:
183,333,14511,1,0,0:0:0:0:
179,331,14579,1,0,0:0:0:0:
174,328,14648,1,0,0:0:0:0:
170,326,14717,1,0,0:0:0:0:
166,323,14786,1,0,0:0:0:0:
162,320,14855,1,0,0:0:0:0:
158,317,14923,1,0,0:0:0:0:
154,314,14992,1,0,0:0:0:0:
150,311,15061,1,0,0:0:0:0:
147,308,15129,1,0,0:0:0:0:
143,304,15197,1,0,0:0:0:0:
139,300,15265,1,0,0:0:0:0:
136,297,15333,1,0,0:0:0:0:
133,293,15401,1,0,0:0:0:0:
130,289,15470,1,0,0:0:0:0:
127,285,15538,1,0,0:0:0:0:
124,281,15606,1,0,0:0:0:0:
121,277,15673,1,0,0:0:0:0:
119,273,15741,1,0,0:0:0:0:
116,268,15808,1,0,0:0:0:0:
114,264,15876,1,0,0:0:0:0:
111,259,15943,1,0,0:0:0:0:
109,255,16011,1,0,0:0:0:0:
108,250,16078,1,0,0:0:0:0:
106,245,16147,1,0,0:0:0:0:
104,241,16213,1,0,0:0:0:0:
103,236,16280,1,0,0:0:0:0:
101,231,16347,1,0,0:0:0:0:
100,226,16414,1,0,0:0:0:0:
99,221,16481,1,0,0:0:0:0:
98,216,16548,1,0,0:0:0:0:
98,211,16615,1,0,0:0:0:0:
97,206,16683,1,0,0:0:0:0:
97,201,16749,1,0,0:0:0:0:
96,196,16815,1,0,0:0:0:0:
96,191,16882,1,0,0:0:0:0:
96,187,16948,1,0,0:0:0:0:
97,182,17014,1,0,0:0:0:0:
97,177,17081,1,0,0:0:0:0:
98,172,17147,1,0,0:0:0:0:
98,167,17214,1,0,0:0:0:0:
99,162,17279,1,0,0:0:0:0:
100,157,17345,1,0,0:0:0:0:
101,152,17411,1,0,0:0:0:0:
103,147,17477,1,0,0:0:0:0:
104,142,17542,1,0,0:0:0:0:
106,138,17608,1,0,0:0:0:0:
108,133,17674,1,0,0:0:0:0:
109,128,17740,1,0,0:0:0:0:
111,124,17805,1,0,0:0:0:0:
114,119,17870,1,0,0:0:0:0:
116,115,17935,1,0,0:0:0:0:
119,110,18000,1,0,0:0:0:0:
121,106,18066,1,0,0:0:0:0:
124,102,18131,1,0,0:0:0:0:
127,98,18196,1,0,0:0:0:0:
130,94,18262,1,0,0:0:0:0:
133,90,18326,1,0,0:0:0:0:
136,86,18391,1,0,0:0:0:0:
139,83,18455,1,0,0:0:0:0:
143,79,18520,1,0,0:0:0:0:
147,75,18585,1,0,0:0:0:0:
150,72,18649,1,0,0:0:0:0:
154,69,18714,1,0,0:0:0:0:
158,66,18779,1,0,0:0:0:0:
162,63,18843,1,0,0:0:0:0:
166,60,18907,1,0,0:0:0:0:
170,57,18971,1,0,0:0:0:0:
174,55,19035,1,0,0:0:0:0:
179,52,19099,1,0,0:0:0:0:
183,50,19163,1,0,0:0:0:0:
188,47,19227,1,0,0:0:0:0:
192,45,19292,1,0,0:0:0:0:
197,44,19355,1,0,0:0:0:0:
202,42,19419,1,0,0:0:0:0:
206,40,19482,1,0,0:0:0:0:
211,39,19546,1,0,0:0:0:0:
216,37,19609,1,0,0:0:0:0:
221,36,19673,1,0,0:0:0:0:
226,35,19736,1,0,0:0:0:0:
231,34,19800,1,0,0:0:0:0:
236,34,19863,1,0,0:0:0:0:
241,33,19926,1,0,0:0:0:0:
246,33,19989,1,0,0:0:0:0:
251,32,20052,1,0,0:0:0:0:
256,32,20115,1,0,0:0:0:0:
260,32,20178,1,0,0:0:0:0:
265,33,20241,1,0,0:0:0:0:
270,33,20304,1,0,0:0:0:0:
275,34,20366,1,0,0:0:0:0:
280,34,20429,1,0,0:0:0:0:
285,35,20491,1,0,0:0:0:0:
290,36,20554,1,0,0:0:0:0:
295,37,20616,1,0,0:0:0:0:
300,39,20679,1,0,0:0:0:0:
305,40,20741,1,0,0:0:0:0:
309,42,20804,1,0,0:0:0:0:
314,44,20865,1,0,0:0:0:0:
319,45,20927,1,0,0:0:0:0:
323,47,20989,1,0,0:0:0:0:
328,50,21051,1,0,0:0:0:0:
332,52,21113,1,0,0:0:0:0:
337,55,21175,1,0,0:0:0:0:
341,57,21237,1,0,0:0:0:0:
345,60,21300,1,0,0:0:0:0:
349,63,21361,1,0,0:0:0:0:
353,66,21422,1,0,0:0:0:0:
357,69,21484,1,0,0:0:0:0:
361,72,21545,1,0,0:0:0:0:
364,75,21607,1,0,0:0:0:0:
368,79,21668,1,0,0:0:0:0:
372,83,21730,1,0,0:0:0:0:
375,86,21792,1,0,0:0:0:0:
378,90,21852,1,0,0:0:0:0:
381,94,21913,1,0,0:0:0:0:
384,98,21974,1,0,0:0:0:0:
387,102,22035,1,0,0:0:0:0:
390,106,22096,1,0,0:0:0:0:
392,110,22157,1,0,0:0:0:0:
395,115,22218,1,0,0:0:0:0:
397,119,22280,1,0,0:0:0:0:
400,124,22340,1,0,0:0:0:0:
402,128,22400,1,0,0:0:0:0:
403,133,22461,1,0,0:0:0:0:
405,138,22521,1,0,0:0:0:0:
407,142,22582,1,0,0:0:0:0:
408,147,22642,1,0,0:0:0:0:
410,152,22703,1,0,0:0:0:0:
411,157,22764,1,0,0:0:0:0:
412,162,22824,1,0,0:0:0:0:
413,167,22884,1,0,0:0:0:0:
413,172,22944,1,0,0:0:0:0:
414,177,23004,1,0,0:0:0:0:
414,182,23064,1,0,0:0:0:0:
415,187,23124,1,0,0:0:0:0:
415,192,23184,1,0,0:0:0:0:
415,197,23244,1,0,0:0:0:0:
414,201,23303,1,0,0:0:0:0:
414,206,23363,1,0,0:0:0:0:
413,211,23422,1,0,0:0:0:0:
413,216,23482,1,0,0:0:0:0:
412,221,23541,1,0,0:0:0:0:
411,226,23601,1,0,0:0:0:0:
410,231,23660,1,0,0:0:0:0:
408,236,23720,1,0,0:0:0:0:
407,241,23779,1,0,0:0:0:0:
405,245,23838,1,0,0:0:0:0:
403,250,23897,1,0,0:0:0:0:
402,255,23956,1,0,0:0:0:0:
400,259,24015,1,0,0:0:0:0:
397,264,24074,1,0,0:0:0:0:
395,268,24133,1,0,0:0:0:0:
392,273,24192,1,0,0:0:0:0:
390,277,24250,1,0,0:0:0:0:
387,281,24309,1,0,0:0:0:0:
384,285,24367,1,0,0:0:0:0:
381,289,24426,1,0,0:0:0:0:
378,293,24484,1,0,0:0:0:0:
375,297,24543,1,0,0:0:0:0:
372,300,24602,1,0,0:0:0:0:
368,304,24661,1,0,0:0:0:0:
364,308,24719,1,0,0:0:0:0:
361,311,24777,1,0,0:0:0:0:
357,314,24835,1,0,0:0:0:0:
353,317,24893,1,0,0:0:0:0:
349,320,24951,1,0,0:0:0:0:
345,323,25009,1,0,0:0:0:0:
341,326,25067,1,0,0:0:0:0:
337,328,25126,1,0,0:0:0:0:
332,331,25183,1,0,0:0:0:0:
328,333,25241,1,0,0:0:0:0:
323,336,25299,1,0,0:0:0:0:
319,338,25356,1,0,0:0:0:0:
314,339,25414,1,0,0:0:0:0:
309,341,25472,1,0,0:0:0:0:
305,343,25529,1,0,0:0:0:0:
300,344,25588,1,0,0:0:0:0:
295,346,25645,1,0,0:0:0:0:
290,347,25702,1,0,0:0:0:0:
285,348,25759,1,0,0:0:0:0:
280,349,25817,1,0,0:0:0:0:
275,349,25874,1,0,0:0:0:0:
270,350,25931,1,0,0:0:0:0:
265,350,25988,1,0,0:0:0:0:
260,351,26046,1,0,0:0:0:0:
255,351,26102,1,0,0:0:0:0:
250,351,26159,1,0,0:0:0:0:
246,350,26216,1,0,0:0:0:0:
241,350,26273,1,0,0:0:0:0:
236,349,26330,1,0,0:0:0:0:
231,349,26386,1,0,0:0:0:0:
226,348,26443,1,0,0:0:0:0:
221,347,26501,1,0,0:0:0:0:
216,346,26557,1,0,0:0:0:0:
211,344,26613,1,0,0:0:0:0:
206,343,26670,1,0,0:0:0:0:
202,341,26726,1,0,0:0:0:0:
197,339,26782,1,0,0:0:0:0:
192,338,26839,1,0,0:0:0:0:
188,336,26895,1,0,0:0:0:0:
183,333,26952,1,0,0:0:0:0:
179,331,27007,1,0,0:0:0:0:
174,328,27063,1,0,0:0:0:0:
170,326,27119,1,0,0:0:0:0:
166,323,27175,1,0,0:0:0:0:
162,320,27231,1,0,0:0:0:0:
158,317,27287,1,0,0:0:0:0:
154,314,27343,1,0,0:0:0:0:
150,311,27400,1,0,0:0:0:0:
147,308,27455,1,0,0:0:0:0:
143,304,27511,1,0,0:0:0:0:
139,300,27566,1,0,0:0:0:0:
136,297,27622,1,0,0:0:0:0:
133,293,27677,1,0,0:0:0:0:
130,289,27733,1,0,0:0:0:0:
127,285,27788,1,0,0:0:0:0:
124,281,27844,1,0,0:0:0:0:
121,277,27899,1,0,0:0:0:0:
119,273,27954,1,0,0:0:0:0:
116,268,28009,1,0,0:0:0:0:
114,264,28064,1,0,0:0:0:0:
111,259,28119,1,0,0:0:0:0:
109,255,28174,1,0,0:0:0:0:
108,250,28230,1,0,0:0:0:0:
106,245,28285,1,0,0:0:0:0:
104,241,28339,1,0,0:0:0:0:
103,236,28394,1,0,0:0:0:0:
101,231,28449,1,0,0:0:0:0:
100,226,28503,1,0,0:0:0:0:
99,221,28558,1,0,0:0:0:0:
98,216,28613,1,0,0:0:0:0:
98,211,28668,1,0,0:0:0:0:
97,206,28723,1,0,0:0:0:0:
97,201,28777,1,0,0:0:0:0:
96,196,28831,1,0,0:0:0:0:
96,191,28886,1,0,0:0:0:0:
96,186,28940,1,0,0:0:0:0:
97,182,28994,1,0,0:0:0:0:
97,177,29049,1,0,0:0:0:0:
98,172,29103,1,0,0:0:0:0:
98,167,29158,1,0,0:0:0:0:
99,162,29211,1,0,0:0:0:0:
100,157,29265,1,0,0:0:0:0:
101,152,29319,1,0,0:0:0:0:
103,147,29373,1,0,0:0:0:0:
104,142,29427,1,0,0:0:0:0:
106,138,29481,1,0,0:0:0:0:
108,133,29535,1,0,0:0:0:0:
109,128,29590,1,0,0:0:0:0:
111,124,29643,1,0,0:0:0:0:
114,119,29697,1,0,0:0:0:0:
116,115,29750,1,0,0:0:0:0:
119,110,29804,1,0,0:0:0:0:
121,106,29857,1,0,0:0:0:0:
124,102,29911,1,0,0:0:0:0:
127,98,29965,1,0,0:0:0:0:
130,94,30019,1,0,0:0:0:0:
133,90,30072,1,0,0:0:0:0:
136,86,30125,1,0,0:0:0:0:
139,83,30178,1,0,0:0:0:0:
143,79,30231,1,0,0:0:0:0:
147,75,30284,1,0,0:0:0:0:
150,72,30338,1,0,0:0:0:0:
154,69,30391,1,0,0:0:0:0:
158,66,30445,1,0,0:0:0:0:
162,63,30497,1,0,0:0:0:0:
166,60,30550,1,0,0:0:0:0:
170,57,30603,1,0,0:0:0:0:
174,55,30656,1,0,0:0:0:0:
179,52,30709,1,0,0:0:0:0:
183,50,30761,1,0,0:0:0:0:
188,47,30814,1,0,0:0:0:0:
192,45,30868,1,0,0:0:0:0:
197,44,30920,1,0,0:0:0:0:
202,42,30972,1,0,0:0:0:0:
206,40,31025,1,0,0:0:0:0:
211,39,31077,1,0,0:0:0:0:
216,37,31130,1,0,0:0:0:0:
221,36,31182,1,0,0:0:0:0:
226,35,31235,1,0,0:0:0:0:
231,34,31288,1,0,0:0:0:0:
236,34,31340,1,0,0:0:0:0:
241,33,31392,1,0,0:0:0:0:
246,33,31444,1,0,0:0:0:0:
251,32,31496,1,0,0:0:0:0:
256,32,31548,1,0,0:0:0:0:
261,32,31600,1,0,0:0:0:0:
265,33,31652,1,0,0:0:0:0:
270,33,31705,1,0,0:0:0:0:
275,34,31756,1,0,0:0:0:0:
280,34,31808,1,0,0:0:0:0:
285,35,31860,1,0,0:0:0:0:
290,36,31911,1,0,0:0:0:0:
295,37,31963,1,0,0:0:0:0:
300,39,32015,1,0,0:0:0:0:
305,40,32067,1,0,0:0:0:0:
309,42,32119,1,0,0:0:0:0:
314,44,32170,1,0,0:0:0:0:
319,45,32221,1,0,0:0:0:0:
323,47,32273,1,0,0:0:0:0:
328,50,32324,1,0,0:0:0:0:
332,52,32375,1,0,0:0:0:0:
337,55,32427,1,0,0:0:0:0:
341,57,32478,1,0,0:0:0:0:
345,60,32530,1,0,0:0:0:0:
349,63,32581,1,0,0:0:0:0:
353,66,32632,1,0,0:0:0:0:
357,69,32683,1,0,0:0:0:0:
361,72,32734,1,0,0:0:0:0:
364,75,32785,1,0,0:0:0:0:
368,79,32836,1,0,0:0:0:0:
372,83,32887,1,0,0:0:0:0:
375,86,32938,1,0,0:0:0:0:
378,90,32988,1,0,0:0:0:0:
381,94,33039,1,0,0:0:0:0:
384,98,33090,1,0,0:0:0:0:
387,102,33140,1,0,0:0:0:0:
390,106,33191,1,0,0:0:0:0:
392,110,33242,1,0,0:0:0:0:
395,115,33292,1,0,0:0:0:0:
397,119,33343,1,0,0:0:0:0:
400,124,33393,1,0,0:0:0:0:
402,128,33443,1,0,0:0:0:0:
403,133,33494,1,0,0:0:0:0:
405,138,33544,1,0,0:0:0:0:
407,142,33594,1,0,0:0:0:0:
408,147,33645,1,0,0:0:0:0:
410,152,33695,1,0,0:0:0:0:
411,157,33746,1,0,0:0:0:0:
412,162,33796,1,0,0:0:0:0:
413,167,33846,1,0,0:0:0:0:
413,172,33896,1,0,0:0:0:0:
414,177,33946,1,0,0:0:0:0:
414,182,33996,1,0,0:0:0:0:
415,187,34046,1,0,0:0:0:0:
415,192,34096,1,0,0:0:0:0:
415,196,34146,1,0,0:0:0:0:
414,201,34195,1,0,0:0:0:0:
414,206,34245,1,0,0:0:0:0:
413,211,34295,1,0,0:0:0:0:
413,216,34344,1,0,0:0:0:0:
412,221,34394,1,0,0:0:0:0:
411,226,34444,1,0,0:0:0:0:
410,231,34493,1,0,0:0:0:0:
408,236,34543,1,0,0:0:0:0:
407,241,34592,1,0,0:0:0:0:
405,245,34641,1,0,0:0:0:0:
403,250,34691,1,0,0:0:0:0:
402,255,34740,1,0,0:0:0:0:
400,259,34789,1,0,0:0:0:0:
397,264,34839,1,0,0:0:0:0:
395,268,34888,1,0,0:0:0:0:
392,273,34937,1,0,0:0:0:0:
390,277,34987,1,0,0:0:0:0:
387,281,35036,1,0,0:0:0:0:
384,285,35085,1,0,0:0:0:0:
381,289,35134,1,0,0:0:0:0:
378,293,35183,1,0,0:0:0:0:
375,297,35232,1,0,0:0:0:0:
372,300,35281,1,0,0:0:0:0:
368,304,35330,1,0,0:0:0:0:
364,308,35378,1,0,0:0:0:0:
361,311,35427,1,0,0:0:0:0:
357,314,35476,1,0,0:0:0:0:
353,317,35524,1,0,0:0:0:0:
349,320,35573,1,0,0:0:0:0:
345,323,35622,1,0,0:0:0:0:
341,326,35670,1,0,0:0:0:0:
337,328,35719,1,0,0:0:0:0:
332,331,35768,1,0,0:0:0:0:
328,333,35816,1,0,0:0:0:0:
323,336,35865,1,0,0:0:0:0:
319,338,35913,1,0,0:0:0:0:
314,339,35961,1,0,0:0:0:0:
309,341,36010,1,0,0:0:0:0:
305,343,36058,1,0,0:0:0:0:
300,344,36107,1,0,0:0:0:0:
295,346,36155,1,0,0:0:0:0:
290,347,36203,1,0,0:0:0:0:
285,348,36251,1,0,0:0:0:0:
280,349,36299,1,0,0:0:0:0:
275,349,36347,1,0,0:0:0:0:
270,350,36395,1,0,0:0:0:0:
265,350,36443,1,0,0:0:0:0:
260,351,36492,1,0,0:0:0:0:
255,351,36539,1,0,0:0:0:0:
251,351,36587,1,0,0:0:0:0:
246,350,36635,1,0,0:0:0:0:
241,350,36683,1,0,0:0:0:0:
236,349,36730,1,0,0:0:0:0:
231,349,36778,1,0,0:0:0:0:
226,348,36826,1,0,0:0:0:0:
221,347,36874,1,0,0:0:0:0:
216,346,36921,1,0,0:0:0:0:
211,344,36968,1,0,0:0:0:0:
206,343,37016,1,0,0:0:0:0:
202,341,37063,1,0,0:0:0:0:
197,339,37111,1,0,0:0:0:0:
192,338,37158,1,0,0:0:0:0:
188,336,37206,1,0,0:0:0:0:
183,333,37254,1,0,0:0:0:0:
179,331,37301,1,0,0:0:0:0:
174,328,37348,1,0,0:0:0:0:
170,326,37395,1,0,0:0:0:0:
166,323,37442,1,0,0:0:0:0:
162,320,37489,1,0,0:0:0:0:
158,317,37537,1,0,0:0:0:0:
154,314,37584,1,0,0:0:0:0:
150,311,37631,1,0,0:0:0:0:
147,308,37677,1,0,0:0:0:0:
143,304,37724,1,0,0:0:0:0:
139,300,37771,1,0,0:0:0:0:
136,297,37818,1,0,0:0:0:0:
133,293,37865,1,0,0:0:0:0:
130,289,37912,1,0,0:0:0:0:
127,285,37959,1,0,0:0:0:0:
124,281,38006,1,0,0:0:0:0:
121,277,38052,1,0,0:0:0:0:
119,273,38099,1,0,0:0:0:0:
116,268,38145,1,0,0:0:0:0:
114,264,38192,1,0,0:0:0:0:
111,259,38238,1,0,0:0:0:0:
109,255,38285,1,0,0:0:0:0:
108,250,38332,1,0,0:0:0:0:
106,245,38379,1,0,0:0:0:0:
104,241,38425,1,0,0:0:0:0:
103,236,38471,1,0,0:0:0:0:
101,231,38517,1,0,0:0:0:0:
100,226,38564,1,0,0:0:0:0:
99,221,38610,1,0,0:0:0:0:
98,216,38656,1,0,0:0:0:0:
98,211,38703,1,0,0:0:0:0:
97,206,38749,1,0,0:0:0:0:
97,201,38795,1,0,0:0:0:0:
96,196,38841,1,0,0:0:0:0:
96,191,38887,1,0,0:0:0:0:
96,187,38933,1,0,0:0:0:0:
97,182,38979,1,0,0:0:0:0:
97,177,39025,1,0,0:0:0:0:
98,172,39071,1,0,0:0:0:0:
98,167,39117,1,0,0:0:0:0:
99,162,39162,1,0,0:0:0:0:
100,157,39208,1,0,0:0:0:0:
101,152,39254,1,0,0:0:0:0:
103,147,39299,1,0,0:0:0:0:
104,142,39345,1,0,0:0:0:0:
106,138,39391,1,0,0:0:0:0:
108,133,39437,1,0,0:0:0:0:
109,128,39483,1,0,0:0:0:0:
111,124,39528,1,0,0:0:0:0:
114,119,39573,1,0,0:0:0:0:
116,115,39619,1,0,0:0:0:0:
119,110,39664,1,0,0:0:0:0:
121,106,39710,1,0,0:0:0:0:
124,102,39755,1,0,0:0:0:0:
127,98,39801,1,0,0:0:0:0:
130,94,39847,1,0,0:0:0:0:
133,90,39892,1,0,0:0:0:0:
136,86,39937,1,0,0:0:0:0:
139,83,39982,1,0,0:0:0:0:
143,79,40027,1,0,0:0:0:0:
147,75,40072,1,0,0:0:0:0:
150,72,40118,1,0,0:0:0:0:
154,69,40163,1,0,0:0:0:0:
158,66,40208,1,0,0:0:0:0:
162,63,40252,1,0,0:0:0:0:
166,60,40297,1,0,0:0:0:0:
170,57,40342,1,0,0:0:0:0:
174,55,40387,1,0,0:0:0:0:
179,52,40432,1,0,0:0:0:0:
183,50,40477,1,0,0:0:0:0:
188,47,40522,1,0,0:0:0:0:
192,45,40567,1,0,0:0:0:0:
197,44,40611,1,0,0:0:0:0:
202,42,40656,1,0,0:0:0:0:
206,40,40700,1,0,0:0:0:0:
211,39,40745,1,0,0:0:0:0:
216,37,40790,1,0,0:0:0:0:
221,36,40834,1,0,0:0:0:0:
226,35,40879,1,0,0:0:0:0:
231,34,40924,1,0,0:0:0:0:
236,34,40968,1,0,0:0:0:0:
241,33,41012,1,0,0:0:0:0:
246,33,41057,1,0,0:0:0:0:
251,32,41101,1,0,0:0:0:0:
256,32,41145,1,0,0:0:0:0:
260,32,41190,1,0,0:0:0:0:
265,33,41234,1,0,0:0:0:0:
270,33,41279,1,0,0:0:0:0:
275,34,41323,1,0,0:0:0:0:
280,34,41367,1,0,0:0:0:0:
285,35,41411,1,0,0:0:0:0:
290,36,41455,1,0,0:0:0:0:
295,37,41499,1,0,0:0:0:0:
300,39,41543,1,0,0:0:0:0:
305,40,41587,1,0,0:0:0:0:
309,42,41632,1,0,0:0:0:0:
314,44,41675,1,0,0:0:0:0:
319,45,41719,1,0,0:0:0:0:
323,47,41763,1,0,0:0:0:0:
328,50,41807,1,0,0:0:0:0:
332,52,41851,1,0,0:0:0:0:
337,55,41895,1,0,0:0:0:0:
341,57,41939,1,0,0:0:0:0:
345,60,41983,1,0,0:0:0:0:
349,63,42026,1,0,0:0:0:0:
353,66,42070,1,0,0:0:0:0:
357,69,42113,1,0,0:0:0:0:
361,72,42157,1,0,0:0:0:0:
364,75,42201,1,0,0:0:0:0:
368,79,42244,1,0,0:0:0:0:
372,83,42288,1,0,0:0:0:0:
375,86,42332,1,0,0:0:0:0:
378,90,42375,1,0,0:0:0:0:
381,94,42418,1,0,0:0:0:0:
384,98,42462,1,0,0:0:0:0:
387,102,42505,1,0,0:0:0:0:
390,106,42548,1,0,0:0:0:0:
392,110,42592,1,0,0:0:0:0:
395,115,42635,1,0,0:0:0:0:
397,119,42679,1,0,0:0:0:0:
400,124,42722,1,0,0:0:0:0:
402,128,42765,1,0,0:0:0:0:
403,133,42808,1,0,0:0:0:0:
405,138,42851,1,0,0:0:0:0:
407,142,42894,1,0,0:0:0:0:
408,147,42937,1,0,0:0:0:0:
410,152,42980,1,0,0:0:0:0:
411,157,43024,1,0,0:0:0:0:
412,162,43066,1,0,0:0:0:0:
413,167,43109,1,0,0:0:0:0:
413,172,43152,1,0,0:0:0:0:
414,177,43195,1,0,0:0:0:0:
414,182,43238,1,0,0:0:0:0:
415,187,43281,1,0,0:0:0:0:
415,192,43324,1,0,0:0:0:0:
415,197,43367,1,0,0:0:0:0:
414,201,43409,1,0,0:0:0:0:
414,206,43452,1,0,0:0:0:0:
413,211,43494,1,0,0:0:0:0:
413,216,43537,1,0,0:0:0:0:
412,221,43580,1,0,0:0:0:0:
411,226,43622,1,0,0:0:0:0:
410,231,43665,1,0,0:0:0:0:
408,236,43708,1,0,0:0:0:0:
407,241,43750,1,0,0:0:0:0:
405,245,43792,1,0,0:0:0:0:
403,250,43835,1,0,0:0:0:0:
402,255,43877,1,0,0:0:0:0:
400,259,43919,1,0,0:0:0:0:
397,264,43962,1,0,0:0:0:0:
395,268,44004,1,0,0:0:0:0:
392,273,44047,1,0,0:0:0:0:
390,277,44089,1,0,0:0:0:0:
387,281,44131,1,0,0:0:0:0:
384,285,44173,1,0,0:0:0:0:
381,289,44215,1,0,0:0:0:0:
378,293,44257,1,0,0:0:0:0:
375,297,44299,1,0,0:0:0:0:
372,300,44341,1,0,0:0:0:0:
368,304,44384,1,0,0:0:0:0:
364,308,44425,1,0,0:0:0:0:
361,311,44467,1,0,0:0:0:0:
357,314,44509,1,0,0:0:0:0:
353,317,44551,1,0,0:0:0:0:
349,320,44593,1,0,0:0:0:0:
345,323,44635,1,0,0:0:0:0:
341,326,44677,1,0,0:0:0:0:
337,328,44719,1,0,0:0:0:0:
332,331,44760,1,0,0:0:0:0:
328,333,44802,1,0,0:0:0:0:
323,336,44844,1,0,0:0:0:0:
319,338,44885,1,0,0:0:0:0:
314,339,44927,1,0,0:0:0:0:
309,341,44969,1,0,0:0:0:0:
305,343,45010,1,0,0:0:0:0:
300,344,45052,1,0,0:0:0:0:
295,346,45093,1,0,0:0:0:0:
290,347,45134,1,0,0:0:0:0:
285,348,45176,1,0,0:0:0:0:
280,349,45217,1,0,0:0:0:0:
275,349,45259,1,0,0:0:0:0:
270,350,45300,1,0,0:0:0:0:
265,350,45342,1,0,0:0:0:0:
260,351,45384,1,0,0:0:0:0:
255,351,45425,1,0,0:0:0:0:
250,351,45466,1,0,0:0:0:0:
246,350,45507,1,0,0:0:0:0:
241,350,45548,1,0,0:0:0:0:
236,349,45590,1,0,0:0:0:0:
231,349,45631,1,0,0:0:0:0:
226,348,45672,1,0,0:0:0:0:
221,347,45714,1,0,0:0:0:0:
216,346,45754,1,0,0:0:0:0:
211,344,45795,1,0,0:0:0:0:
206,343,45836,1,0,0:0:0:0:
202,341,45877,1,0,0:0:0:0:
197,339,45918,1,0,0:0:0:0:
192,338,45959,1,0,0:0:0:0:
188,336,46000,1,0,0:0:0:0:
183,333,46042,1,0,0:0:0:0:
179,331,46082,1,0,0:0:0:0:
174,328,46123,1,0,0:0:0:0:
170,326,46164,1,0,0:0:0:0:
166,323,46205,1,0,0:0:0:0:
162,320,46245,1,0,0:0:0:0:
158,317,46286,1,0,0:0:0:0:
154,314,46327,1,0,0:0:0:0:
150,311,46368,1,0,0:0:0:0:
147,308,46408,1,0,0:0:0:0:
143,304,46449,1,0,0:0:0:0:
139,300,46489,1,0,0:0:0:0:
136,297,46530,1,0,0:0:0:0:
133,293,46570,1,0,0:0:0:0:
130,289,46611,1,0,0:0:0:0:
127,285,46651,1,0,0:0:0:0:
124,281,46692,1,0,0:0:0:0:
121,277,46732,1,0,0:0:0:0:
119,273,46772,1,0,0:0:0:0:
116,268,46812,1,0,0:0:0:0:
114,264,46853,1,0,0:0:0:0:
111,259,46893,1,0,0:0:0:0:
109,255,46933,1,0,0:0:0:0:
108,250,46974,1,0,0:0:0:0:
106,245,47015,1,0,0:0:0:0:
104,241,47055,1,0,0:0:0:0:
103,236,47095,1,0,0:0:0:0:
101,231,47135,1,0,0:0:0:0:
100,226,47175,1,0,0:0:0:0:
99,221,47215,1,0,0:0:0:0:
98,216,47255,1,0,0:0:0:0:
98,211,47295,1,0,0:0:0:0:
97,206,47336,1,0,0:0:0:0:
97,201,47375,1,0,0:0:0:0:
96,196,47415,1,0,0:0:0:0:
96,191,47455,1,0,0:0:0:0:
96,186,47495,1,0,0:0:0:0:
97,182,47535,1,0,0:0:0:0:
97,177,47575,1,0,0:0:0:0:
98,172,47615,1,0,0:0:0:0:
98,167,47655,1,0,0:0:0:0:
99,162,47694,1,0,0:0:0:0:
100,157,47734,1,0,0:0:0:0:
101,152,47774,1,0,0:0:0:0:
103,147,47813,1,0,0:0:0:0:
104,142,47853,1,0,0:0:0:0:
106,138,47893,1,0,0:0:0:0:
108,133,47932,1,0,0:0:0:0:
109,128,47972,1,0,0:0:0:0:
111,124,48011,1,0,0:0:0:0:
114,119,48050,1,0,0:0:0:0:
116,115,48090,1,0,0:0:0:0:
119,110,48129,1,0,0:0:0:0:
121,106,48169,1,0,0:0:0:0:
124,102,48208,1,0,0:0:0:0:
127,98,48248,1,0,0:0:0:0:
130,94,48288,1,0,0:0:0:0:
133,90,48327,1,0,0:0:0:0:
136,86,48366,1,0,0:0:0:0:
139,83,48405,1,0,0:0:0:0:
143,79,48445,1,0,0:0:0:0:
147,75,48484,1,0,0:0:0:0:
150,72,48523,1,0,0:0:0:0:
154,69,48562,1,0,0:0:0:0:
158,66,48602,1,0,0:0:0:0:
162,63,48641,1,0,0:0:0:0:
166,60,48680,1,0,0:0:0:0:
170,57,48719,1,0,0:0:0:0:
174,55,48758,1,0,0:0:0:0:
179,52,48797,1,0,0:0:0:0:
183,50,48836,1,0,0:0:0:0:
188,47,48875,1,0,0:0:0:0:
192,45,48915,1,0,0:0:0:0:
197,44,48953,1,0,0:0:0:0:
202,42,48992,1,0,0:0:0:0:
206,40,49031,1,0,0:0:0:0:
211,39,49070,1,0,0:0:0:0:
216,37,49109,1,0,0:0:0:0:
221,36,49148,1,0,0:0:0:0:
226,35,49187,1,0,0:0:0:0:
231,34,49226,1,0,0:0:0:0:
236,34,49264,1,0,0:0:0:0:
241,33,49303,1,0,0:0:0:0:
246,33,49341,1,0,0:0:0:0:
251,32,49380,1,0,0:0:0:0:
256,32,49419,1,0,0:0:0:0:
261,32,49457,1,0,0:0:0:0:
265,33,49496,1,0,0:0:0:0:
270,33,49535,1,0,0:0:0:0:
275,34,49573,1,0,0:0:0:0:
280,34,49611,1,0,0:0:0:0:
285,35,49650,1,0,0:0:0:0:
290,36,49688,1,0,0:0:0:0:
295,37,49727,1,0,0:0:0:0:
300,39,49765,1,0,0:0:0:0:
305,40,49804,1,0,0:0:0:0:
309,42,49843,1,0,0:0:0:0:
314,44,49881,1,0,0:0:0:0:
319,45,49919,1,0,0:0:0:0:
323,47,49957,1,0,0:0:0:0:
328,50,49996,1,0,0:0:0:0:
332,52,50034,1,0,0:0:0:0:
337,55,50072,1,0,0:0:0:0:
341,57,50110,1,0,0:0:0:0:
345,60,50149,1,0,0:0:0:0:
349,63,50187,1,0,0:0:0:0:
353,66,50225,1,0,0:0:0:0:
357,69,50263,1,0,0:0:0:0:
361,72,50301,1,0,0:0:0:0:
364,75,50339,1,0,0:0:0:0:
368,79,50377,1,0,0:0:0:0:
372,83,50415,1,0,0:0:0:0:
375,86,50454,1,0,0:0:0:0:
378,90,50491,1,0,0:0:0:0:
381,94,50529,1,0,0:0:0:0:
384,98,50567,1,0,0:0:0:0:
387,102,50605,1,0,0:0:0:0:
390,106,50643,1,0,0:0:0:0:
392,110,50681,1,0,0:0:0:0:
395,115,50719,1,0,0:0:0:0:
397,119,50757,1,0,0:0:0:0:
400,124,50794,1,0,0:0:0:0:
402,128,50832,1,0,0:0:0:0:
403,133,50870,1,0,0:0:0:0:
405,138,50907,1,0,0:0:0:0:
407,142,50945,1,0,0:0:0:0:
408,147,50983,1,0,0:0:0:0:
410,152,51020,1,0,0:0:0:0:
411,157,51059,1,0,0:0:0:0:
412,162,51096,1,0,0:0:0:0:
413,167,51134,1,0,0:0:0:0:
413,172,51171,1,0,0:0:0:0:
414,177,51209,1,0,0:0:0:0:
414,182,51246,1,0,0:0:0:0:
415,187,51284,1,0,0:0:0:0:
415,192,51321,1,0,0:0:0:0:
415,196,51359,5,0,0:0:0:0:
414,201,51396,1,0,0:0:0:0:
414,206,51433,1,0,0:0:0:0:
413,211,51470,1,0,0:0:0:0:
413,216,51508,1,0,0:0:0:0:
412,221,51545,1,0,0:0:0:0:
411,226,51582,1,0,0:0:0:0:
410,231,51620,1,0,0:0:0:0:
408,236,51657,1,0,0:0:0:0:
407,241,51695,1,0,0:0:0:0:
405,245,51732,1,0,0:0:0:0:
403,250,51769,1,0,0:0:0:0:
402,255,51806,1,0,0:0:0:0:
400,259,51843,1,0,0:0:0:0:
397,264,51880,1,0,0:0:0:0:
395,268,51917,1,0,0:0:0:0:
392,273,51955,1,0,0:0:0:0:
390,277,51991,1,0,0:0:0:0:
387,281,52028,1,0,0:0:0:0:
384,285,52065,1,0,0:0:0:0:
381,289,52102,1,0,0:0:0:0:
378,293,52139,1,0,0:0:0:0:
375,297,52176,1,0,0:0:0:0:
372,300,52213,1,0,0:0:0:0:
368,304,52250,1,0,0:0:0:0:
364,308,52287,1,0,0:0:0:0:
361,311,52324,1,0,0:0:0:0:
357,314,52361,1,0,0:0:0:0:
353,317,52398,1,0,0:0:0:0:
349,320,52434,1,0,0:0:0:0:
345,323,52471,1,0,0:0:0:0:
341,326,52508,1,0,0:0:0:0:
337,328,52545,1,0,0:0:0:0:
332,331,52581,1,0,0:0:0:0:
328,333,52618,1,0,0:0:0:0:
323,336,52654,1,0,0:0:0:0:
319,338,52691,1,0,0:0:0:0:
314,339,52727,1,0,0:0:0:0:
309,341,52764,1,0,0:0:0:0:
305,343,52801,1,0,0:0:0:0:
300,344,52838,1,0,0:0:0:0:
295,346,52874,1,0,0:0:0:0:
290,347,52910,1,0,0:0:0:0:
285,348,52947,1,0,0:0:0:0:
280,349,52983,1,0,0:0:0:0:
275,349,53020,1,0,0:0:0:0:
270,350,53056,1,0,0:0:0:0:
265,350,53092,1,0,0:0:0:0:
260,351,53129,1,0,0:0:0:0:
255,351,53165,1,0,0:0:0:0:
251,351,53201,1,0,0:0:0:0:
246,350,53237,1,0,0:0:0:0:
241,350,53273,1,0,0:0:0:0:
236,349,53310,1,0,0:0:0:0:
231,349,53346,1,0,0:0:0:0:
226,348,53382,1,0,0:0:0:0:
221,347,53419,1,0,0:0:0:0:
216,346,53455,1,0,0:0:0:0:
211,344,53491,1,0,0:0:0:0:
206,343,53527,1,0,0:0:0:0:
202,341,53563,1,0,0:0:0:0:
197,339,53599,1,0,0:0:0:0:
192,338,53635,1,0,0:0:0:0:
188,336,53671,1,0,0:0:0:0:
183,333,53707,1,0,0:0:0:0:
179,331,53742,1,0,0:0:0:0:
174,328,53778,1,0,0:0:0:0:
170,326,53814,1,0,0:0:0:0:
166,323,53850,1,0,0:0:0:0:
162,320,53886,1,0,0:0:0:0:
158,317,53922,1,0,0:0:0:0:
154,314,53958,1,0,0:0:0:0:
150,311,53994,1,0,0:0:0:0:
147,308,54029,1,0,0:0:0:0:
143,304,54065,1,0,0:0:0:0:
139,300,54101,1,0,0:0:0:0:
136,297,54136,1,0,0:0:0:0:
133,293,54172,1,0,0:0:0:0:
130,289,54208,1,0,0:0:0:0:
127,285,54244,1,0,0:0:0:0:
124,281,54280,1,0,0:0:0:0:
121,277,54315,1,0,0:0:0:0:
119,273,54351,1,0,0:0:0:0:
116,268,54386,1,0,0:0:0:0:
114,264,54422,1,0,0:0:0:0:
111,259,54457,1,0,0:0:0:0:
109,255,54493,1,0,0:0:0:0:
108,250,54528,1,0,0:0:0:0:
106,245,54564,1,0,0:0:0:0:
104,241,54599,1,0,0:0:0:0:
103,236,54634,1,0,0:0:0:0:
101,231,54670,1,0,0:0:0:0:
100,226,54705,1,0,0:0:0:0:
99,221,54740,1,0,0:0:0:0:
98,216,54776,1,0,0:0:0:0:
98,211,54811,1,0,0:0:0:0:
97,206,54847,1,0,0:0:0:0:
97,201,54882,1,0,0:0:0:0:
96,196,54917,1,0,0:0:0:0:
96,191,54952,1,0,0:0:0:0:
96,187,54987,1,0,0:0:0:0:
97,182,55023,1,0,0:0:0:0:
97,177,55058,1,0,0:0:0:0:
98,172,55093,1,0,0:0:0:0:
98,167,55129,1,0,0:0:0:0:
99,162,55164,1,0,0:0:0:0:
100,157,55199,1,0,0:0:0:0:
101,152,55234,1,0,0:0:0:0:
103,147,55269,1,0,0:0:0:0:
104,142,55304,1,0,0:0:0:0:
106,138,55339,1,0,0:0:0:0:
108,133,55374,1,0,0:0:0:0:
109,128,55409,1,0,0:0:0:0:
111,124,55443,1,0,0:0:0:0:
114,119,55478,1,0,0:0:0:0:
116,115,55513,1,0,0:0:0:0:
119,110,55548,1,0,0:0:0:0:
121,106,55583,1,0,0:0:0:0:
124,102,55618,1,0,0:0:0:0:
127,98,55653,1,0,0:0:0:0:
130,94,55688,1,0,0:0:0:0:
133,90,55722,1,0,0:0:0:0:
136,86,55757,1,0,0:0:0:0:
139,83,55792,1,0,0:0:0:0:
143,79,55826,1,0,0:0:0:0:
147,75,55861,1,0,0:0:0:0:
150,72,55896,1,0,0:0:0:0:
154,69,55931,1,0,0:0:0:0:
158,66,55966,1,0,0:0:0:0:
162,63,56000,1,0,0:0:0:0:
166,60,56035,1,0,0:0:0:0:
170,57,56069,1,0,0:0:0:0:
174,55,56104,1,0,0:0:0:0:
179,52,56138,1,0,0:0:0:0:
183,50,56173,1,0,0:0:0:0:
188,47,56207,1,0,0:0:0:0:
192,45,56243,1,0,0:0:0:0:
197,44,56277,1,0,0:0:0:0:
202,42,56311,1,0,0:0:0:0:
206,40,56346,1,0,0:0:0:0:
211,39,56380,1,0,0:0:0:0:
216,37,56415,1,0,0:0:0:0:
221,36,56449,1,0,0:0:0:0:
226,35,56483,1,0,0:0:0:0:
231,34,56518,1,0,0:0:0:0:
236,34,56552,1,0,0:0:0:0:
241,33,56586,1,0,0:0:0:0:
246,33,56620,1,0,0:0:0:0:
251,32,56654,1,0,0:0:0:0:
256,32,56689,1,0,0:0:0:0:
260,32,56723,1,0,0:0:0:0:
265,33,56757,1,0,0:0:0:0:
270,33,56792,1,0,0:0:0:0:
275,34,56826,1,0,0:0:0:0:
280,34,56860,1,0,0:0:0:0:
285,35,56894,1,0,0:0:0:0:
290,36,56928,1,0,0:0:0:0:
295,37,56962,1,0,0:0:0:0:
300,39,56996,1,0,0:0:0:0:
305,40,57030,1,0,0:0:0:0:
309,42,57065,1,0,0:0:0:0:
314,44,57098,1,0,0:0:0:0:
319,45,57132,1,0,0:0:0:0:
323,47,57166,1,0,0:0:0:0:
328,50,57200,1,0,0:0:0:0:
332,52,57234,1,0,0:0:0:0:
337,55,57268,1,0,0:0:0:0:
341,57,57302,1,0,0:0:0:0:
345,60,57336,1,0,0:0:0:0:
349,63,57369,1,0,0:0:0:0:
353,66,57403,1,0,0:0:0:0:
357,69,57437,1,0,0:0:0:0:
361,72,57471,1,0,0:0:0:0:
364,75,57504,1,0,0:0:0:0:
368,79,57538,1,0,0:0:0:0:
372,83,57572,1,0,0:0:0:0:
375,86,57606,1,0,0:0:0:0:
378,90,57639,1,0,0:0:0:0:
381,94,57673,1,0,0:0:0:0:
384,98,57706,1,0,0:0:0:0:
387,102,57740,1,0,0:0:0:0:
390,106,57774,1,0,0:0:0:0:
392,110,57807,1,0,0:0:0:0:
395,115,57841,1,0,0:0:0:0:
397,119,57875,1,0,0:0:0:0:
400,124,57908,1,0,0:0:0:0:
402,128,57941,1,0,0:0:0:0:
403,133,57975,1,0,0:0:0:0:
405,138,58008,1,0,0:0:0:0:
407,142,58042,1,0,0:0:0:0:
408,147,58075,1,0,0:0:0:0:
410,152,58109,1,0,0:0:0:0:
411,157,58143,1,0,0:0:0:0:
412,162,58176,1,0,0:0:0:0:
413,167,58209,1,0,0:0:0:0:
413,172,58243,1,0,0:0:0:0:
414,177,58276,1,0,0:0:0:0:
414,182,58309,1,0,0:0:0:0:
415,187,58343,1,0,0:0:0:0:
415,192,58376,1,0,0:0:0:0:
415,197,58410,1,0,0:0:0:0:
414,201,58443,1,0,0:0:0:0:
414,206,58476,1,0,0:0:0:0:
413,211,58509,1,0,0:0:0:0:
413,216,58542,1,0,0:0:0:0:
412,221,58575,1,0,0:0:0:0:
411,226,58609,1,0,0:0:0:0:
410,231,58642,1,0,0:0:0:0:
408,236,58675,1,0,0:0:0:0:
407,241,58708,1,0,0:0:0:0:
405,245,58741,1,0,0:0:0:0:
403,250,58774,1,0,0:0:0:0:
402,255,58807,1,0,0:0:0:0:
400,259,58840,1,0,0:0:0:0:
397,264,58873,1,0,0:0:0:0:
395,268,58906,1,0,0:0:0:0:
392,273,58939,1,0,0:0:0:0:
390,277,58971,1,0,0:0:0:0:
387,281,59004,1,0,0:0:0:0:
384,285,59037,1,0,0:0:0:0:
381,289,59070,1,0,0:0:0:0:
378,293,59103,1,0,0:0:0:0:
375,297,59136,1,0,0:0:0:0:
372,300,59169,1,0,0:0:0:0:
368,304,59202,1,0,0:0:0:0:
364,308,59234,1,0,0:0:0:0:
361,311,59267,1,0,0:0:0:0:
357,314,59300,1,0,0:0:0:0:
353,317,59333,1,0,0:0:0:0:
349,320,59365,1,0,0:0:0:0:
345,323,59398,1,0,0:0:0:0:
341,326,59431,1,0,0:0:0:0:
337,328,59464,1,0,0:0:0:0:
332,331,59496,1,0,0:0:0:0:
328,333,59529,1,0,0:0:0:0:
323,336,59561,1,0,0:0:0:0:
319,338,59594,1,0,0:0:0:0:
314,339,59627,1,0,0:0:0:0:
309,341,59659,1,0,0:0:0:0:
305,343,59692,1,0,0:0:0:0:
300,344,59725,1,0,0:0:0:0:
295,346,59757,1,0,0:0:0:0:
290,347,59789,1,0,0:0:0:0:
285,348,59822,1,0,0:0:0:0:
280,349,59854,1,0,0:0:0:0:
275,349,59887,1,0,0:0:0:0:
270,350,59919,1,0,0:0:0:0:
265,350,59952,1,0,0:0:0:0:
260,351,59985,1,0,0:0:0:0:
255,351,60017,1,0,0:0:0:0:
250,351,60049,1,0,0:0:0:0:
246,350,60081,1,0,0:0:0:0:
241,350,60114,1,0,0:0:0:0:
236,349,60146,1,0,0:0:0:0:
231,349,60178,1,0,0:0:0:0:
226,348,60211,1,0,0:0:0:0:
221,347,60244,1,0,0:0:0:0:
216,346,60276,1,0,0:0:0:0:
211,344,60308,1,0,0:0:0:0:
206,343,60340,1,0,0:0:0:0:
202,341,60372,1,0,0:0:0:0:
197,339,60404,1,0,0:0:0:0:
192,338,60437,1,0,0:0:0:0:
188,336,60469,1,0,0:0:0:0:
183,333,60502,1,0,0:0:0:0:
179,331,60534,1,0,0:0:0:0:
174,328,60566,1,0,0:0:0:0:
170,326,60598,1,0,0:0:0:0:
166,323,60630,1,0,0:0:0:0:
162,320,60662,1,0,0:0:0:0:
158,317,60694,1,0,0:0:0:0:
154,314,60726,1,0,0:0:0:0:
150,311,60758,1,0,0:0:0:0:
147,308,60789,1,0,0:0:0:0:
143,304,60821,1,0,0:0:0:0:
139,300,60853,1,0,0:0:0:0:
136,297,60885,1,0,0:0:0:0:
133,293,60917,1,0,0:0:0:0:
130,289,60949,1,0,0:0:0:0:
127,285,60981,1,0,0:0:0:0:
124,281,61013,1,0,0:0:0:0:
121,277,61044,1,0,0:0:0:0:
119,273,61076,1,0,0:0:0:0:
116,268,61108,1,0,0:0:0:0:
114,264,61140,1,0,0:0:0:0:
111,259,61171,1,0,0:0:0:0:
109,255,61203,1,0,0:0:0:0:
108,250,61235,1,0,0:0:0:0:
106,245,61267,1,0,0:0:0:0:
104,241,61298,1,0,0:0:0:0:
103,236,61330,1,0,0:0:0:0:
101,231,61361,1,0,0:0:0:0:
100,226,61393,1,0,0:0:0:0:
99,221,61425,1,0,0:0:0:0:
98,216,61456,1,0,0:0:0:0:
98,211,61488,1,0,0:0:0:0:
97,206,61520,1,0,0:0:0:0:
97,201,61551,1,0,0:0:0:0:
96,196,61583,1,0,0:0:0:0:
96,191,61614,1,0,0:0:0:0:
96,186,61646,1,0,0:0:0:0:
97,182,61677,1,0,0:0:0:0:
97,177,61709,1,0,0:0:0:0:
98,172,61740,1,0,0:0:0:0:
98,167,61772,1,0,0:0:0:0:
99,162,61803,1,0,0:0:0:0:
100,157,61834,1,0,0:0:0:0:
101,152,61866,1,0,0:0:0:0:
103,147,61897,1,0,0:0:0:0:
104,142,61928,1,0,0:0:0:0:
106,138,61960,1,0,0:0:0:0:
108,133,61991,1,0,0:0:0:0:
109,128,62023,1,0,0:0:0:0:
111,124,62054,1,0,0:0:0:0:
114,119,62085,1,0,0:0:0:0:
116,115,62116,1,0,0:0:0:0:
119,110,62148,1,0,0:0:0:0:
121,106,62179,1,0,0:0:0:0:
124,102,62210,1,0,0:0:0:0:
127,98,62241,1,0,0:0:0:0:
130,94,62273,1,0,0:0:0:0:
133,90,62304,1,0,0:0:0:0:
136,86,62335,1,0,0:0:0:0:
139,83,62366,1,0,0:0:0:0:
143,79,62397,1,0,0:0:0:0:
147,75,62428,1,0,0:0:0:0:
150,72,62459,1,0,0:0:0:0:
154,69,62490,1,0,0:0:0:0:
158,66,62522,1,0,0:0:0:0:
162,63,62552,1,0,0:0:0:0:
166,60,62583,1,0,0:0:0:0:
170,57,62614,1,0,0:0:0:0:
174,55,62645,1,0,0:0:0:0:
179,52,62676,1,0,0:0:0:0:
183,50,62707,1,0,0:0:0:0:
188,47,62738,1,0,0:0:0:0:
192,45,62770,1,0,0:0:0:0:
197,44,62800,1,0,0:0:0:0:
202,42,62831,1,0,0:0:0:0:
206,40,62862,1,0,0:0:0:0:
211,39,62893,1,0,0:0:0:0:
216,37,62924,1,0,0:0:0:0:
221,36,62955,1,0,0:0:0:0:
226,35,62986,1,0,0:0:0:0:
231,34,63017,1,0,0:0:0:0:
236,34,63047,1,0,0:0:0:0:
241,33,63078,1,0,0:0:0:0:
246,33,63109,1,0,0:0:0:0:
251,32,63139,1,0,0:0:0:0:
256,32,63170,1,0,0:0:0:0:
261,32,63201,1,0,0:0:0:0:
265,33,63232,1,0,0:0:0:0:
270,33,63262,1,0,0:0:0:0:
275,34,63292,1,0,0:0:0:0:
280,34,63323,1,0,0:0:0:0:
285,35,63353,1,0,0:0:0:0:
290,36,63384,1,0,0:0:0:0:
295,37,63415,1,0,0:0:0:0:
300,39,63445,1,0,0:0:0:0:
305,40,63476,1,0,0:0:0:0:
309,42,63508,1,0,0:0:0:0:
314,44,63538,1,0,0:0:0:0:
319,45,63568,1,0,0:0:0:0:
323,47,63599,1,0,0:0:0:0:
328,50,63629,1,0,0:0:0:0:
332,52,63660,1,0,0:0:0:0:
337,55,63690,1,0,0:0:0:0:
341,57,63721,1,0,0:0:0:0:
345,60,63752,1,0,0:0:0:0:
349,63,63782,1,0,0:0:0:0:
353,66,63812,1,0,0:0:0:0:
357,69,63843,1,0,0:0:0:0:
361,72,63873,1,0,0:0:0:0:
364,75,63903,1,0,0:0:0:0:
368,79,63934,1,0,0:0:0:0:
372,83,63964,1,0,0:0:0:0:
375,86,63995,1,0,0:0:0:0:
378,90,64025,1,0,0:0:0:0:
381,94,64055,1,0,0:0:0:0:
384,98,64085,1,0,0:0:0:0:
387,102,64115,1,0,0:0:0:0:
390,106,64146,1,0,0:0:0:0:
392,110,64176,1,0,0:0:0:0:
395,115,64206,1,0,0:0:0:0:
397,119,64237,1,0,0:0:0:0:
400,124,64267,1,0,0:0:0:0:
402,128,64297,1,0,0:0:0:0:
403,133,64327,1,0,0:0:0:0:
405,138,64357,1,0,0:0:0:0:
407,142,64387,1,0,0:0:0:0:
408,147,64417,1,0,0:0:0:0:
410,152,64447,1,0,0:0:0:0:
411,157,64478,1,0,0:0:0:0:
412,162,64508,1,0,0:0:0:0:
413,167,64538,1,0,0:0:0:0:
413,172,64568,1,0,0:0:0:0:
414,177,64598,1,0,0:0:0:0:
414,182,64628,1,0,0:0:0:0:
415,187,64658,1,0,0:0:0:0:
415,192,64688,1,0,0:0:0:0:
415,196,64718,1,0,0:0:0:0:
414,201,64747,1,0,0:0:0:0:
414,206,64777,1,0,0:0:0:0:
413,211,64807,1,0,0:0:0:0:
413,216,64837,1,0,0:0:0:0:
412,221,64867,1,0,0:0:0:0:
411,226,64897,1,0,0:0:0:0:
410,231,64927,1,0,0:0:0:0:
408,236,64957,1,0,0:0:0:0:
407,241,64986,1,0,0:0:0:0:
405,245,65016,1,0,0:0:0:0:
403,250,65046,1,0,0:0:0:0:
402,255,65076,1,0,0:0:0:0:
400,259,65105,1,0,0:0:0:0:
397,264,65135,1,0,0:0:0:0:
395,268,65165,1,0,0:0:0:0:
392,273,65195,1,0,0:0:0:0:
390,277,65224,1,0,0:0:0:0:
387,281,65254,1,0,0:0:0:0:
384,285,65283,1,0,0:0:0:0:
381,289,65313,1,0,0:0:0:0:
378,293,65343,1,0,0:0:0:0:
375,297,65372,1,0,0:0:0:0:
372,300,65402,1,0,0:0:0:0:
368,304,65432,1,0,0:0:0:0:
364,308,65461,1,0,0:0:0:0:
361,311,65491,1,0,0:0:0:0:
357,314,65520,1,0,0:0:0:0:
353,317,65550,1,0,0:0:0:0:
349,320,65579,1,0,0:0:0:0:
345,323,65609,1,0,0:0:0:0:
341,326,65638,1,0,0:0:0:0:
337,328,65668,1,0,0:0:0:0:
332,331,65697,1,0,0:0:0:0:
328,333,65726,1,0,0:0:0:0:
323,336,65756,1,0,0:0:0:0:
319,338,65785,1,0,0:0:0:0:
314,339,65815,1,0,0:0:0:0:
309,341,65844,1,0,0:0:0:0:
305,343,65873,1,0,0:0:0:0:
300,344,65903,1,0,0:0:0:0:
295,346,65932,1,0,0:0:0:0:
290,347,65961,1,0,0:0:0:0:
285,348,65990,1,0,0:0:0:0:
280,349,66020,1,0,0:0:0:0:
275,349,66049,1,0,0:0:0:0:
270,350,66078,1,0,0:0:0:0:
265,350,66108,1,0,0:0:0:0:
260,351,66137,1,0,0:0:0:0:
255,351,66166,1,0,0:0:0:0:
251,351,66195,1,0,0:0:0:0:
246,350,66224,1,0,0:0:0:0:
241,350,66253,1,0,0:0:0:0:
236,349,66282,1,0,0:0:0:0:
231,349,66312,1,0,0:0:0:0:
226,348,66341,1,0,0:0:0:0:
221,347,66370,1,0,0:0:0:0:
216,346,66399,1,0,0:0:0:0:
211,344,66428,1,0,0:0:0:0:
206,343,66457,1,0,0:0:0:0:
202,341,66486,1,0,0:0:0:0:
197,339,66515,1,0,0:0:0:0:
192,338,66544,1,0,0:0:0:0:
188,336,66573,1,0,0:0:0:0:
183,333,66602,1,0,0:0:0:0:
179,331,66631,1,0,0:0:0:0:
174,328,66660,1,0,0:0:0:0:
170,326,66689,1,0,0:0:0:0:
166,323,66718,1,0,0:0:0:0:
162,320,66747,1,0,0:0:0:0:
158,317,66776,1,0,0:0:0:0:
154,314,66805,1,0,0:0:0:0:
150,311,66834,1,0,0:0:0:0:
147,308,66863,1,0,0:0:0:0:
143,304,66892,1,0,0:0:0:0:
139,300,66921,1,0,0:0:0:0:
136,297,66950,1,0,0:0:0:0:
133,293,66979,1,0,0:0:0:0:
130,289,67008,1,0,0:0:0:0:
127,285,67036,1,0,0:0:0:0:
124,281,67065,1,0,0:0:0:0:
121,277,67094,1,0,0:0:0:0:
119,273,67123,1,0,0:0:0:0:
116,268,67152,1,0,0:0:0:0:
114,264,67180,1,0,0:0:0:0:
111,259,67209,1,0,0:0:0:0:
109,255,67238,1,0,0:0:0:0:
108,250,67267,1,0,0:0:0:0:
106,245,67296,1,0,0:0:0:0:
104,241,67324,1,0,0:0:0:0:
103,236,67353,1,0,0:0:0:0:
101,231,67381,1,0,0:0:0:0:
100,226,67410,1,0,0:0:0:0:
99,221,67439,1,0,0:0:0:0:
98,216,67467,1,0,0:0:0:0:
98,211,67496,1,0,0:0:0:0:
97,206,67525,1,0,0:0:0:0:
97,201,67553,1,0,0:0:0:0:
96,196,67582,1,0,0:0:0:0:
96,191,67610,1,0,0:0:0:0:
96,187,67639,1,0,0:0:0:0:
97,182,67667,1,0,0:0:0:0:
97,177,67696,1,0,0:0:0:0:
98,172,67724,1,0,0:0:0:0:
98,167,67753,1,0,0:0:0:0:
99,162,67781,1,0,0:0:0:0:
100,157,67809,1,0,0:0:0:0:
101,152,67838,1,0,0:0:0:0:
103,147,67866,1,0,0:0:0:0:
104,142,67895,1,0,0:0:0:0:
106,138,67923,1,0,0:0:0:0:
108,133,67951,1,0,0:0:0:0:
109,128,67980,1,0,0:0:0:0:
111,124,68008,1,0,0:0:0:0:
114,119,68036,1,0,0:0:0:0:
116,115,68064,1,0,0:0:0:0:
119,110,68093,1,0,0:0:0:0:
121,106,68121,1,0,0:0:0:0:
124,102,68149,1,0,0:0:0:0:
127,98,68178,1,0,0:0:0:0:
130,94,68206,1,0,0:0:0:0:
133,90,68234,1,0,0:0:0:0:
136,86,68262,1,0,0:0:0:0:
139,83,68290,1,0,0:0:0:0:
143,79,68318,1,0,0:0:0:0:
147,75,68346,1,0,0:0:0:0:
150,72,68375,1,0,0:0:0:0:
154,69,68403,1,0,0:0:0:0:
158,66,68432,1,0,0:0:0:0:
162,63,68460,1,0,0:0:0:0:
166,60,68488,1,0,0:0:0:0:
170,57,68516,1,0,0:0:0:0:
174,55,68544,1,0,0:0:0:0:
179,52,68572,1,0,0:0:0:0:
183,50,68600,1,0,0:0:0:0:
188,47,68628,1,0,0:0:0:0:
192,45,68657,1,0,0:0:0:0:
197,44,68684,1,0,0:0:0:0:
202,42,68712,1,0,0:0:0:0:
206,40,68740,1,0,0:0:0:0:
211,39,68768,1,0,0:0:0:0:
216,37,68796,1,0,0:0:0:0:
221,36,68824,1,0,0:0:0:0:
226,35,68852,1,0,0:0:0:0:
231,34,68881,1,0,0:0:0:0:
236,34,68908,1,0,0:0:0:0:
241,33,68936,1,0,0:0:0:0:
246,33,68964,1,0,0:0:0:0:
251,32,68992,1,0,0:0:0:0:
256,32,69020,1,0,0:0:0:0:
260,32,69048,1,0,0:0:0:0:
265,33,69076,1,0,0:0:0:0:
270,33,69104,1,0,0:0:0:0:
275,34,69131,1,0,0:0:0:0:
280,34,69159,1,0,0:0:0:0:
285,35,69187,1,0,0:0:0:0:
290,36,69215,1,0,0:0:0:0:
295,37,69242,1,0,0:0:0:0:
300,39,69270,1,0,0:0:0:0:
305,40,69298,1,0,0:0:0:0:
309,42,69326,1,0,0:0:0:0:
314,44,69353,1,0,0:0:0:0:
319,45,69381,1,0,0:0:0:0:
323,47,69409,1,0,0:0:0:0:
328,50,69436,1,0,0:0:0:0:
332,52,69464,1,0,0:0:0:0:
337,55,69492,1,0,0:0:0:0:
341,57,69519,1,0,0:0:0:0:
345,60,69547,1,0,0:0:0:0:
349,63,69574,1,0,0:0:0:0:
353,66,69602,1,0,0:0:0:0:
357,69,69629,1,0,0:0:0:0:
361,72,69657,1,0,0:0:0:0:
364,75,69684,1,0,0:0:0:0:
368,79,69712,1,0,0:0:0:0:
372,83,69740,1,0,0:0:0:0:
375,86,69768,1,0,0:0:0:0:
378,90,69795,1,0,0:0:0:0:
381,94,69822,1,0,0:0:0:0:
384,98,69850,1,0,0:0:0:0:
387,102,69877,1,0,0:0:0:0:
390,106,69905,1,0,0:0:0:0:
392,110,69932,1,0,0:0:0:0:
395,115,69960,1,0,0:0:0:0:
397,119,69988,1,0,0:0:0:0:
400,124,70015,1,0,0:0:0:0:
402,128,70042,1,0,0:0:0:0:
403,133,70070,1,0,0:0:0:0:
405,138,70097,1,0,0:0:0:0:
407,142,70124,1,0,0:0:0:0:
408,147,70152,1,0,0:0:0:0:
410,152,70179,1,0,0:0:0:0:
411,157,70207,1,0,0:0:0:0:
412,162,70234,1,0,0:0:0:0:
413,167,70261,1,0,0:0:0:0:
413,172,70288,1,0,0:0:0:0:
414,177,70316,1,0,0:0:0:0:
414,182,70343,1,0,0:0:0:0:
415,187,70370,1,0,0:0:0:0:
415,192,70397,1,0,0:0:0:0:
415,197,70425,1,0,0:0:0:0:
414,201,70452,1,0,0:0:0:0:
414,206,70479,1,0,0:0:0:0:
413,211,70506,1,0,0:0:0:0:
413,216,70533,1,0,0:0:0:0:
412,221,70560,1,0,0:0:0:0:
411,226,70588,1,0,0:0:0:0:
410,231,70615,1,0,0:0:0:0:
408,236,70642,1,0,0:0:0:0:
407,241,70669,1,0,0:0:0:0:
405,245,70696,1,0,0:0:0:0:
403,250,70723,1,0,0:0:0:0:
402,255,70750,1,0,0:0:0:0:
400,259,70777,1,0,0:0:0:0:
397,264,70804,1,0,0:0:0:0:
395,268,70831,1,0,0:0:0:0:
392,273,70859,1,0,0:0:0:0:
390,277,70885,1,0,0:0:0:0:
387,281,70912,1,0,0:0:0:0:
384,285,70939,1,0,0:0:0:0:
381,289,70966,1,0,0:0:0:0:
378,293,70993,1,0,0:0:0:0:
375,297,71020,1,0,0:0:0:0:
372,300,71047,1,0,0:0:0:0:
368,304,71075,1,0,0:0:0:0:
364,308,71101,1,0,0:0:0:0:
361,311,71128,1,0,0:0:0:0:
357,314,71155,1,0,0:0:0:0:
353,317,71182,1,0,0:0:0:0:
349,320,71209,1,0,0:0:0:0:
345,323,71236,1,0,0:0:0:0:
341,326,71263,1,0,0:0:0:0:
337,328,71290,1,0,0:0:0:0:
332,331,71316,1,0,0:0:0:0:
328,333,71343,1,0,0:0:0:0:
323,336,71370,1,0,0:0:0:0:
319,338,71397,1,0,0:0:0:0:
314,339,71423,1,0,0:0:0:0:
309,341,71450,1,0,0:0:0:0:
305,343,71477,1,0,0:0:0:0:
300,344,71504,1,0,0:0:0:0:
295,346,71530,1,0,0:0:0:0:
290,347,71557,1,0,0:0:0:0:
285,348,71584,1,0,0:0:0:0:
280,349,71610,1,0,0:0:0:0:
275,349,71637,1,0,0:0:0:0:
270,350,71664,1,0,0:0:0:0:
265,350,71690,1,0,0:0:0:0:
260,351,71718,1,0,0:0:0:0:
255,351,71744,1,0,0:0:0:0:
250,351,71771,1,0,0:0:0:0:
246,350,71797,1,0,0:0:0:0:
241,350,71824,1,0,0:0:0:0:
236,349,71850,1,0,0:0:0:0:
231,349,71877,1,0,0:0:0:0:
226,348,71904,1,0,0:0:0:0:
221,347,71931,1,0,0:0:0:0:
216,346,71957,1,0,0:0:0:0:
211,344,71984,1,0,0:0:0:0:
206,343,72010,1,0,0:0:0:0:
202,341,72037,1,0,0:0:0:0:
197,339,72063,1,0,0:0:0:0:
192,338,72090,1,0,0:0:0:0:
188,336,72116,1,0,0:0:0:0:
183,333,72143,1,0,0:0:0:0:
179,331,72169,1,0,0:0:0:0:
174,328,72195,1,0,0:0:0:0:
170,326,72222,1,0,0:0:0:0:
166,323,72248,1,0,0:0:0:0:
162,320,72275,1,0,0:0:0:0:
158,317,72301,1,0,0:0:0:0:
154,314,72327,1,0,0:0:0:0:
150,311,72354,1,0,0:0:0:0:
147,308,72380,1,0,0:0:0:0:
143,304,72406,1,0,0:0:0:0:
139,300,72432,1,0,0:0:0:0:
136,297,72459,1,0,0:0:0:0:
133,293,72485,1,0,0:0:0:0:
130,289,72511,1,0,0:0:0:0:
127,285,72538,1,0,0:0:0:0:
124,281,72565,1,0,0:0:0:0:
121,277,72591,1,0,0:0:0:0:
119,273,72617,1,0,0:0:0:0:
116,268,72643,1,0,0:0:0:0:
114,264,72669,1,0,0:0:0:0:
111,259,72696,1,0,0:0:0:0:
109,255,72722,1,0,0:0:0:0:
108,250,72748,1,0,0:0:0:0:
106,245,72775,1,0,0:0:0:0:
104,241,72801,1,0,0:0:0:0:
103,236,72827,1,0,0:0:0:0:
101,231,72853,1,0,0:0:0:0:
100,226,72879,1,0,0:0:0:0:
99,221,72905,1,0,0:0:0:0:
98,216,72931,1,0,0:0:0:0:
98,211,72957,1,0,0:0:0:0:
97,206,72984,1,0,0:0:0:0:
97,201,73010,1,0,0:0:0:0:
96,196,73036,1,0,0:0:0:0:
96,191,73062,1,0,0:0:0:0:
96,186,73088,1,0,0:0:0:0:
97,182,73114,1,0,0:0:0:0:
97,177,73140,1,0,0:0:0:0:
98,172,73166,1,0,0:0:0:0:
98,167,73192,1,0,0:0:0:0:
99,162,73217,1,0,0:0:0:0:
100,157,73243,1,0,0:0:0:0:
101,152,73269,1,0,0:0:0:0:
103,147,73295,1,0,0:0:0:0:
104,142,73321,1,0,0:0:0:0:
106,138,73347,1,0,0:0:0:0:
108,133,73373,1,0,0:0:0:0:
109,128,73400,1,0,0:0:0:0:
111,124,73425,1,0,0:0:0:0:
114,119,73451,1,0,0:0:0:0:
116,115,73477,1,0,0:0:0:0:
119,110,73503,1,0,0:0:0:0:
121,106,73529,1,0,0:0:0:0:
124,102,73555,1,0,0:0:0:0:
127,98,73581,1,0,0:0:0:0:
130,94,73607,1,0,0:0:0:0:
133,90,73632,1,0,0:0:0:0:
136,86,73658,1,0,0:0:0:0:
139,83,73684,1,0,0:0:0:0:
143,79,73710,1,0,0:0:0:0:
147,75,73735,1,0,0:0:0:0:
150,72,73761,1,0,0:0:0:0:
154,69,73787,1,0,0:0:0:0:
158,66,73813,1,0,0:0:0:0:
162,63,73838,1,0,0:0:0:0:
166,60,73864,1,0,0:0:0:0:
170,57,73890,1,0,0:0:0:0:
174,55,73915,1,0,0:0:0:0:
179,52,73941,1,0,0:0:0:0:
183,50,73967,1,0,0:0:0:0:
188,47,73992,1,0,0:0:0:0:
192,45,74018,1,0,0:0:0:0:
197,44,74043,1,0,0:0:0:0:
202,42,74069,1,0,0:0:0:0:
206,40,74094,1,0,0:0:0:0:
211,39,74120,1,0,0:0:0:0:
216,37,74145,1,0,0:0:0:0:
221,36,74171,1,0,0:0:0:0:
226,35,74197,1,0,0:0:0:0:
231,34,74223,1,0,0:0:0:0:
236,34,74248,1,0,0:0:0:0:
241,33,74274,1,0,0:0:0:0:
246,33,74299,1,0,0:0:0:0:
251,32,74325,1,0,0:0:0:0:
256,32,74350,1,0,0:0:0:0:
261,32,74376,1,0,0:0:0:0:
265,33,74401,1,0,0:0:0:0:
270,33,74427,1,0,0:0:0:0:
275,34,74452,1,0,0:0:0:0:
280,34,74477,1,0,0:0:0:0:
285,35,74503,1,0,0:0:0:0:
290,36,74528,1,0,0:0:0:0:
295,37,74554,1,0,0:0:0:0:
300,39,74579,1,0,0:0:0:0:
305,40,74604,1,0,0:0:0:0:
309,42,74630,1,0,0:0:0:0:
314,44,74655,1,0,0:0:0:0:
319,45,74680,1,0,0:0:0:0:
323,47,74706,1,0,0:0:0:0:
328,50,74731,1,0,0:0:0:0:
332,52,74756,1,0,0:0:0:0:
337,55,74782,1,0,0:0:0:0:
341,57,74807,1,0,0:0:0:0:
345,60,74833,1,0,0:0:0:0:
349,63,74858,1,0,0:0:0:0:
353,66,74883,1,0,0:0:0:0:
357,69,74908,1,0,0:0:0:0:
361,72,74934,1,0,0:0:0:0:
364,75,74959,1,0,0:0:0:0:
368,79,74984,1,0,0:0:0:0:
372,83,75009,1,0,0:0:0:0:
375,86,75035,1,0,0:0:0:0:
378,90,75060,1,0,0:0:0:0:
381,94,75085,1,0,0:0:0:0:
384,98,75110,1,0,0:0:0:0:
387,102,75135,1,0,0:0:0:0:
390,106,75160,1,0,0:0:0:0:
392,110,75186,1,0,0:0:0:0:
395,115,75211,1,0,0:0:0:0:
397,119,75236,1,0,0:0:0:0:
400,124,75261,1,0,0:0:0:0:
402,128,75286,1,0,0:0:0:0:
403,133,75311,1,0,0:0:0:0:
405,138,75336,1,0,0:0:0:0:
407,142,75361,1,0,0:0:0:0:
408,147,75386,1,0,0:0:0:0:
410,152,75411,1,0,0:0:0:0:
411,157,75437,1,0,0:0:0:0:
412,162,75462,1,0,0:0:0:0:
413,167,75487,1,0,0:0:0:0:
413,172,75512,1,0,0:0:0:0:
414,177,75537,1,0,0:0:0:0:
414,182,75562,1,0,0:0:0:0:
415,187,75587,1,0,0:0:0:0:
415,192,75612,1,0,0:0:0:0:
415,196,75637,5,0,0:0:0:0:
414,201,75661,1,0,0:0:0:0:
414,206,75686,1,0,0:0:0:0:
413,211,75711,1,0,0:0:0:0:
413,216,75736,1,0,0:0:0:0:
412,221,75761,1,0,0:0:0:0:
411,226,75786,1,0,0:0:0:0:
410,231,75811,1,0,0:0:0:0:
408,236,75836,1,0,0:0:0:0:
407,241,75860,1,0,0:0:0:0:
405,245,75885,1,0,0:0:0:0:
403,250,75910,1,0,0:0:0:0:
402,255,75935,1,0,0:0:0:0:
400,259,75960,1,0,0:0:0:0:
397,264,75985,1,0,0:0:0:0:
395,268,76009,1,0,0:0:0:0:
392,273,76034,1,0,0:0:0:0:
390,277,76059,1,0,0:0:0:0:
387,281,76084,1,0,0:0:0:0:
384,285,76109,1,0,0:0:0:0:
381,289,76134,1,0,0:0:0:0:
378,293,76158,1,0,0:0:0:0:
375,297,76183,1,0,0:0:0:0:
372,300,76208,1,0,0:0:0:0:
368,304,76233,1,0,0:0:0:0:
364,308,76257,1,0,0:0:0:0:
361,311,76282,1,0,0:0:0:0:
357,314,76307,1,0,0:0:0:0:
353,317,76331,1,0,0:0:0:0:
349,320,76356,1,0,0:0:0:0:
345,323,76381,1,0,0:0:0:0:
341,326,76405,1,0,0:0:0:0:
337,328,76430,1,0,0:0:0:0:
332,331,76454,1,0,0:0:0:0:
328,333,76479,1,0,0:0:0:0:
323,336,76503,1,0,0:0:0:0:
319,338,76528,1,0,0:0:0:0:
314,339,76552,1,0,0:0:0:0:
309,341,76577,1,0,0:0:0:0:
305,343,76602,1,0,0:0:0:0:
300,344,76626,1,0,0:0:0:0:
295,346,76651,1,0,0:0:0:0:
290,347,76676,1,0,0:0:0:0:
285,348,76700,1,0,0:0:0:0:
280,349,76725,1,0,0:0:0:0:
275,349,76749,1,0,0:0:0:0:
270,350,76774,1,0,0:0:0:0:
265,350,76798,1,0,0:0:0:0:
260,351,76823,1,0,0:0:0:0:
255,351,76847,1,0,0:0:0:0:
251,351,76871,1,0,0:0:0:0:
246,350,76896,1,0,0:0:0:0:
241,350,76920,1,0,0:0:0:0:
236,349,76945,1,0,0:0:0:0:
231,349,76969,1,0,0:0:0:0:
226,348,76994,1,0,0:0:0:0:
221,347,77018,1,0,0:0:0:0:
216,346,77042,1,0,0:0:0:0:
211,344,77066,1,0,0:0:0:0:
206,343,77091,1,0,0:0:0:0:
202,341,77115,1,0,0:0:0:0:
197,339,77139,1,0,0:0:0:0:
192,338,77164,1,0,0:0:0:0:
188,336,77188,1,0,0:0:0:0:
183,333,77212,1,0,0:0:0:0:
179,331,77237,1,0,0:0:0:0:
174,328,77261,1,0,0:0:0:0:
170,326,77285,1,0,0:0:0:0:
166,323,77310,1,0,0:0:0:0:
162,320,77334,1,0,0:0:0:0:
158,317,77358,1,0,0:0:0:0:
154,314,77382,1,0,0:0:0:0:
150,311,77407,1,0,0:0:0:0:
147,308,77431,1,0,0:0:0:0:
143,304,77455,1,0,0:0:0:0:
139,300,77479,1,0,0:0:0:0:
136,297,77503,1,0,0:0:0:0:
133,293,77527,1,0,0:0:0:0:
130,289,77552,1,0,0:0:0:0:
127,285,77576,1,0,0:0:0:0:
124,281,77600,1,0,0:0:0:0:
121,277,77625,1,0,0:0:0:0:
119,273,77649,1,0,0:0:0:0:
116,268,77673,1,0,0:0:0:0:
114,264,77697,1,0,0:0:0:0:
111,259,77721,1,0,0:0:0:0:
109,255,77745,1,0,0:0:0:0:
108,250,77769,1,0,0:0:0:0:
106,245,77793,1,0,0:0:0:0:
104,241,77818,1,0,0:0:0:0:
103,236,77842,1,0,0:0:0:0:
101,231,77866,1,0,0:0:0:0:
100,226,77890,1,0,0:0:0:0:
99,221,77914,1,0,0:0:0:0:
98,216,77938,1,0,0:0:0:0:
98,211,77962,1,0,0:0:0:0:
97,206,77986,1,0,0:0:0:0:
97,201,78009,1,0,0:0:0:0:
96,196,78033,1,0,0:0:0:0:
96,191,78057,1,0,0:0:0:0:
96,187,78081,1,0,0:0:0:0:
97,182,78105,1,0,0:0:0:0:
97,177,78129,1,0,0:0:0:0:
98,172,78153,1,0,0:0:0:0:
98,167,78177,1,0,0:0:0:0:
99,162,78201,1,0,0:0:0:0:
100,157,78225,1,0,0:0:0:0:
101,152,78249,1,0,0:0:0:0:
103,147,78273,1,0,0:0:0:0:
104,142,78297,1,0,0:0:0:0:
106,138,78321,1,0,0:0:0:0:
108,133,78345,1,0,0:0:0:0:
109,128,78369,1,0,0:0:0:0:
111,124,78392,1,0,0:0:0:0:
114,119,78416,1,0,0:0:0:0:
116,115,78440,1,0,0:0:0:0:
119,110,78464,1,0,0:0:0:0:
121,106,78488,1,0,0:0:0:0:
124,102,78511,1,0,0:0:0:0:
127,98,78535,1,0,0:0:0:0:
130,94,78559,1,0,0:0:0:0:
133,90,78582,1,0,0:0:0:0:
136,86,78606,1,0,0:0:0:0:
139,83,78630,1,0,0:0:0:0:
143,79,78653,1,0,0:0:0:0:
147,75,78677,1,0,0:0:0:0:
150,72,78701,1,0,0:0:0:0:
154,69,78725,1,0,0:0:0:0:
158,66,78749,1,0,0:0:0:0:
162,63,78772,1,0,0:0:0:0:
166,60,78796,1,0,0:0:0:0:
170,57,78819,1,0,0:0:0:0:
174,55,78843,1,0,0:0:0:0:
179,52,78867,1,0,0:0:0:0:
183,50,78890,1,0,0:0:0:0:
188,47,78914,1,0,0:0:0:0:
192,45,78938,1,0,0:0:0:0:
197,44,78961,1,0,0:0:0:0:
202,42,78985,1,0,0:0:0:0:
206,40,79008,1,0,0:0:0:0:
211,39,79032,1,0,0:0:0:0:
216,37,79055,1,0,0:0:0:0:
221,36,79079,1,0,0:0:0:0:
226,35,79103,1,0,0:0:0:0:
231,34,79127,1,0,0:0:0:0:
236,34,79150,1,0,0:0:0:0:
241,33,79174,1,0,0:0:0:0:
246,33,79197,1,0,0:0:0:0:
251,32,79221,1,0,0:0:0:0:
256,32,79244,1,0,0:0:0:0:
260,32,79268,1,0,0:0:0:0:
265,33,79291,1,0,0:0:0:0:
270,33,79315,1,0,0:0:0:0:
275,34,79338,1,0,0:0:0:0:
280,34,79361,1,0,0:0:0:0:
285,35,79385,1,0,0:0:0:0:
290,36,79408,1,0,0:0:0:0:
295,37,79432,1,0,0:0:0:0:
300,39,79455,1,0,0:0:0:0:
305,40,79479,1,0,0:0:0:0:
309,42,79503,1,0,0:0:0:0:
314,44,79526,1,0,0:0:0:0:
319,45,79549,1,0,0:0:0:0:
323,47,79573,1,0,0:0:0:0:
328,50,79596,1,0,0:0:0:0:
332,52,79619,1,0,0:0:0:0:
337,55,79643,1,0,0:0:0:0:
341,57,79666,1,0,0:0:0:0:
345,60,79690,1,0,0:0:0:0:
349,63,79713,1,0,0:0:0:0:
353,66,79736,1,0,0:0:0:0:
357,69,79759,1,0,0:0:0:0:
361,72,79783,1,0,0:0:0:0:
364,75,79806,1,0,0:0:0:0:
368,79,79829,1,0,0:0:0:0:
372,83,79853,1,0,0:0:0:0:
375,86,79876,1,0,0:0:0:0:
378,90,79899,1,0,0:0:0:0:
381,94,79922,1,0,0:0:0:0:
384,98,79945,1,0,0:0:0:0:
387,102,79968,1,0,0:0:0:0:
390,106,79992,1,0,0:0:0:0:
392,110,80015,1,0,0:0:0:0:
395,115,80038,1,0,0:0:0:0:
397,119,80062,1,0,0:0:0:0:
400,124,80085,1,0,0:0:0:0:
402,128,80108,1,0,0:0:0:0:
403,133,80131,1,0,0:0:0:0:
405,138,80154,1,0,0:0:0:0:
407,142,80177,1,0,0:0:0:0:
408,147,80200,1,0,0:0:0:0:
410,152,80224,1,0,0:0:0:0:
411,157,80247,1,0,0:0:0:0:
412,162,80270,1,0,0:0:0:0:
413,167,80293,1,0,0:0:0:0:
413,172,80316,1,0,0:0:0:0:
414,177,80339,1,0,0:0:0:0:
414,182,80362,1,0,0:0:0:0:
415,187,80385,1,0,0:0:0:0:
415,192,80408,1,0,0:0:0:0:
415,197,80432,1,0,0:0:0:0:
414,201,80455,1,0,0:0:0:0:
414,206,80478,1,0,0:0:0:0:
413,211,80501,1,0,0:0:0:0:
413,216,80524,1,0,0:0:0:0:
412,221,80547,1,0,0:0:0:0:
411,226,80570,1,0,0:0:0:0:
410,231,80593,1,0,0:0:0:0:
408,236,80616,1,0,0:0:0:0:
407,241,80638,1,0,0:0:0:0:
405,245,80661,1,0,0:0:0:0:
403,250,80684,1,0,0:0:0:0:
402,255,80707,1,0,0:0:0:0:
400,259,80730,1,0,0:0:0:0:
397,264,80753,1,0,0:0:0:0:
395,268,80776,1,0,0:0:0:0:
392,273,80799,1,0,0:0:0:0:
390,277,80821,1,0,0:0:0:0:
387,281,80844,1,0,0:0:0:0:
384,285,80867,1,0,0:0:0:0:
381,289,80890,1,0,0:0:0:0:
378,293,80913,1,0,0:0:0:0:
375,297,80936,1,0,0:0:0:0:
372,300,80959,1,0,0:0:0:0:
368,304,80982,1,0,0:0:0:0:
364,308,81004,1,0,0:0:0:0:
361,311,81027,1,0,0:0:0:0:
357,314,81050,1,0,0:0:0:0:
353,317,81073,1,0,0:0:0:0:
349,320,81095,1,0,0:0:0:0:
345,323,81118,1,0,0:0:0:0:
341,326,81141,1,0,0:0:0:0:
337,328,81164,1,0,0:0:0:0:
332,331,81186,1,0,0:0:0:0:
328,333,81209,1,0,0:0:0:0:
323,336,81232,1,0,0:0:0:0:
319,338,81254,1,0,0:0:0:0:
314,339,81277,1,0,0:0:0:0:
309,341,81300,1,0,0:0:0:0:
305,343,81323,1,0,0:0:0:0:
300,344,81346,1,0,0:0:0:0:
295,346,81368,1,0,0:0:0:0:
290,347,81391,1,0,0:0:0:0:
285,348,81413,1,0,0:0:0:0:
280,349,81436,1,0,0:0:0:0:
275,349,81459,1,0,0:0:0:0:
270,350,81481,1,0,0:0:0:0:
265,350,81504,1,0,0:0:0:0:
260,351,81527,1,0,0:0:0:0:
255,351,81549,1,0,0:0:0:0:
250,351,81572,1,0,0:0:0:0:
246,350,81594,1,0,0:0:0:0:
241,350,81617,1,0,0:0:0:0:
236,349,81639,1,0,0:0:0:0:
231,349,81662,1,0,0:0:0:0:
226,348,81685,1,0,0:0:0:0:
221,347,81708,1,0,0:0:0:0:
216,346,81730,1,0,0:0:0:0:
211,344,81753,1,0,0:0:0:0:
206,343,81775,1,0,0:0:0:0:
202,341,81798,1,0,0:0:0:0:
197,339,81820,1,0,0:0:0:0:
192,338,81843,1,0,0:0:0:0:
188,336,81865,1,0,0:0:0:0:
183,333,81888,1,0,0:0:0:0:
179,331,81910,1,0,0:0:0:0:
174,328,81932,1,0,0:0:0:0:
170,326,81955,1,0,0:0:0:0:
166,323,81977,1,0,0:0:0:0:
162,320,82000,1,0,0:0:0:0:
158,317,82022,1,0,0:0:0:0:
154,314,82045,1,0,0:0:0:0:
150,311,82068,1,0,0:0:0:0:
147,308,82090,1,0,0:0:0:0:
143,304,82112,1,0,0:0:0:0:
139,300,82135,1,0,0:0:0:0:
136,297,82157,1,0,0:0:0:0:
133,293,82179,1,0,0:0:0:0:
130,289,82202,1,0,0:0:0:0:
127,285,82224,1,0,0:0:0:0:
124,281,82247,1,0,0:0:0:0:
121,277,82269,1,0,0:0:0:0:
119,273,82291,1,0,0:0:0:0:
116,268,82313,1,0,0:0:0:0:
114,264,82336,1,0,0:0:0:0:
111,259,82358,1,0,0:0:0:0:
109,255,82380,1,0,0:0:0:0:
108,250,82403,1,0,0:0:0:0:
106,245,82426,1,0,0:0:0:0:
104,241,82448,1,0,0:0:0:0:
103,236,82470,1,0,0:0:0:0:
101,231,82492,1,0,0:0:0:0:
100,226,82515,1,0,0:0:0:0:
99,221,82537,1,0,0:0:0:0:
98,216,82559,1,0,0:0:0:0:
98,211,82581,1,0,0:0:0:0:
97,206,82604,1,0,0:0:0:0:
97,201,82626,1,0,0:0:0:0:
96,196,82648,1,0,0:0:0:0:
96,191,82670,1,0,0:0:0:0:
96,186,82692,1,0,0:0:0:0:
97,182,82714,1,0,0:0:0:0:
97,177,82737,1,0,0:0:0:0:
98,172,82759,1,0,0:0:0:0:
98,167,82782,1,0,0:0:0:0:
99,162,82804,1,0,0:0:0:0:
100,157,82826,1,0,0:0:0:0:
101,152,82848,1,0,0:0:0:0:
103,147,82870,1,0,0:0:0:0:
104,142,82892,1,0,0:0:0:0:
106,138,82914,1,0,0:0:0:0:
108,133,82936,1,0,0:0:0:0:
109,128,82959,1,0,0:0:0:0:
111,124,82981,1,0,0:0:0:0:
114,119,83003,1,0,0:0:0:0:
116,115,83025,1,0,0:0:0:0:
119,110,83047,1,0,0:0:0:0:
121,106,83069,1,0,0:0:0:0:
124,102,83091,1,0,0:0:0:0:
127,98,83113,1,0,0:0:0:0:
130,94,83135,1,0,0:0:0:0:
133,90,83156,1,0,0:0:0:0:
136,86,83178,1,0,0:0:0:0:
139,83,83200,1,0,0:0:0:0:
143,79,83222,1,0,0:0:0:0:
147,75,83244,1,0,0:0:0:0:
150,72,83266,1,0,0:0:0:0:
154,69,83288,1,0,0:0:0:0:
158,66,83311,1,0,0:0:0:0:
162,63,83332,1,0,0:0:0:0:
166,60,83354,1,0,0:0:0:0:
170,57,83376,1,0,0:0:0:0:
174,55,83398,1,0,0:0:0:0:
179,52,83420,1,0,0:0:0:0:
183,50,83442,1,0,0:0:0:0:
188,47,83464,1,0,0:0:0:0:
192,45,83486,1,0,0:0:0:0:
197,44,83507,1,0,0:0:0:0:
202,42,83529,1,0,0:0:0:0:
206,40,83551,1,0,0:0:0:0:
211,39,83573,1,0,0:0:0:0:
216,37,83595,1,0,0:0:0:0:
221,36,83617,1,0,0:0:0:0:
226,35,83639,1,0,0:0:0:0:
231,34,83661,1,0,0:0:0:0:
236,34,83682,1,0,0:0:0:0:
241,33,83704,1,0,0:0:0:0:
246,33,83726,1,0,0:0:0:0:
251,32,83748,1,0,0:0:0:0:
256,32,83770,1,0,0:0:0:0:
261,32,83791,1,0,0:0:0:0:
265,33,83813,1,0,0:0:0:0:
270,33,83835,1,0,0:0:0:0:
275,34,83856,1,0,0:0:0:0:
280,34,83878,1,0,0:0:0:0:
285,35,83900,1,0,0:0:0:0:
290,36,83921,1,0,0:0:0:0:
295,37,83943,1,0,0:0:0:0:
300,39,83965,1,0,0:0:0:0:
305,40,83987,1,0,0:0:0:0:
309,42,84009,1,0,0:0:0:0:
314,44,84030,1,0,0:0:0:0:
319,45,84052,1,0,0:0:0:0:
323,47,84074,1,0,0:0:0:0:
328,50,84095,1,0,0:0:0:0:
332,52,84117,1,0,0:0:0:0:
337,55,84139,1,0,0:0:0:0:
341,57,84160,1,0,0:0:0:0:
345,60,84182,1,0,0:0:0:0:
349,63,84203,1,0,0:0:0:0:
353,66,84225,1,0,0:0:0:0:
357,69,84246,1,0,0:0:0:0:
361,72,84268,1,0,0:0:0:0:
364,75,84290,1,0,0:0:0:0:
368,79,84311,1,0,0:0:0:0:
372,83,84333,1,0,0:0:0:0:
375,86,84355,1,0,0:0:0:0:
378,90,84376,1,0,0:0:0:0:
381,94,84398,1,0,0:0:0:0:
384,98,84419,1,0,0:0:0:0:
387,102,84441,1,0,0:0:0:0:
390,106,84462,1,0,0:0:0:0:
392,110,84484,1,0,0:0:0:0:
395,115,84505,1,0,0:0:0:0:
397,119,84527,1,0,0:0:0:0:
400,124,84548,1,0,0:0:0:0:
402,128,84569,1,0,0:0:0:0:
403,133,84591,1,0,0:0:0:0:
405,138,84612,1,0,0:0:0:0:
407,142,84634,1,0,0:0:0:0:
408,147,84655,1,0,0:0:0:0:
410,152,84677,1,0,0:0:0:0:
411,157,84699,1,0,0:0:0:0:
412,162,84720,1,0,0:0:0:0:
413,167,84741,1,0,0:0:0:0:
413,172,84763,1,0,0:0:0:0:
414,177,84784,1,0,0:0:0:0:
414,182,84806,1,0,0:0:0:0:
415,187,84827,1,0,0:0:0:0:
415,192,84849,1,0,0:0:0:0:
415,196,84870,1,0,0:0:0:0:
414,201,84891,1,0,0:0:0:0:
414,206,84912,1,0,0:0:0:0:
413,211,84934,1,0,0:0:0:0:
413,216,84955,1,0,0:0:0:0:
412,221,84976,1,0,0:0:0:0:
411,226,84998,1,0,0:0:0:0:
410,231,85019,1,0,0:0:0:0:
408,236,85040,1,0,0:0:0:0:
407,241,85062,1,0,0:0:0:0:
405,245,85083,1,0,0:0:0:0:
403,250,85104,1,0,0:0:0:0:
402,255,85126,1,0,0:0:0:0:
400,259,85147,1,0,0:0:0:0:
397,264,85168,1,0,0:0:0:0:
395,268,85190,1,0,0:0:0:0:
392,273,85211,1,0,0:0:0:0:
390,277,85232,1,0,0:0:0:0:
387,281,85253,1,0,0:0:0:0:
384,285,85274,1,0,0:0:0:0:
381,289,85295,1,0,0:0:0:0:
378,293,85317,1,0,0:0:0:0:
375,297,85338,1,0,0:0:0:0:
372,300,85359,1,0,0:0:0:0:
368,304,85380,1,0,0:0:0:0:
364,308,85402,1,0,0:0:0:0:
361,311,85423,1,0,0:0:0:0:
357,314,85444,1,0,0:0:0:0:
353,317,85465,1,0,0:0:0:0:
349,320,85486,1,0,0:0:0:0:
345,323,85508,1,0,0:0:0:0:
341,326,85529,1,0,0:0:0:0:
337,328,85550,1,0,0:0:0:0:
332,331,85571,1,0,0:0:0:0:
328,333,85592,1,0,0:0:0:0:
323,336,85613,1,0,0:0:0:0:
319,338,85634,1,0,0:0:0:0:
314,339,85655,1,0,0:0:0:0:
309,341,85676,1,0,0:0:0:0:
305,343,85697,1,0,0:0:0:0:
300,344,85719,1,0,0:0:0:0:
295,346,85740,1,0,0:0:0:0:
290,347,85761,1,0,0:0:0:0:
285,348,85782,1,0,0:0:0:0:
280,349,85803,1,0,0:0:0:0:
275,349,85824,1,0,0:0:0:0:
270,350,85845,1,0,0:0:0:0:
265,350,85866,1,0,0:0:0:0:
260,351,85887,1,0,0:0:0:0:
255,351,85909,1,0,0:0:0:0:
251,351,85930,1,0,0:0:0:0:
246,350,85951,1,0,0:0:0:0:
241,350,85972,1,0,0:0:0:0:
236,349,85993,1,0,0:0:0:0:
231,349,86014,1,0,0:0:0:0:
226,348,86035,1,0,0:0:0:0:
221,347,86056,1,0,0:0:0:0:
216,346,86076,1,0,0:0:0:0:
211,344,86097,1,0,0:0:0:0:
206,343,86118,1,0,0:0:0:0:
202,341,86139,1,0,0:0:0:0:
197,339,86160,1,0,0:0:0:0:
192,338,86181,1,0,0:0:0:0:
188,336,86202,1,0,0:0:0:0:
183,333,86223,1,0,0:0:0:0:
179,331,86244,1,0,0:0:0:0:
174,328,86265,1,0,0:0:0:0:
170,326,86286,1,0,0:0:0:0:
166,323,86307,1,0,0:0:0:0:
162,320,86328,1,0,0:0:0:0:
158,317,86349,1,0,0:0:0:0:
154,314,86370,1,0,0:0:0:0:
150,311,86391,1,0,0:0:0:0:
147,308,86411,1,0,0:0:0:0:
143,304,86432,1,0,0:0:0:0:
139,300,86453,1,0,0:0:0:0:
136,297,86474,1,0,0:0:0:0:
133,293,86495,1,0,0:0:0:0:
130,289,86516,1,0,0:0:0:0:
127,285,86536,1,0,0:0:0:0:
124,281,86557,1,0,0:0:0:0:
121,277,86578,1,0,0:0:0:0:
119,273,86599,1,0,0:0:0:0:
116,268,86620,1,0,0:0:0:0:
114,264,86641,1,0,0:0:0:0:
111,259,86661,1,0,0:0:0:0:
109,255,86682,1,0,0:0:0:0:
108,250,86703,1,0,0:0:0:0:
106,245,86724,1,0,0:0:0:0:
104,241,86744,1,0,0:0:0:0:
103,236,86765,1,0,0:0:0:0:
101,231,86786,1,0,0:0:0:0:
100,226,86806,1,0,0:0:0:0:
99,221,86827,1,0,0:0:0:0:
98,216,86848,1,0,0:0:0:0:
98,211,86869,1,0,0:0:0:0:
97,206,86890,1,0,0:0:0:0:
97,201,86910,1,0,0:0:0:0:
96,196,86931,1,0,0:0:0:0:
96,191,86951,1,0,0:0:0:0:
96,187,86972,1,0,0:0:0:0:
97,182,86993,1,0,0:0:0:0:
97,177,87013,1,0,0:0:0:0:
98,172,87034,1,0,0:0:0:0:
98,167,87055,1,0,0:0:0:0:
99,162,87075,1,0,0:0:0:0:
100,157,87096,1,0,0:0:0:0:
101,152,87116,1,0,0:0:0:0:
103,147,87137,1,0,0:0:0:0:
104,142,87158,1,0,0:0:0:0:
106,138,87178,1,0,0:0:0:0:
108,133,87199,1,0,0:0:0:0:
109,128,87220,1,0,0:0:0:0:
111,124,87240,1,0,0:0:0:0:
114,119,87261,1,0,0:0:0:0:
116,115,87281,1,0,0:0:0:0:
119,110,87302,1,0,0:0:0:0:
121,106,87322,1,0,0:0:0:0:
124,102,87343,1,0,0:0:0:0:
127,98,87363,1,0,0:0:0:0:
130,94,87384,1,0,0:0:0:0:
133,90,87404,1,0,0:0:0:0:
136,86,87424,1,0,0:0:0:0:
139,83,87445,1,0,0:0:0:0:
143,79,87465,1,0,0:0:0:0:
147,75,87486,1,0,0:0:0:0:
150,72,87506,1,0,0:0:0:0:
154,69,87527,1,0,0:0:0:0:
158,66,87548,1,0,0:0:0:0:
162,63,87568,1,0,0:0:0:0:
166,60,87588,1,0,0:0:0:0:
170,57,87609,1,0,0:0:0:0:
174,55,87629,1,0,0:0:0:0:
179,52,87650,1,0,0:0:0:0:
183,50,87670,1,0,0:0:0:0:
188,47,87691,1,0,0:0:0:0:
192,45,87711,1,0,0:0:0:0:
197,44,87731,1,0,0:0:0:0:
202,42,87751,1,0,0:0:0:0:
206,40,87772,1,0,0:0:0:0:
211,39,87792,1,0,0:0:0:0:
216,37,87812,1,0,0:0:0:0:
221,36,87833,1,0,0:0:0:0:
226,35,87853,1,0,0:0:0:0:
231,34,87874,1,0,0:0:0:0:
236,34,87894,1,0,0:0:0:0:
241,33,87914,1,0,0:0:0:0:
246,33,87934,1,0,0:0:0:0:
251,32,87955,1,0,0:0:0:0:
256,32,87975,1,0,0:0:0:0:
260,32,87995,1,0,0:0:0:0:
265,33,88016,1,0,0:0:0:0:
270,33,88037,1,0,0:0:0:0:
275,34,88057,1,0,0:0:0:0:
280,34,88077,1,0,0:0:0:0:
285,35,88097,1,0,0:0:0:0:
290,36,88118,1,0,0:0:0:0:
295,37,88138,1,0,0:0:0:0:
300,39,88158,1,0,0:0:0:0:
305,40,88178,1,0,0:0:0:0:
309,42,88199,1,0,0:0:0:0:
314,44,88219,1,0,0:0:0:0:
319,45,88239,1,0,0:0:0:0:
323,47,88259,1,0,0:0:0:0:
328,50,88279,1,0,0:0:0:0:
332,52,88300,1,0,0:0:0:0:
337,55,88320,1,0,0:0:0:0:
341,57,88340,1,0,0:0:0:0:
345,60,88361,1,0,0:0:0:0:
349,63,88381,1,0,0:0:0:0:
353,66,88401,1,0,0:0:0:0:
357,69,88421,1,0,0:0:0:0:
361,72,88441,1,0,0:0:0:0:
364,75,88461,1,0,0:0:0:0:
368,79,88481,1,0,0:0:0:0:
372,83,88502,1,0,0:0:0:0:
375,86,88522,1,0,0:0:0:0:
378,90,88542,1,0,0:0:0:0:
381,94,88562,1,0,0:0:0:0:
384,98,88582,1,0,0:0:0:0:
387,102,88602,1,0,0:0:0:0:
390,106,88622,1,0,0:0:0:0:
392,110,88642,1,0,0:0:0:0:
395,115,88662,1,0,0:0:0:0:
397,119,88683,1,0,0:0:0:0:
400,124,88703,1,0,0:0:0:0:
402,128,88723,1,0,0:0:0:0:
403,133,88743,1,0,0:0:0:0:
405,138,88763,1,0,0:0:0:0:
407,142,88783,1,0,0:0:0:0:
408,147,88803,1,0,0:0:0:0:
410,152,88823,1,0,0:0:0:0:
411,157,88843,1,0,0:0:0:0:
412,162,88863,1,0,0:0:0:0:
413,167,88883,1,0,0:0:0:0:
413,172,88903,1,0,0:0:0:0:
414,177,88923,1,0,0:0:0:0:
414,182,88943,1,0,0:0:0:0:
415,187,88963,1,0,0:0:0:0:
415,192,88983,1,0,0:0:0:0:
415,197,89003,1,0,0:0:0:0:
414,201,89022,1,0,0:0:0:0:
414,206,89042,1,0,0:0:0:0:
413,211,89062,1,0,0:0:0:0:
413,216,89082,1,0,0:0:0:0:
412,221,89102,1,0,0:0:0:0:
411,226,89122,1,0,0:0:0:0:
410,231,89142,1,0,0:0:0:0:
408,236,89163,1,0,0:0:0:0:
407,241,89182,1,0,0:0:0:0:
405,245,89202,1,0,0:0:0:0:
403,250,89222,1,0,0:0:0:0:
402,255,89242,1,0,0:0:0:0:
400,259,89262,1,0,0:0:0:0:
397,264,89282,1,0,0:0:0:0:
395,268,89302,1,0,0:0:0:0:
392,273,89322,1,0,0:0:0:0:
390,277,89341,1,0,0:0:0:0:
387,281,89361,1,0,0:0:0:0:
384,285,89381,1,0,0:0:0:0:
381,289,89401,1,0,0:0:0:0:
378,293,89421,1,0,0:0:0:0:
375,297,89441,1,0,0:0:0:0:
372,300,89460,1,0,0:0:0:0:
368,304,89481,1,0,0:0:0:0:
364,308,89500,1,0,0:0:0:0:
361,311,89520,1,0,0:0:0:0:
357,314,89540,1,0,0:0:0:0:
353,317,89560,1,0,0:0:0:0:
349,320,89579,1,0,0:0:0:0:
345,323,89599,1,0,0:0:0:0:
341,326,89619,1,0,0:0:0:0:
337,328,89639,1,0,0:0:0:0:
332,331,89658,1,0,0:0:0:0:
328,333,89678,1,0,0:0:0:0:
323,336,89698,1,0,0:0:0:0:
319,338,89717,1,0,0:0:0:0:
314,339,89737,1,0,0:0:0:0:
309,341,89757,1,0,0:0:0:0:
305,343,89777,1,0,0:0:0:0:
300,344,89797,1,0,0:0:0:0:
295,346,89816,1,0,0:0:0:0:
290,347,89836,1,0,0:0:0:0:
285,348,89856,1,0,0:0:0:0:
280,349,89875,1,0,0:0:0:0:
275,349,89895,1,0,0:0:0:0:
270,350,89915,1,0,0:0:0:0:
265,350,89934,1,0,0:0:0:0:
260,351,89954,1,0,0:0:0:0:
255,351,89973,1,0,0:0:0:0:
250,351,89993,1,0,0:0:0:0:
246,350,90012,1,0,0:0:0:0:
241,350,90032,1,0,0:0:0:0:
236,349,90052,1,0,0:0:0:0:
231,349,90071,1,0,0:0:0:0:
226,348,90091,1,0,0:0:0:0:
221,347,90111,1,0,0:0:0:0:
216,346,90130,1,0,0:0:0:0:
211,344,90150,1,0,0:0:0:0:
206,343,90169,1,0,0:0:0:0:
202,341,90189,1,0,0:0:0:0:
197,339,90208,1,0,0:0:0:0:
192,338,90228,1,0,0:0:0:0:
188,336,90248,1,0,0:0:0:0:
183,333,90268,1,0,0:0:0:0:
179,331,90287,1,0,0:0:0:0:
174,328,90307,1,0,0:0:0:0:
170,326,90326,1,0,0:0:0:0:
166,323,90346,1,0,0:0:0:0:
162,320,90365,1,0,0:0:0:0:
158,317,90385,1,0,0:0:0:0:
154,314,90404,1,0,0:0:0:0:
150,311,90424,1,0,0:0:0:0:
147,308,90443,1,0,0:0:0:0:
143,304,90462,1,0,0:0:0:0:
139,300,90482,1,0,0:0:0:0:
136,297,90501,1,0,0:0:0:0:
133,293,90521,1,0,0:0:0:0:
130,289,90540,1,0,0:0:0:0:
127,285,90560,1,0,0:0:0:0:
124,281,90580,1,0,0:0:0:0:
121,277,90599,1,0,0:0:0:0:
119,273,90618,1,0,0:0:0:0:
116,268,90638,1,0,0:0:0:0:
114,264,90657,1,0,0:0:0:0:
111,259,90677,1,0,0:0:0:0:
109,255,90696,1,0,0:0:0:0:
108,250,90716,1,0,0:0:0:0:
106,245,90735,1,0,0:0:0:0:
104,241,90754,1,0,0:0:0:0:
103,236,90773,1,0,0:0:0:0:
101,231,90793,1,0,0:0:0:0:
100,226,90812,1,0,0:0:0:0:
99,221,90831,1,0,0:0:0:0:
98,216,90851,1,0,0:0:0:0:
98,211,90870,1,0,0:0:0:0:
97,206,90890,1,0,0:0:0:0:
97,201,90909,1,0,0:0:0:0:
96,196,90928,1,0,0:0:0:0:
96,191,90947,1,0,0:0:0:0:
96,186,90967,1,0,0:0:0:0:
97,182,90986,1,0,0:0:0:0:
97,177,91005,1,0,0:0:0:0:
98,172,91025,1,0,0:0:0:0:
98,167,91045,1,0,0:0:0:0:
99,162,91064,1,0,0:0:0:0:
100,157,91083,1,0,0:0:0:0:
101,152,91102,1,0,0:0:0:0:
103,147,91122,1,0,0:0:0:0:
104,142,91141,1,0,0:0:0:0:
106,138,91160,1,0,0:0:0:0:
108,133,91179,1,0,0:0:0:0:
109,128,91199,1,0,0:0:0:0:
111,124,91218,1,0,0:0:0:0:
114,119,91237,1,0,0:0:0:0:
116,115,91256,1,0,0:0:0:0:
119,110,91275,1,0,0:0:0:0:
121,106,91295,1,0,0:0:0:0:
124,102,91314,1,0,0:0:0:0:
127,98,91333,1,0,0:0:0:0:
130,94,91353,1,0,0:0:0:0:
133,90,91372,1,0,0:0:0:0:
136,86,91391,1,0,0:0:0:0:
139,83,91410,1,0,0:0:0:0:
143,79,91429,1,0,0:0:0:0:
147,75,91448,1,0,0:0:0:0:
150,72,91468,1,0,0:0:0:0:
154,69,91487,1,0,0:0:0:0:
158,66,91506,1,0,0:0:0:0:
162,63,91525,1,0,0:0:0:0:
166,60,91544,1,0,0:0:0:0:
170,57,91563,1,0,0:0:0:0:
174,55,91582,1,0,0:0:0:0:
179,52,91601,1,0,0:0:0:0:
183,50,91620,1,0,0:0:0:0:
188,47,91639,1,0,0:0:0:0:
192,45,91659,1,0,0:0:0:0:
197,44,91678,1,0,0:0:0:0:
202,42,91697,1,0,0:0:0:0:
206,40,91716,1,0,0:0:0:0:
211,39,91735,1,0,0:0:0:0:
216,37,91754,1,0,0:0:0:0:
221,36,91773,1,0,0:0:0:0:
226,35,91792,1,0,0:0:0:0:
231,34,91812,1,0,0:0:0:0:
236,34,91831,1,0,0:0:0:0:
241,33,91850,1,0,0:0:0:0:
246,33,91869,1,0,0:0:0:0:
251,32,91888,1,0,0:0:0:0:
256,32,91907,1,0,0:0:0:0:
261,32,91926,1,0,0:0:0:0:
265,33,91945,1,0,0:0:0:0:
270,33,91964,1,0,0:0:0:0:
275,34,91982,1,0,0:0:0:0:
280,34,92001,1,0,0:0:0:0:
285,35,92020,1,0,0:0:0:0:
290,36,92039,1,0,0:0:0:0:
295,37,92058,1,0,0:0:0:0:
300,39,92077,1,0,0:0:0:0:
305,40,92096,1,0,0:0:0:0:
309,42,92116,1,0,0:0:0:0:
314,44,92134,1,0,0:0:0:0:
319,45,92153,1,0,0:0:0:0:
323,47,92172,1,0,0:0:0:0:
328,50,92191,1,0,0:0:0:0:
332,52,92210,1,0,0:0:0:0:
337,55,92229,1,0,0:0:0:0:
341,57,92248,1,0,0:0:0:0:
345,60,92268,1,0,0:0:0:0:
349,63,92286,1,0,0:0:0:0:
353,66,92305,1,0,0:0:0:0:
357,69,92324,1,0,0:0:0:0:
361,72,92343,1,0,0:0:0:0:
364,75,92362,1,0,0:0:0:0:
368,79,92381,1,0,0:0:0:0:
372,83,92400,1,0,0:0:0:0:
375,86,92419,1,0,0:0:0:0:
378,90,92437,1,0,0:0:0:0:
381,94,92456,1,0,0:0:0:0:
384,98,92475,1,0,0:0:0:0:
387,102,92494,1,0,0:0:0:0:
390,106,92513,1,0,0:0:0:0:
392,110,92532,1,0,0:0:0:0:
395,115,92550,1,0,0:0:0:0:
397,119,92570,1,0,0:0:0:0:
400,124,92588,1,0,0:0:0:0:
402,128,92607,1,0,0:0:0:0:
403,133,92626,1,0,0:0:0:0:
405,138,92645,1,0,0:0:0:0:
407,142,92663,1,0,0:0:0:0:
408,147,92682,1,0,0:0:0:0:
410,152,92701,1,0,0:0:0:0:
411,157,92720,1,0,0:0:0:0:
412,162,92738,1,0,0:0:0:0:
413,167,92757,1,0,0:0:0:0:
413,172,92776,1,0,0:0:0:0:
414,177,92795,1,0,0:0:0:0:
414,182,92813,1,0,0:0:0:0:
415,187,92832,1,0,0:0:0:0:
415,192,92851,1,0,0:0:0:0:
415,196,92870,5,0,0:0:0:0:
414,201,92888,1,0,0:0:0:0:
414,206,92907,1,0,0:0:0:0:
413,211,92926,1,0,0:0:0:0:
413,216,92944,1,0,0:0:0:0:
412,221,92963,1,0,0:0:0:0:
411,226,92982,1,0,0:0:0:0:
410,231,93000,1,0,0:0:0:0:
408,236,93019,1,0,0:0:0:0:
407,241,93038,1,0,0:0:0:0:
405,245,93057,1,0,0:0:0:0:
403,250,93075,1,0,0:0:0:0:
402,255,93094,1,0,0:0:0:0:
400,259,93113,1,0,0:0:0:0:
397,264,93131,1,0,0:0:0:0:
395,268,93150,1,0,0:0:0:0:
392,273,93169,1,0,0:0:0:0:
390,277,93187,1,0,0:0:0:0:
387,281,93206,1,0,0:0:0:0:
384,285,93224,1,0,0:0:0:0:
381,289,93243,1,0,0:0:0:0:
378,293,93262,1,0,0:0:0:0:
375,297,93280,1,0,0:0:0:0:
372,300,93299,1,0,0:0:0:0:
368,304,93317,1,0,0:0:0:0:
364,308,93336,1,0,0:0:0:0:
361,311,93355,1,0,0:0:0:0:
357,314,93373,1,0,0:0:0:0:
353,317,93392,1,0,0:0:0:0:
349,320,93410,1,0,0:0:0:0:
345,323,93429,1,0,0:0:0:0:
341,326,93447,1,0,0:0:0:0:
337,328,93466,1,0,0:0:0:0:
332,331,93485,1,0,0:0:0:0:
328,333,93504,1,0,0:0:0:0:
323,336,93522,1,0,0:0:0:0:
319,338,93541,1,0,0:0:0:0:
314,339,93559,1,0,0:0:0:0:
309,341,93578,1,0,0:0:0:0:
305,343,93596,1,0,0:0:0:0:
300,344,93615,1,0,0:0:0:0:
295,346,93633,1,0,0:0:0:0:
290,347,93651,1,0,0:0:0:0:
285,348,93670,1,0,0:0:0:0:
280,349,93688,1,0,0:0:0:0:
275,349,93707,1,0,0:0:0:0:
270,350,93725,1,0,0:0:0:0:
265,350,93744,1,0,0:0:0:0:
260,351,93762,1,0,0:0:0:0:
255,351,93781,1,0,0:0:0:0:
251,351,93799,1,0,0:0:0:0:
246,350,93818,1,0,0:0:0:0:
241,350,93836,1,0,0:0:0:0:
236,349,93855,1,0,0:0:0:0:
231,349,93873,1,0,0:0:0:0:
226,348,93891,1,0,0:0:0:0:
221,347,93910,1,0,0:0:0:0:
216,346,93928,1,0,0:0:0:0:
211,344,93946,1,0,0:0:0:0:
206,343,93965,1,0,0:0:0:0:
202,341,93983,1,0,0:0:0:0:
197,339,94001,1,0,0:0:0:0:
192,338,94020,1,0,0:0:0:0:
188,336,94038,1,0,0:0:0:0:
183,333,94057,1,0,0:0:0:0:
179,331,94075,1,0,0:0:0:0:
174,328,94093,1,0,0:0:0:0:
170,326,94112,1,0,0:0:0:0:
166,323,94130,1,0,0:0:0:0:
162,320,94148,1,0,0:0:0:0:
158,317,94167,1,0,0:0:0:0:
154,314,94185,1,0,0:0:0:0:
150,311,94203,1,0,0:0:0:0:
147,308,94222,1,0,0:0:0:0:
143,304,94240,1,0,0:0:0:0:
139,300,94258,1,0,0:0:0:0:
136,297,94277,1,0,0:0:0:0:
133,293,94295,1,0,0:0:0:0:
130,289,94313,1,0,0:0:0:0:
127,285,94332,1,0,0:0:0:0:
124,281,94350,1,0,0:0:0:0:
121,277,94368,1,0,0:0:0:0:
119,273,94386,1,0,0:0:0:0:
116,268,94404,1,0,0:0:0:0:
114,264,94422,1,0,0:0:0:0:
111,259,94441,1,0,0:0:0:0:
109,255,94459,1,0,0:0:0:0:
108,250,94477,1,0,0:0:0:0:
106,245,94495,1,0,0:0:0:0:
104,241,94514,1,0,0:0:0:0:
103,236,94532,1,0,0:0:0:0:
101,231,94550,1,0,0:0:0:0:
100,226,94568,1,0,0:0:0:0:
99,221,94587,1,0,0:0:0:0:
98,216,94605,1,0,0:0:0:0:
98,211,94623,1,0,0:0:0:0:
97,206,94641,1,0,0:0:0:0:
97,201,94660,1,0,0:0:0:0:
96,196,94678,1,0,0:0:0:0:
96,191,94696,1,0,0:0:0:0:
96,187,94714,1,0,0:0:0:0:
97,182,94732,1,0,0:0:0:0:
97,177,94750,1,0,0:0:0:0:
98,172,94769,1,0,0:0:0:0:
98,167,94787,1,0,0:0:0:0:
99,162,94805,1,0,0:0:0:0:
100,157,94823,1,0,0:0:0:0:
101,152,94841,1,0,0:0:0:0:
103,147,94859,1,0,0:0:0:0:
104,142,94877,1,0,0:0:0:0:
106,138,94895,1,0,0:0:0:0:
108,133,94913,1,0,0:0:0:0:
109,128,94931,1,0,0:0:0:0:
111,124,94950,1,0,0:0:0:0:
114,119,94968,1,0,0:0:0:0:
116,115,94986,1,0,0:0:0:0:
119,110,95004,1,0,0:0:0:0:
121,106,95022,1,0,0:0:0:0:
124,102,95040,1,0,0:0:0:0:
127,98,95058,1,0,0:0:0:0:
130,94,95076,1,0,0:0:0:0:
133,90,95095,1,0,0:0:0:0:
136,86,95113,1,0,0:0:0:0:
139,83,95131,1,0,0:0:0:0:
143,79,95149,1,0,0:0:0:0:
147,75,95167,1,0,0:0:0:0:
150,72,95185,1,0,0:0:0:0:
154,69,95203,1,0,0:0:0:0:
158,66,95221,1,0,0:0:0:0:
162,63,95238,1,0,0:0:0:0:
166,60,95256,1,0,0:0:0:0:
170,57,95274,1,0,0:0:0:0:
174,55,95292,1,0,0:0:0:0:
179,52,95310,1,0,0:0:0:0:
183,50,95328,1,0,0:0:0:0:
188,47,95346,1,0,0:0:0:0:
192,45,95364,1,0,0:0:0:0:
197,44,95382,1,0,0:0:0:0:
202,42,95400,1,0,0:0:0:0:
206,40,95418,1,0,0:0:0:0:
211,39,95436,1,0,0:0:0:0:
216,37,95454,1,0,0:0:0:0:
221,36,95472,1,0,0:0:0:0:
226,35,95490,1,0,0:0:0:0:
231,34,95508,1,0,0:0:0:0:
236,34,95526,1,0,0:0:0:0:
241,33,95544,1,0,0:0:0:0:
246,33,95562,1,0,0:0:0:0:
251,32,95580,1,0,0:0:0:0:
256,32,95598,1,0,0:0:0:0:
260,32,95616,1,0,0:0:0:0:
265,33,95634,1,0,0:0:0:0:
270,33,95652,1,0,0:0:0:0:
275,34,95669,1,0,0:0:0:0:
280,34,95687,1,0,0:0:0:0:
285,35,95705,1,0,0:0:0:0:
290,36,95723,1,0,0:0:0:0:
295,37,95741,1,0,0:0:0:0:
300,39,95759,1,0,0:0:0:0:
305,40,95777,1,0,0:0:0:0:
309,42,95795,1,0,0:0:0:0:
314,44,95812,1,0,0:0:0:0:
319,45,95830,1,0,0:0:0:0:
323,47,95848,1,0,0:0:0:0:
328,50,95866,1,0,0:0:0:0:
332,52,95884,1,0,0:0:0:0:
337,55,95901,1,0,0:0:0:0:
341,57,95919,1,0,0:0:0:0:
345,60,95937,1,0,0:0:0:0:
349,63,95955,1,0,0:0:0:0:
353,66,95973,1,0,0:0:0:0:
357,69,95991,1,0,0:0:0:0:
361,72,96009,1,0,0:0:0:0:
364,75,96026,1,0,0:0:0:0:
368,79,96044,1,0,0:0:0:0:
372,83,96062,1,0,0:0:0:0:
375,86,96080,1,0,0:0:0:0:
378,90,96097,1,0,0:0:0:0:
381,94,96115,1,0,0:0:0:0:
384,98,96133,1,0,0:0:0:0:
387,102,96150,1,0,0:0:0:0:
390,106,96168,1,0,0:0:0:0:
392,110,96186,1,0,0:0:0:0:
395,115,96204,1,0,0:0:0:0:
397,119,96222,1,0,0:0:0:0:
400,124,96239,1,0,0:0:0:0:
402,128,96257,1,0,0:0:0:0:
403,133,96275,1,0,0:0:0:0:
405,138,96292,1,0,0:0:0:0:
407,142,96310,1,0,0:0:0:0:
408,147,96328,1,0,0:0:0:0:
410,152,96345,1,0,0:0:0:0:
411,157,96363,1,0,0:0:0:0:
412,162,96381,1,0,0:0:0:0:
413,167,96399,1,0,0:0:0:0:
413,172,96416,1,0,0:0:0:0:
414,177,96434,1,0,0:0:0:0:
414,182,96452,1,0,0:0:0:0:
415,187,96469,1,0,0:0:0:0:
415,192,96487,1,0,0:0:0:0:
415,197,96505,1,0,0:0:0:0:
414,201,96522,1,0,0:0:0:0:
414,206,96540,1,0,0:0:0:0:
413,211,96557,1,0,0:0:0:0:
413,216,96575,1,0,0:0:0:0:
412,221,96593,1,0,0:0:0:0:
411,226,96610,1,0,0:0:0:0:
410,231,96628,1,0,0:0:0:0:
408,236,96646,1,0,0:0:0:0:
407,241,96663,1,0,0:0:0:0:
405,245,96681,1,0,0:0:0:0:
403,250,96698,1,0,0:0:0:0:
402,255,96716,1,0,0:0:0:0:
400,259,96733,1,0,0:0:0:0:
397,264,96751,1,0,0:0:0:0:
395,268,96768,1,0,0:0:0:0:
392,273,96786,1,0,0:0:0:0:
390,277,96804,1,0,0:0:0:0:
387,281,96822,1,0,0:0:0:0:
384,285,96839,1,0,0:0:0:0:
381,289,96857,1,0,0:0:0:0:
378,293,96874,1,0,0:0:0:0:
375,297,96892,1,0,0:0:0:0:
372,300,96909,1,0,0:0:0:0:
368,304,96927,1,0,0:0:0:0:
364,308,96944,1,0,0:0:0:0:
361,311,96961,1,0,0:0:0:0:
357,314,96979,1,0,0:0:0:0:
353,317,96996,1,0,0:0:0:0:
349,320,97014,1,0,0:0:0:0:
345,323,97031,1,0,0:0:0:0:
341,326,97049,1,0,0:0:0:0:
337,328,97067,1,0,0:0:0:0:
332,331,97084,1,0,0:0:0:0:
328,333,97101,1,0,0:0:0:0:
323,336,97119,1,0,0:0:0:0:
319,338,97136,1,0,0:0:0:0:
314,339,97154,1,0,0:0:0:0:
309,341,97171,1,0,0:0:0:0:
305,343,97189,1,0,0:0:0:0:
300,344,97207,1,0,0:0:0:0:
295,346,97224,1,0,0:0:0:0:
290,347,97241,1,0,0:0:0:0:
285,348,97259,1,0,0:0:0:0:
280,349,97276,1,0,0:0:0:0:
275,349,97294,1,0,0:0:0:0:
270,350,97311,1,0,0:0:0:0:
265,350,97328,1,0,0:0:0:0:
260,351,97346,1,0,0:0:0:0:
255,351,97363,1,0,0:0:0:0:
250,351,97380,1,0,0:0:0:0:
246,350,97398,1,0,0:0:0:0:
241,350,97415,1,0,0:0:0:0:
236,349,97432,1,0,0:0:0:0:
231,349,97450,1,0,0:0:0:0:
226,348,97467,1,0,0:0:0:0:
221,347,97485,1,0,0:0:0:0:
216,346,97502,1,0,0:0:0:0:
211,344,97519,1,0,0:0:0:0:
206,343,97536,1,0,0:0:0:0:
202,341,97554,1,0,0:0:0:0:
197,339,97571,1,0,0:0:0:0:
192,338,97588,1,0,0:0:0:0:
188,336,97606,1,0,0:0:0:0:
183,333,97624,1,0,0:0:0:0:
179,331,97641,1,0,0:0:0:0:
174,328,97658,1,0,0:0:0:0:
170,326,97675,1,0,0:0:0:0:
166,323,97693,1,0,0:0:0:0:
162,320,97710,1,0,0:0:0:0:
158,317,97727,1,0,0:0:0:0:
154,314,97744,1,0,0:0:0:0:
150,311,97762,1,0,0:0:0:0:
147,308,97779,1,0,0:0:0:0:
143,304,97796,1,0,0:0:0:0:
139,300,97813,1,0,0:0:0:0:
136,297,97830,1,0,0:0:0:0:
133,293,97848,1,0,0:0:0:0:
130,289,97865,1,0,0:0:0:0:
127,285,97882,1,0,0:0:0:0:
124,281,97900,1,0,0:0:0:0:
121,277,97917,1,0,0:0:0:0:
119,273,97934,1,0,0:0:0:0:
116,268,97951,1,0,0:0:0:0:
114,264,97968,1,0,0:0:0:0:
111,259,97986,1,0,0:0:0:0:
109,255,98003,1,0,0:0:0:0:
108,250,98020,1,0,0:0:0:0:
106,245,98038,1,0,0:0:0:0:
104,241,98055,1,0,0:0:0:0:
103,236,98072,1,0,0:0:0:0:
101,231,98089,1,0,0:0:0:0:
100,226,98106,1,0,0:0:0:0:
99,221,98123,1,0,0:0:0:0:
98,216,98140,1,0,0:0:0:0:
98,211,98158,1,0,0:0:0:0:
97,206,98175,1,0,0:0:0:0:
97,201,98192,1,0,0:0:0:0:
96,196,98209,1,0,0:0:0:0:
96,191,98226,1,0,0:0:0:0:
96,186,98243,1,0,0:0:0:0:
97,182,98260,1,0,0:0:0:0:
97,177,98277,1,0,0:0:0:0:
98,172,98294,1,0,0:0:0:0:
98,167,98312,1,0,0:0:0:0:
99,162,98329,1,0,0:0:0:0:
100,157,98346,1,0,0:0:0:0:
101,152,98363,1,0,0:0:0:0:
103,147,98380,1,0,0:0:0:0:
104,142,98397,1,0,0:0:0:0:
106,138,98414,1,0,0:0:0:0:
108,133,98431,1,0,0:0:0:0:
109,128,98449,1,0,0:0:0:0:
111,124,98466,1,0,0:0:0:0:
114,119,98483,1,0,0:0:0:0:
116,115,98500,1,0,0:0:0:0:
119,110,98517,1,0,0:0:0:0:
121,106,98534,1,0,0:0:0:0:
124,102,98551,1,0,0:0:0:0:
127,98,98568,1,0,0:0:0:0:
130,94,98585,1,0,0:0:0:0:
133,90,98602,1,0,0:0:0:0:
136,86,98619,1,0,0:0:0:0:
139,83,98636,1,0,0:0:0:0:
143,79,98653,1,0,0:0:0:0:
147,75,98670,1,0,0:0:0:0:
150,72,98687,1,0,0:0:0:0:
154,69,98704,1,0,0:0:0:0:
158,66,98721,1,0,0:0:0:0:
162,63,98737,1,0,0:0:0:0:
166,60,98754,1,0,0:0:0:0:
170,57,98771,1,0,0:0:0:0:
174,55,98788,1,0,0:0:0:0:
179,52,98805,1,0,0:0:0:0:
183,50,98822,1,0,0:0:0:0:
188,47,98839,1,0,0:0:0:0:
192,45,98857,1,0,0:0:0:0:
197,44,98873,1,0,0:0:0:0:
202,42,98890,1,0,0:0:0:0:
206,40,98907,1,0,0:0:0:0:
211,39,98924,1,0,0:0:0:0:
216,37,98941,1,0,0:0:0:0:
221,36,98958,1,0,0:0:0:0:
226,35,98975,1,0,0:0:0:0:
231,34,98992,1,0,0:0:0:0:
236,34,99008,1,0,0:0:0:0:
241,33,99025,1,0,0:0:0:0:
246,33,99042,1,0,0:0:0:0:
251,32,99059,1,0,0:0:0:0:
256,32,99076,1,0,0:0:0:0:
261,32,99093,1,0,0:0:0:0:
265,33,99110,1,0,0:0:0:0:
270,33,99127,1,0,0:0:0:0:
275,34,99143,1,0,0:0:0:0:
280,34,99160,1,0,0:0:0:0:
285,35,99177,1,0,0:0:0:0:
290,36,99194,1,0,0:0:0:0:
295,37,99211,1,0,0:0:0:0:
300,39,99228,1,0,0:0:0:0:
305,40,99244,1,0,0:0:0:0:
309,42,99262,1,0,0:0:0:0:
314,44,99278,1,0,0:0:0:0:
319,45,99295,1,0,0:0:0:0:
323,47,99312,1,0,0:0:0:0:
328,50,99329,1,0,0:0:0:0:
332,52,99346,1,0,0:0:0:0:
337,55,99362,1,0,0:0:0:0:
341,57,99379,1,0,0:0:0:0:
345,60,99397,1,0,0:0:0:0:
349,63,99413,1,0,0:0:0:0:
353,66,99430,1,0,0:0:0:0:
357,69,99447,1,0,0:0:0:0:
361,72,99464,1,0,0:0:0:0:
364,75,99480,1,0,0:0:0:0:
368,79,99497,1,0,0:0:0:0:
372,83,99514,1,0,0:0:0:0:
375,86,99531,1,0,0:0:0:0:
378,90,99547,1,0,0:0:0:0:
381,94,99564,1,0,0:0:0:0:
384,98,99581,1,0,0:0:0:0:
387,102,99597,1,0,0:0:0:0:
390,106,99614,1,0,0:0:0:0:
392,110,99631,1,0,0:0:0:0:
395,115,99648,1,0,0:0:0:0:
397,119,99665,1,0,0:0:0:0:
400,124,99681,1,0,0:0:0:0:
402,128,99698,1,0,0:0:0:0:
403,133,99715,1,0,0:0:0:0:
405,138,99731,1,0,0:0:0:0:
407,142,99748,1,0,0:0:0:0:
408,147,99765,1,0,0:0:0:0:
410,152,99781,1,0,0:0:0:0:
411,157,99799,1,0,0:0:0:0:
412,162,99815,1,0,0:0:0:0:
413,167,99832,1,0,0:0:0:0:
413,172,99849,1,0,0:0:0:0:
414,177,99865,1,0,0:0:0:0:
414,182,99882,1,0,0:0:0:0:
415,187,99899,1,0,0:0:0:0:
415,192,99915,1,0,0:0:0:0:
415,196,99932,1,0,0:0:0:0:
414,201,99948,1,0,0:0:0:0:
414,206,99965,1,0,0:0:0:0:
413,211,99981,1,0,0:0:0:0:
413,216,99998,1,0,0:0:0:0:
412,221,100015,1,0,0:0:0:0:
411,226,100031,1,0,0:0:0:0:
410,231,100048,1,0,0:0:0:0:
408,236,100065,1,0,0:0:0:0:
407,241,100081,1,0,0:0:0:0:
405,245,100098,1,0,0:0:0:0:
403,250,100114,1,0,0:0:0:0:
402,255,100131,1,0,0:0:0:0:
400,259,100147,1,0,0:0:0:0:
397,264,100164,1,0,0:0:0:0:
395,268,100181,1,0,0:0:0:0:
392,273,100197,1,0,0:0:0:0:
390,277,100214,1,0,0:0:0:0:
387,281,100231,1,0,0:0:0:0:
384,285,100247,1,0,0:0:0:0:
381,289,100264,1,0,0:0:0:0:
378,293,100280,1,0,0:0:0:0:
375,297,100297,1,0,0:0:0:0:
372,300,100313,1,0,0:0:0:0:
368,304,100330,1,0,0:0:0:0:
364,308,100346,1,0,0:0:0:0:
361,311,100363,1,0,0:0:0:0:
357,314,100379,1,0,0:0:0:0:
353,317,100396,1,0,0:0:0:0:
349,320,100412,1,0,0:0:0:0:
345,323,100429,1,0,0:0:0:0:
341,326,100445,1,0,0:0:0:0:
337,328,100462,1,0,0:0:0:0:
332,331,100478,1,0,0:0:0:0:
328,333,100494,1,0,0:0:0:0:
323,336,100511,1,0,0:0:0:0:
319,338,100527,1,0,0:0:0:0:
314,339,100544,1,0,0:0:0:0:
309,341,100560,1,0,0:0:0:0:
305,343,100577,1,0,0:0:0:0:
300,344,100593,1,0,0:0:0:0:
295,346,100610,1,0,0:0:0:0:
290,347,100626,1,0,0:0:0:0:
285,348,100643,1,0,0:0:0:0:
280,349,100659,1,0,0:0:0:0:
275,349,100676,1,0,0:0:0:0:
270,350,100692,1,0,0:0:0:0:
265,350,100709,1,0,0:0:0:0:
260,351,100725,1,0,0:0:0:0:
255,351,100742,1,0,0:0:0:0:
251,351,100758,1,0,0:0:0:0:
246,350,100775,1,0,0:0:0:0:
241,350,100791,1,0,0:0:0:0:
236,349,100808,1,0,0:0:0:0:
231,349,100824,1,0,0:0:0:0:
226,348,100840,1,0,0:0:0:0:
221,347,100857,1,0,0:0:0:0:
216,346,100873,1,0,0:0:0:0:
211,344,100889,1,0,0:0:0:0:
206,343,100906,1,0,0:0:0:0:
202,341,100922,1,0,0:0:0:0:
197,339,100938,1,0,0:0:0:0:
192,338,100955,1,0,0:0:0:0:
188,336,100971,1,0,0:0:0:0:
183,333,100988,1,0,0:0:0:0:
179,331,101004,1,0,0:0:0:0:
174,328,101020,1,0,0:0:0:0:
170,326,101037,1,0,0:0:0:0:
166,323,101053,1,0,0:0:0:0:
162,320,101069,1,0,0:0:0:0:
158,317,101086,1,0,0:0:0:0:
154,314,101102,1,0,0:0:0:0:
150,311,101118,1,0,0:0:0:0:
147,308,101135,1,0,0:0:0:0:
143,304,101151,1,0,0:0:0:0:
139,300,101167,1,0,0:0:0:0:
136,297,101184,1,0,0:0:0:0:
133,293,101200,1,0,0:0:0:0:
130,289,101216,1,0,0:0:0:0:
127,285,101233,1,0,0:0:0:0:
124,281,101249,1,0,0:0:0:0:
121,277,101265,1,0,0:0:0:0:
119,273,101281,1,0,0:0:0:0:
116,268,101297,1,0,0:0:0:0:
114,264,101314,1,0,0:0:0:0:
111,259,101330,1,0,0:0:0:0:
109,255,101346,1,0,0:0:0:0:
108,250,101362,1,0,0:0:0:0:
106,245,101379,1,0,0:0:0:0:
104,241,101395,1,0,0:0:0:0:
103,236,101411,1,0,0:0:0:0:
101,231,101427,1,0,0:0:0:0:
100,226,101443,1,0,0:0:0:0:
99,221,101460,1,0,0:0:0:0:
98,216,101476,1,0,0:0:0:0:
98,211,101492,1,0,0:0:0:0:
97,206,101508,1,0,0:0:0:0:
97,201,101525,1,0,0:0:0:0:
96,196,101541,1,0,0:0:0:0:
96,191,101557,1,0,0:0:0:0:
96,187,101573,1,0,0:0:0:0:
97,182,101589,1,0,0:0:0:0:
97,177,101606,1,0,0:0:0:0:
98,172,101622,1,0,0:0:0:0:
98,167,101638,1,0,0:0:0:0:
99,162,101655,1,0,0:0:0:0:
100,157,101671,1,0,0:0:0:0:
101,152,101687,1,0,0:0:0:0:
103,147,101703,1,0,0:0:0:0:
104,142,101719,1,0,0:0:0:0:
106,138,101735,1,0,0:0:0:0:
108,133,101752,1,0,0:0:0:0:
109,128,101768,1,0,0:0:0:0:
111,124,101784,1,0,0:0:0:0:
114,119,101800,1,0,0:0:0:0:
116,115,101816,1,0,0:0:0:0:
119,110,101832,1,0,0:0:0:0:
121,106,101848,1,0,0:0:0:0:
124,102,101864,1,0,0:0:0:0:
127,98,101880,1,0,0:0:0:0:
130,94,101897,1,0,0:0:0:0:
133,90,101913,1,0,0:0:0:0:
136,86,101929,1,0,0:0:0:0:
139,83,101945,1,0,0:0:0:0:
143,79,101961,1,0,0:0:0:0:
147,75,101977,1,0,0:0:0:0:
150,72,101993,1,0,0:0:0:0:
154,69,102009,1,0,0:0:0:0:
158,66,102025,1,0,0:0:0:0:
162,63,102042,1,0,0:0:0:0:
166,60,102058,1,0,0:0:0:0:
170,57,102074,1,0,0:0:0:0:
174,55,102090,1,0,0:0:0:0:
179,52,102106,1,0,0:0:0:0:
183,50,102122,1,0,0:0:0:0:
188,47,102138,1,0,0:0:0:0:
192,45,102154,1,0,0:0:0:0:
197,44,102170,1,0,0:0:0:0:
202,42,102186,1,0,0:0:0:0:
206,40,102202,1,0,0:0:0:0:
211,39,102218,1,0,0:0:0:0:
216,37,102234,1,0,0:0:0:0:
221,36,102250,1,0,0:0:0:0:
226,35,102266,1,0,0:0:0:0:
231,34,102282,1,0,0:0:0:0:
236,34,102297,1,0,0:0:0:0:
241,33,102313,1,0,0:0:0:0:
246,33,102329,1,0,0:0:0:0:
251,32,102345,1,0,0:0:0:0:
256,32,102361,1,0,0:0:0:0:
260,32,102377,1,0,0:0:0:0:
265,33,102393,1,0,0:0:0:0:
270,33,102409,1,0,0:0:0:0:
275,34,102425,1,0,0:0:0:0:
280,34,102441,1,0,0:0:0:0:
285,35,102457,1,0,0:0:0:0:
290,36,102473,1,0,0:0:0:0:
295,37,102489,1,0,0:0:0:0:
300,39,102505,1,0,0:0:0:0:
305,40,102521,1,0,0:0:0:0:
309,42,102537,1,0,0:0:0:0:
314,44,102553,1,0,0:0:0:0:
319,45,102569,1,0,0:0:0:0:
323,47,102585,1,0,0:0:0:0:
328,50,102601,1,0,0:0:0:0:
332,52,102617,1,0,0:0:0:0:
337,55,102633,1,0,0:0:0:0:
341,57,102649,1,0,0:0:0:0:
345,60,102665,1,0,0:0:0:0:
349,63,102680,1,0,0:0:0:0:
353,66,102696,1,0,0:0:0:0:
357,69,102712,1,0,0:0:0:0:
361,72,102728,1,0,0:0:0:0:
364,75,102744,1,0,0:0:0:0:
368,79,102760,1,0,0:0:0:0:
372,83,102776,1,0,0:0:0:0:
375,86,102792,1,0,0:0:0:0:
378,90,102807,1,0,0:0:0:0:
381,94,102823,1,0,0:0:0:0:
384,98,102839,1,0,0:0:0:0:
387,102,102855,1,0,0:0:0:0:
390,106,102871,1,0,0:0:0:0:
392,110,102887,1,0,0:0:0:0:
395,115,102902,1,0,0:0:0:0:
397,119,102918,1,0,0:0:0:0:
400,124,102934,1,0,0:0:0:0:
402,128,102950,1,0,0:0:0:0:
403,133,102966,1,0,0:0:0:0:
405,138,102982,1,0,0:0:0:0:
407,142,102998,1,0,0:0:0:0:
408,147,103013,1,0,0:0:0:0:
410,152,103029,1,0,0:0:0:0:
411,157,103045,1,0,0:0:0:0:
412,162,103061,1,0,0:0:0:0:
413,167,103077,1,0,0:0:0:0:
413,172,103093,1,0,0:0:0:0:
414,177,103109,1,0,0:0:0:0:
414,182,103124,1,0,0:0:0:0:
415,187,103140,1,0,0:0:0:0:
415,192,103156,1,0,0:0:0:0:
415,197,103172,1,0,0:0:0:0:
414,201,103187,1,0,0:0:0:0:
414,206,103203,1,0,0:0:0:0:
413,211,103219,1,0,0:0:0:0:
413,216,103235,1,0,0:0:0:0:
412,221,103250,1,0,0:0:0:0:
411,226,103266,1,0,0:0:0:0:
410,231,103282,1,0,0:0:0:0:
408,236,103298,1,0,0:0:0:0:
407,241,103313,1,0,0:0:0:0:
405,245,103329,1,0,0:0:0:0:
403,250,103345,1,0,0:0:0:0:
402,255,103360,1,0,0:0:0:0:
400,259,103376,1,0,0:0:0:0:
397,264,103392,1,0,0:0:0:0:
395,268,103408,1,0,0:0:0:0:
392,273,103424,1,0,0:0:0:0:
390,277,103439,1,0,0:0:0:0:
387,281,103455,1,0,0:0:0:0:
384,285,103471,1,0,0:0:0:0:
381,289,103486,1,0,0:0:0:0:
378,293,103502,1,0,0:0:0:0:
375,297,103518,1,0,0:0:0:0:
372,300,103533,1,0,0:0:0:0:
368,304,103549,1,0,0:0:0:0:
364,308,103565,1,0,0:0:0:0:
361,311,103581,1,0,0:0:0:0:
357,314,103596,1,0,0:0:0:0:
353,317,103612,1,0,0:0:0:0:
349,320,103628,1,0,0:0:0:0:
345,323,103643,1,0,0:0:0:0:
341,326,103659,1,0,0:0:0:0:
337,328,103675,1,0,0:0:0:0:
332,331,103690,1,0,0:0:0:0:
328,333,103706,1,0,0:0:0:0:
323,336,103721,1,0,0:0:0:0:
319,338,103737,1,0,0:0:0:0:
314,339,103753,1,0,0:0:0:0:
309,341,103768,1,0,0:0:0:0:
305,343,103784,1,0,0:0:0:0:
300,344,103800,1,0,0:0:0:0:
295,346,103815,1,0,0:0:0:0:
290,347,103831,1,0,0:0:0:0:
285,348,103846,1,0,0:0:0:0:
280,349,103862,1,0,0:0:0:0:
275,349,103877,1,0,0:0:0:0:
270,350,103893,1,0,0:0:0:0:
265,350,103909,1,0,0:0:0:0:
260,351,103925,1,0,0:0:0:0:
255,351,103940,1,0,0:0:0:0:
250,351,103956,1,0,0:0:0:0:
246,350,103971,1,0,0:0:0:0:
241,350,103987,1,0,0:0:0:0:
236,349,104002,1,0,0:0:0:0:
231,349,104018,1,0,0:0:0:0:
226,348,104033,1,0,0:0:0:0:
221,347,104049,1,0,0:0:0:0:
216,346,104064,1,0,0:0:0:0:
211,344,104080,1,0,0:0:0:0:
206,343,104095,1,0,0:0:0:0:
202,341,104111,1,0,0:0:0:0:
197,339,104126,1,0,0:0:0:0:
192,338,104142,1,0,0:0:0:0:
188,336,104157,1,0,0:0:0:0:
183,333,104173,1,0,0:0:0:0:
179,331,104188,1,0,0:0:0:0:
174,328,104203,1,0,0:0:0:0:
170,326,104219,1,0,0:0:0:0:
166,323,104234,1,0,0:0:0:0:
162,320,104250,1,0,0:0:0:0:
158,317,104265,1,0,0:0:0:0:
154,314,104281,1,0,0:0:0:0:
150,311,104297,1,0,0:0:0:0:
147,308,104312,1,0,0:0:0:0:
143,304,104327,1,0,0:0:0:0:
139,300,104343,1,0,0:0:0:0:
136,297,104358,1,0,0:0:0:0:
133,293,104374,1,0,0:0:0:0:
130,289,104389,1,0,0:0:0:0:
127,285,104405,1,0,0:0:0:0:
124,281,104421,1,0,0:0:0:0:
121,277,104436,1,0,0:0:0:0:
119,273,104451,1,0,0:0:0:0:
116,268,104467,1,0,0:0:0:0:
114,264,104482,1,0,0:0:0:0:
111,259,104498,1,0,0:0:0:0:
109,255,104513,1,0,0:0:0:0:
108,250,104529,1,0,0:0:0:0:
106,245,104544,1,0,0:0:0:0:
104,241,104559,1,0,0:0:0:0:
103,236,104574,1,0,0:0:0:0:
101,231,104590,1,0,0:0:0:0:
100,226,104605,1,0,0:0:0:0:
99,221,104621,1,0,0:0:0:0:
98,216,104636,1,0,0:0:0:0:
98,211,104651,1,0,0:0:0:0:
97,206,104667,1,0,0:0:0:0:
97,201,104682,1,0,0:0:0:0:
96,196,104697,1,0,0:0:0:0:
96,191,104713,1,0,0:0:0:0:
96,186,104728,1,0,0:0:0:0:
97,182,104743,1,0,0:0:0:0:
97,177,104759,1,0,0:0:0:0:
98,172,104774,1,0,0:0:0:0:
98,167,104790,1,0,0:0:0:0:
99,162,104805,1,0,0:0:0:0:
100,157,104820,1,0,0:0:0:0:
101,152,104836,1,0,0:0:0:0:
103,147,104851,1,0,0:0:0:0:
104,142,104866,1,0,0:0:0:0:
106,138,104882,1,0,0:0:0:0:
108,133,104897,1,0,0:0:0:0:
109,128,104913,1,0,0:0:0:0:
111,124,104928,1,0,0:0:0:0:
114,119,104943,1,0,0:0:0:0:
116,115,104958,1,0,0:0:0:0:
119,110,104974,1,0,0:0:0:0:
121,106,104989,1,0,0:0:0:0:
124,102,105004,1,0,0:0:0:0:
127,98,105020,1,0,0:0:0:0:
130,94,105035,1,0,0:0:0:0:
133,90,105050,1,0,0:0:0:0:
136,86,105065,1,0,0:0:0:0:
139,83,105080,1,0,0:0:0:0:
143,79,105096,1,0,0:0:0:0:
147,75,105111,1,0,0:0:0:0:
150,72,105126,1,0,0:0:0:0:
154,69,105141,1,0,0:0:0:0:
158,66,105157,1,0,0:0:0:0:
162,63,105172,1,0,0:0:0:0:
166,60,105187,1,0,0:0:0:0:
170,57,105202,1,0,0:0:0:0:
174,55,105217,1,0,0:0:0:0:
179,52,105233,1,0,0:0:0:0:
183,50,105248,1,0,0:0:0:0:
188,47,105263,1,0,0:0:0:0:
192,45,105279,1,0,0:0:0:0:
197,44,105294,1,0,0:0:0:0:
202,42,105309,1,0,0:0:0:0:
206,40,105324,1,0,0:0:0:0:
211,39,105339,1,0,0:0:0:0:
216,37,105355,1,0,0:0:0:0:
221,36,105370,1,0,0:0:0:0:
226,35,105385,1,0,0:0:0:0:
231,34,105401,1,0,0:0:0:0:
236,34,105416,1,0,0:0:0:0:
241,33,105431,1,0,0:0:0:0:
246,33,105446,1,0,0:0:0:0:
251,32,105461,1,0,0:0:0:0:
256,32,105476,1,0,0:0:0:0:
261,32,105492,1,0,0:0:0:0:
265,33,105507,1,0,0:0:0:0:
270,33,105522,1,0,0:0:0:0:
275,34,105537,1,0,0:0:0:0:
280,34,105552,1,0,0:0:0:0:
285,35,105567,1,0,0:0:0:0:
290,36,105582,1,0,0:0:0:0:
295,37,105597,1,0,0:0:0:0:
300,39,105612,1,0,0:0:0:0:
305,40,105628,1,0,0:0:0:0:
309,42,105643,1,0,0:0:0:0:
314,44,105658,1,0,0:0:0:0:
319,45,105673,1,0,0:0:0:0:
323,47,105688,1,0,0:0:0:0:
328,50,105703,1,0,0:0:0:0:
332,52,105718,1,0,0:0:0:0:
337,55,105733,1,0,0:0:0:0:
341,57,105748,1,0,0:0:0:0:
345,60,105764,1,0,0:0:0:0:
349,63,105779,1,0,0:0:0:0:
353,66,105794,1,0,0:0:0:0:
357,69,105809,1,0,0:0:0:0:
361,72,105824,1,0,0:0:0:0:
364,75,105839,1,0,0:0:0:0:
368,79,105854,1,0,0:0:0:0:
372,83,105869,1,0,0:0:0:0:
375,86,105885,1,0,0:0:0:0:
378,90,105900,1,0,0:0:0:0:
381,94,105915,1,0,0:0:0:0:
384,98,105930,1,0,0:0:0:0:
387,102,105945,1,0,0:0:0:0:
390,106,105960,1,0,0:0:0:0:
392,110,105975,1,0,0:0:0:0:
395,115,105990,1,0,0:0:0:0:
397,119,106005,1,0,0:0:0:0:
400,124,106020,1,0,0:0:0:0:
402,128,106035,1,0,0:0:0:0:
403,133,106050,1,0,0:0:0:0:
405,138,106065,1,0,0:0:0:0:
407,142,106080,1,0,0:0:0:0:
408,147,106095,1,0,0:0:0:0:
410,152,106110,1,0,0:0:0:0:
411,157,106125,1,0,0:0:0:0:
412,162,106140,1,0,0:0:0:0:
413,167,106155,1,0,0:0:0:0:
413,172,106170,1,0,0:0:0:0:
414,177,106185,1,0,0:0:0:0:
414,182,106200,1,0,0:0:0:0:
415,187,106215,1,0,0:0:0:0:
415,192,106230,1,0,0:0:0:0:
415,196,106245,5,0,0:0:0:0:
414,201,106259,1,0,0:0:0:0:
414,206,106274,1,0,0:0:0:0:
413,211,106289,1,0,0:0:0:0:
413,216,106304,1,0,0:0:0:0:
412,221,106319,1,0,0:0:0:0:
411,226,106334,1,0,0:0:0:0:
410,231,106349,1,0,0:0:0:0:
408,236,106364,1,0,0:0:0:0:
407,241,106379,1,0,0:0:0:0:
405,245,106394,1,0,0:0:0:0:
403,250,106409,1,0,0:0:0:0:
402,255,106424,1,0,0:0:0:0:
400,259,106439,1,0,0:0:0:0:
397,264,106454,1,0,0:0:0:0:
395,268,106469,1,0,0:0:0:0:
392,273,106484,1,0,0:0:0:0:
390,277,106499,1,0,0:0:0:0:
387,281,106514,1,0,0:0:0:0:
384,285,106529,1,0,0:0:0:0:
381,289,106544,1,0,0:0:0:0:
378,293,106559,1,0,0:0:0:0:
375,297,106574,1,0,0:0:0:0:
372,300,106589,1,0,0:0:0:0:
368,304,106604,1,0,0:0:0:0:
364,308,106618,1,0,0:0:0:0:
361,311,106633,1,0,0:0:0:0:
357,314,106648,1,0,0:0:0:0:
353,317,106663,1,0,0:0:0:0:
349,320,106678,1,0,0:0:0:0:
345,323,106693,1,0,0:0:0:0:
341,326,106708,1,0,0:0:0:0:
337,328,106723,1,0,0:0:0:0:
332,331,106737,1,0,0:0:0:0:
328,333,106752,1,0,0:0:0:0:
323,336,106767,1,0,0:0:0:0:
319,338,106782,1,0,0:0:0:0:
314,339,106797,1,0,0:0:0:0:
309,341,106812,1,0,0:0:0:0:
305,343,106826,1,0,0:0:0:0:
300,344,106841,1,0,0:0:0:0:
295,346,106856,1,0,0:0:0:0:
290,347,106871,1,0,0:0:0:0:
285,348,106886,1,0,0:0:0:0:
280,349,106901,1,0,0:0:0:0:
275,349,106916,1,0,0:0:0:0:
270,350,106930,1,0,0:0:0:0:
265,350,106945,1,0,0:0:0:0:
260,351,106960,1,0,0:0:0:0:
255,351,106975,1,0,0:0:0:0:
251,351,106990,1,0,0:0:0:0:
246,350,107005,1,0,0:0:0:0:
241,350,107020,1,0,0:0:0:0:
236,349,107034,1,0,0:0:0:0:
231,349,107049,1,0,0:0:0:0:
226,348,107064,1,0,0:0:0:0:
221,347,107079,1,0,0:0:0:0:
216,346,107093,1,0,0:0:0:0:
211,344,107108,1,0,0:0:0:0:
206,343,107123,1,0,0:0:0:0:
202,341,107138,1,0,0:0:0:0:
197,339,107152,1,0,0:0:0:0:
192,338,107167,1,0,0:0:0:0:
188,336,107182,1,0,0:0:0:0:
183,333,107197,1,0,0:0:0:0:
179,331,107211,1,0,0:0:0:0:
174,328,107226,1,0,0:0:0:0:
170,326,107241,1,0,0:0:0:0:
166,323,107255,1,0,0:0:0:0:
162,320,107270,1,0,0:0:0:0:
158,317,107285,1,0,0:0:0:0:
154,314,107300,1,0,0:0:0:0:
150,311,107314,1,0,0:0:0:0:
147,308,107329,1,0,0:0:0:0:
143,304,107344,1,0,0:0:0:0:
139,300,107359,1,0,0:0:0:0:
136,297,107373,1,0,0:0:0:0:
133,293,107388,1,0,0:0:0:0:
130,289,107403,1,0,0:0:0:0:
127,285,107417,1,0,0:0:0:0:
124,281,107432,1,0,0:0:0:0:
121,277,107447,1,0,0:0:0:0:
119,273,107462,1,0,0:0:0:0:
116,268,107477,1,0,0:0:0:0:
114,264,107491,1,0,0:0:0:0:
111,259,107506,1,0,0:0:0:0:
109,255,107521,1,0,0:0:0:0:
108,250,107535,1,0,0:0:0:0:
106,245,107550,1,0,0:0:0:0:
104,241,107564,1,0,0:0:0:0:
103,236,107579,1,0,0:0:0:0:
101,231,107593,1,0,0:0:0:0:
100,226,107608,1,0,0:0:0:0:
99,221,107623,1,0,0:0:0:0:
98,216,107637,1,0,0:0:0:0:
98,211,107652,1,0,0:0:0:0:
97,206,107667,1,0,0:0:0:0:
97,201,107681,1,0,0:0:0:0:
96,196,107696,1,0,0:0:0:0:
96,191,107710,1,0,0:0:0:0:
96,187,107725,1,0,0:0:0:0:
97,182,107740,1,0,0:0:0:0:
97,177,107754,1,0,0:0:0:0:
98,172,107769,1,0,0:0:0:0:
98,167,107783,1,0,0:0:0:0:
99,162,107798,1,0,0:0:0:0:
100,157,107813,1,0,0:0:0:0:
101,152,107827,1,0,0:0:0:0:
103,147,107842,1,0,0:0:0:0:
104,142,107856,1,0,0:0:0:0:
106,138,107871,1,0,0:0:0:0:
108,133,107886,1,0,0:0:0:0:
109,128,107900,1,0,0:0:0:0:
111,124,107915,1,0,0:0:0:0:
114,119,107930,1,0,0:0:0:0:
116,115,107944,1,0,0:0:0:0:
119,110,107959,1,0,0:0:0:0:
121,106,107973,1,0,0:0:0:0:
124,102,107988,1,0,0:0:0:0:
127,98,108002,1,0,0:0:0:0:
130,94,108017,1,0,0:0:0:0:
133,90,108032,1,0,0:0:0:0:
136,86,108047,1,0,0:0:0:0:
139,83,108061,1,0,0:0:0:0:
143,79,108076,1,0,0:0:0:0:
147,75,108090,1,0,0:0:0:0:
150,72,108105,1,0,0:0:0:0:
154,69,108119,1,0,0:0:0:0:
158,66,108134,1,0,0:0:0:0:
162,63,108148,1,0,0:0:0:0:
166,60,108163,1,0,0:0:0:0:
170,57,108177,1,0,0:0:0:0:
174,55,108192,1,0,0:0:0:0:
179,52,108206,1,0,0:0:0:0:
183,50,108221,1,0,0:0:0:0:
188,47,108235,1,0,0:0:0:0:
192,45,108250,1,0,0:0:0:0:
197,44,108264,1,0,0:0:0:0:
202,42,108278,1,0,0:0:0:0:
206,40,108293,1,0,0:0:0:0:
211,39,108307,1,0,0:0:0:0:
216,37,108322,1,0,0:0:0:0:
221,36,108336,1,0,0:0:0:0:
226,35,108351,1,0,0:0:0:0:
231,34,108365,1,0,0:0:0:0:
236,34,108380,1,0,0:0:0:0:
241,33,108394,1,0,0:0:0:0:
246,33,108409,1,0,0:0:0:0:
251,32,108423,1,0,0:0:0:0:
256,32,108438,1,0,0:0:0:0:
260,32,108452,1,0,0:0:0:0:
265,33,108467,1,0,0:0:0:0:
270,33,108481,1,0,0:0:0:0:
275,34,108496,1,0,0:0:0:0:
280,34,108510,1,0,0:0:0:0:
285,35,108525,1,0,0:0:0:0:
290,36,108539,1,0,0:0:0:0:
295,37,108554,1,0,0:0:0:0:
300,39,108568,1,0,0:0:0:0:
305,40,108582,1,0,0:0:0:0:
309,42,108597,1,0,0:0:0:0:
314,44,108611,1,0,0:0:0:0:
319,45,108625,1,0,0:0:0:0:
323,47,108640,1,0,0:0:0:0:
328,50,108654,1,0,0:0:0:0:
332,52,108668,1,0,0:0:0:0:
337,55,108683,1,0,0:0:0:0:
341,57,108697,1,0,0:0:0:0:
345,60,108712,1,0,0:0:0:0:
349,63,108726,1,0,0:0:0:0:
353,66,108740,1,0,0:0:0:0:
357,69,108755,1,0,0:0:0:0:
361,72,108769,1,0,0:0:0:0:
364,75,108783,1,0,0:0:0:0:
368,79,108798,1,0,0:0:0:0:
372,83,108812,1,0,0:0:0:0:
375,86,108826,1,0,0:0:0:0:
378,90,108841,1,0,0:0:0:0:
381,94,108855,1,0,0:0:0:0:
384,98,108870,1,0,0:0:0:0:
387,102,108884,1,0,0:0:0:0:
390,106,108898,1,0,0:0:0:0:
392,110,108913,1,0,0:0:0:0:
395,115,108927,1,0,0:0:0:0:
397,119,108941,1,0,0:0:0:0:
400,124,108956,1,0,0:0:0:0:
402,128,108970,1,0,0:0:0:0:
403,133,108984,1,0,0:0:0:0:
405,138,108999,1,0,0:0:0:0:
407,142,109013,1,0,0:0:0:0:
408,147,109027,1,0,0:0:0:0:
410,152,109042,1,0,0:0:0:0:
411,157,109056,1,0,0:0:0:0:
412,162,109071,1,0,0:0:0:0:
413,167,109085,1,0,0:0:0:0:
413,172,109099,1,0,0:0:0:0:
414,177,109114,1,0,0:0:0:0:
414,182,109128,1,0,0:0:0:0:
415,187,109142,1,0,0:0:0:0:
415,192,109157,1,0,0:0:0:0:
415,197,109171,1,0,0:0:0:0:
414,201,109185,1,0,0:0:0:0:
414,206,109199,1,0,0:0:0:0:
413,211,109213,1,0,0:0:0:0:
413,216,109228,1,0,0:0:0:0:
412,221,109242,1,0,0:0:0:0:
411,226,109256,1,0,0:0:0:0:
410,231,109270,1,0,0:0:0:0:
408,236,109285,1,0,0:0:0:0:
407,241,109299,1,0,0:0:0:0:
405,245,109313,1,0,0:0:0:0:
403,250,109327,1,0,0:0:0:0:
402,255,109341,1,0,0:0:0:0:
400,259,109356,1,0,0:0:0:0:
397,264,109370,1,0,0:0:0:0:
395,268,109384,1,0,0:0:0:0:
392,273,109398,1,0,0:0:0:0:
390,277,109413,1,0,0:0:0:0:
387,281,109427,1,0,0:0:0:0:
384,285,109441,1,0,0:0:0:0:
381,289,109455,1,0,0:0:0:0:
378,293,109470,1,0,0:0:0:0:
375,297,109484,1,0,0:0:0:0:
372,300,109498,1,0,0:0:0:0:
368,304,109512,1,0,0:0:0:0:
364,308,109527,1,0,0:0:0:0:
361,311,109541,1,0,0:0:0:0:
357,314,109555,1,0,0:0:0:0:
353,317,109569,1,0,0:0:0:0:
349,320,109583,1,0,0:0:0:0:
345,323,109598,1,0,0:0:0:0:
341,326,109612,1,0,0:0:0:0:
337,328,109626,1,0,0:0:0:0:
332,331,109640,1,0,0:0:0:0:
328,333,109654,1,0,0:0:0:0:
323,336,109668,1,0,0:0:0:0:
319,338,109682,1,0,0:0:0:0:
314,339,109696,1,0,0:0:0:0:
309,341,109710,1,0,0:0:0:0:
305,343,109725,1,0,0:0:0:0:
300,344,109739,1,0,0:0:0:0:
295,346,109753,1,0,0:0:0:0:
290,347,109767,1,0,0:0:0:0:
285,348,109781,1,0,0:0:0:0:
280,349,109795,1,0,0:0:0:0:
275,349,109809,1,0,0:0:0:0:
270,350,109823,1,0,0:0:0:0:
265,350,109837,1,0,0:0:0:0:
260,351,109851,1,0,0:0:0:0:
255,351,109866,1,0,0:0:0:0:
250,351,109880,1,0,0:0:0:0:
246,350,109894,1,0,0:0:0:0:
241,350,109908,1,0,0:0:0:0:
236,349,109922,1,0,0:0:0:0:
231,349,109936,1,0,0:0:0:0:
226,348,109950,1,0,0:0:0:0:
221,347,109964,1,0,0:0:0:0:
216,346,109979,1,0,0:0:0:0:
211,344,109993,1,0,0:0:0:0:
206,343,110007,1,0,0:0:0:0:
202,341,110021,1,0,0:0:0:0:
197,339,110035,1,0,0:0:0:0:
192,338,110049,1,0,0:0:0:0:
188,336,110063,1,0,0:0:0:0:
183,333,110077,1,0,0:0:0:0:
179,331,110092,1,0,0:0:0:0:
174,328,110106,1,0,0:0:0:0:
170,326,110120,1,0,0:0:0:0:
166,323,110134,1,0,0:0:0:0:
162,320,110148,1,0,0:0:0:0:
158,317,110162,1,0,0:0:0:0:
154,314,110176,1,0,0:0:0:0:
150,311,110190,1,0,0:0:0:0:
147,308,110204,1,0,0:0:0:0:
143,304,110218,1,0,0:0:0:0:
139,300,110232,1,0,0:0:0:0:
136,297,110246,1,0,0:0:0:0:
133,293,110260,1,0,0:0:0:0:
130,289,110274,1,0,0:0:0:0:
127,285,110288,1,0,0:0:0:0:
124,281,110302,1,0,0:0:0:0:
121,277,110315,1,0,0:0:0:0:
119,273,110329,1,0,0:0:0:0:
116,268,110343,1,0,0:0:0:0:
114,264,110357,1,0,0:0:0:0:
111,259,110371,1,0,0:0:0:0:
109,255,110385,1,0,0:0:0:0:
108,250,110399,1,0,0:0:0:0:
106,245,110413,1,0,0:0:0:0:
104,241,110427,1,0,0:0:0:0:
103,236,110441,1,0,0:0:0:0:
101,231,110455,1,0,0:0:0:0:
100,226,110469,1,0,0:0:0:0:
99,221,110483,1,0,0:0:0:0:
98,216,110497,1,0,0:0:0:0:
98,211,110511,1,0,0:0:0:0:
97,206,110525,1,0,0:0:0:0:
97,201,110539,1,0,0:0:0:0:
96,196,110553,1,0,0:0:0:0:
96,191,110567,1,0,0:0:0:0:
96,186,110581,1,0,0:0:0:0:
97,182,110595,1,0,0:0:0:0:
97,177,110609,1,0,0:0:0:0:
98,172,110623,1,0,0:0:0:0:
98,167,110637,1,0,0:0:0:0:
99,162,110651,1,0,0:0:0:0:
100,157,110665,1,0,0:0:0:0:
101,152,110679,1,0,0:0:0:0:
103,147,110693,1,0,0:0:0:0:
104,142,110707,1,0,0:0:0:0:
106,138,110721,1,0,0:0:0:0:
108,133,110735,1,0,0:0:0:0:
109,128,110749,1,0,0:0:0:0:
111,124,110762,1,0,0:0:0:0:
114,119,110776,1,0,0:0:0:0:
116,115,110790,1,0,0:0:0:0:
119,110,110804,1,0,0:0:0:0:
121,106,110818,1,0,0:0:0:0:
124,102,110832,1,0,0:0:0:0:
127,98,110846,1,0,0:0:0:0:
130,94,110860,1,0,0:0:0:0:
133,90,110873,1,0,0:0:0:0:
136,86,110887,1,0,0:0:0:0:
139,83,110901,1,0,0:0:0:0:
143,79,110915,1,0,0:0:0:0:
147,75,110929,1,0,0:0:0:0:
150,72,110943,1,0,0:0:0:0:
154,69,110957,1,0,0:0:0:0:
158,66,110971,1,0,0:0:0:0:
162,63,110984,1,0,0:0:0:0:
166,60,110998,1,0,0:0:0:0:
170,57,111012,1,0,0:0:0:0:
174,55,111026,1,0,0:0:0:0:
179,52,111040,1,0,0:0:0:0:
183,50,111054,1,0,0:0:0:0:
188,47,111067,1,0,0:0:0:0:
192,45,111081,1,0,0:0:0:0:
197,44,111095,1,0,0:0:0:0:
202,42,111109,1,0,0:0:0:0:
206,40,111123,1,0,0:0:0:0:
211,39,111137,1,0,0:0:0:0:
216,37,111151,1,0,0:0:0:0:
221,36,111164,1,0,0:0:0:0:
226,35,111178,1,0,0:0:0:0:
231,34,111192,1,0,0:0:0:0:
236,34,111205,1,0,0:0:0:0:
241,33,111219,1,0,0:0:0:0:
246,33,111233,1,0,0:0:0:0:
251,32,111247,1,0,0:0:0:0:
256,32,111260,1,0,0:0:0:0:
261,32,111274,1,0,0:0:0:0:
265,33,111288,1,0,0:0:0:0:
270,33,111302,1,0,0:0:0:0:
275,34,111315,1,0,0:0:0:0:
280,34,111329,1,0,0:0:0:0:
285,35,111343,1,0,0:0:0:0:
290,36,111357,1,0,0:0:0:0:
295,37,111370,1,0,0:0:0:0:
300,39,111384,1,0,0:0:0:0:
305,40,111398,1,0,0:0:0:0:
309,42,111412,1,0,0:0:0:0:
314,44,111425,1,0,0:0:0:0:
319,45,111439,1,0,0:0:0:0:
323,47,111453,1,0,0:0:0:0:
328,50,111466,1,0,0:0:0:0:
332,52,111480,1,0,0:0:0:0:
337,55,111494,1,0,0:0:0:0:
341,57,111508,1,0,0:0:0:0:
345,60,111522,1,0,0:0:0:0:
349,63,111535,1,0,0:0:0:0:
353,66,111549,1,0,0:0:0:0:
357,69,111563,1,0,0:0:0:0:
361,72,111576,1,0,0:0:0:0:
364,75,111590,1,0,0:0:0:0:
368,79,111604,1,0,0:0:0:0:
372,83,111617,1,0,0:0:0:0:
375,86,111631,1,0,0:0:0:0:
378,90,111645,1,0,0:0:0:0:
381,94,111659,1,0,0:0:0:0:
384,98,111673,1,0,0:0:0:0:
387,102,111686,1,0,0:0:0:0:
390,106,111700,1,0,0:0:0:0:
392,110,111714,1,0,0:0:0:0:
395,115,111727,1,0,0:0:0:0:
397,119,111741,5,0,0:0:0:0:
400,124,111754,5,0,0:0:0:0:
402,128,111768,5,0,0:0:0:0:
403,133,111781,5,0,0:0:0:0:
405,138,111795,5,0,0:0:0:0:
407,142,111809,5,0,0:0:0:0:
408,147,111822,5,0,0:0:0:0:
410,152,111836,5,0,0:0:0:0:
411,157,111850,5,0,0:0:0:0:
412,162,111863,5,0,0:0:0:0:
413,167,111877,5,0,0:0:0:0:
413,172,111890,5,0,0:0:0:0:
414,177,111904,5,0,0:0:0:0:
414,182,111918,5,0,0:0:0:0:
415,187,111931,5,0,0:0:0:0:
415,192,111945,5,0,0:0:0:0:
415,196,111959,5,0,0:0:0:0:
414,201,111972,5,0,0:0:0:0:
414,206,111986,5,0,0:0:0:0:
413,211,111999,5,0,0:0:0:0:
413,216,112013,5,0,0:0:0:0:
412,221,112027,5,0,0:0:0:0:
411,226,112040,5,0,0:0:0:0:
410,231,112054,5,0,0:0:0:0:
408,236,112067,5,0,0:0:0:0:
407,241,112081,5,0,0:0:0:0:
405,245,112095,5,0,0:0:0:0:
403,250,112108,5,0,0:0:0:0:
402,255,112122,5,0,0:0:0:0:
400,259,112135,5,0,0:0:0:0:
397,264,112149,5,0,0:0:0:0:
395,268,112163,5,0,0:0:0:0:
392,273,112176,5,0,0:0:0:0:
390,277,112190,5,0,0:0:0:0:
387,281,112204,5,0,0:0:0:0:
384,285,112217,5,0,0:0:0:0:
381,289,112231,5,0,0:0:0:0:
378,293,112244,5,0,0:0:0:0:
375,297,112258,5,0,0:0:0:0:
372,300,112271,5,0,0:0:0:0:
368,304,112285,5,0,0:0:0:0:
364,308,112299,5,0,0:0:0:0:
361,311,112313,5,0,0:0:0:0:
357,314,112326,5,0,0:0:0:0:
353,317,112340,5,0,0:0:0:0:
349,320,112353,5,0,0:0:0:0:
345,323,112367,5,0,0:0:0:0:
341,326,112380,5,0,0:0:0:0:
337,328,112394,5,0,0:0:0:0:
332,331,112407,5,0,0:0:0:0:
328,333,112421,5,0,0:0:0:0:
323,336,112434,5,0,0:0:0:0:
319,338,112448,5,0,0:0:0:0:
314,339,112461,5,0,0:0:0:0:
309,341,112475,5,0,0:0:0:0:
305,343,112488,5,0,0:0:0:0:
300,344,112502,5,0,0:0:0:0:
295,346,112515,5,0,0:0:0:0:
290,347,112528,5,0,0:0:0:0:
285,348,112542,5,0,0:0:0:0:
280,349,112555,5,0,0:0:0:0:
275,349,112569,5,0,0:0:0:0:
270,350,112582,5,0,0:0:0:0:
265,350,112596,5,0,0:0:0:0:
260,351,112609,5,0,0:0:0:0:
255,351,112623,5,0,0:0:0:0:
251,351,112636,5,0,0:0:0:0:
246,350,112650,5,0,0:0:0:0:
241,350,112663,5,0,0:0:0:0:
236,349,112677,5,0,0:0:0:0:
231,349,112690,5,0,0:0:0:0:
226,348,112704,5,0,0:0:0:0:
221,347,112717,5,0,0:0:0:0:
216,346,112731,5,0,0:0:0:0:
211,344,112744,5,0,0:0:0:0:
206,343,112758,5,0,0:0:0:0:
202,341,112771,5,0,0:0:0:0:
197,339,112785,5,0,0:0:0:0:
192,338,112798,5,0,0:0:0:0:
188,336,112812,5,0,0:0:0:0:
183,333,112825,5,0,0:0:0:0:
179,331,112839,5,0,0:0:0:0:
174,328,112852,5,0,0:0:0:0:
170,326,112866,5,0,0:0:0:0:
166,323,112879,5,0,0:0:0:0:
162,320,112893,5,0,0:0:0:0:
158,317,112906,5,0,0:0:0:0:
154,314,112919,5,0,0:0:0:0:
150,311,112933,5,0,0:0:0:0:
147,308,112946,5,0,0:0:0:0:
143,304,112959,5,0,0:0:0:0:
139,300,112973,5,0,0:0:0:0:
136,297,112986,5,0,0:0:0:0:
133,293,112999,5,0,0:0:0:0:
130,289,113013,5,0,0:0:0:0:
127,285,113026,5,0,0:0:0:0:
124,281,113040,5,0,0:0:0:0:
121,277,113053,5,0,0:0:0:0:
119,273,113066,5,0,0:0:0:0:
116,268,113080,5,0,0:0:0:0:
114,264,113093,5,0,0:0:0:0:
111,259,113106,5,0,0:0:0:0:
109,255,113120,5,0,0:0:0:0:
108,250,113133,5,0,0:0:0:0:
106,245,113146,5,0,0:0:0:0:
104,241,113160,5,0,0:0:0:0:
103,236,113173,5,0,0:0:0:0:
101,231,113187,5,0,0:0:0:0:
100,226,113200,5,0,0:0:0:0:
99,221,113213,5,0,0:0:0:0:
98,216,113227,5,0,0:0:0:0:
98,211,113240,5,0,0:0:0:0:
97,206,113253,5,0,0:0:0:0:
97,201,113267,5,0,0:0:0:0:
96,196,113280,5,0,0:0:0:0:
96,191,113293,5,0,0:0:0:0:
96,187,113307,5,0,0:0:0:0:
97,182,113320,5,0,0:0:0:0:
97,177,113333,5,0,0:0:0:0:
98,172,113347,5,0,0:0:0:0:
98,167,113360,5,0,0:0:0:0:
99,162,113374,5,0,0:0:0:0:
100,157,113387,5,0,0:0:0:0:
101,152,113400,5,0,0:0:0:0:
103,147,113414,5,0,0:0:0:0:
104,142,113427,5,0,0:0:0:0:
106,138,113440,5,0,0:0:0:0:
108,133,113454,5,0,0:0:0:0:
109,128,113467,5,0,0:0:0:0:
111,124,113480,5,0,0:0:0:0:
114,119,113493,5,0,0:0:0:0:
116,115,113506,5,0,0:0:0:0:
119,110,113520,5,0,0:0:0:0:
121,106,113533,5,0,0:0:0:0:
124,102,113546,5,0,0:0:0:0:
127,98,113559,5,0,0:0:0:0:
130,94,113573,5,0,0:0:0:0:
133,90,113586,5,0,0:0:0:0:
136,86,113599,5,0,0:0:0:0:
139,83,113612,5,0,0:0:0:0:
143,79,113626,5,0,0:0:0:0:
147,75,113639,5,0,0:0:0:0:
150,72,113652,5,0,0:0:0:0:
154,69,113665,5,0,0:0:0:0:
158,66,113679,5,0,0:0:0:0:
162,63,113692,5,0,0:0:0:0:
166,60,113705,5,0,0:0:0:0:
170,57,113718,5,0,0:0:0:0:
174,55,113731,5,0,0:0:0:0:
179,52,113745,5,0,0:0:0:0:
183,50,113758,5,0,0:0:0:0:
188,47,113771,5,0,0:0:0:0:
192,45,113784,5,0,0:0:0:0:
197,44,113798,5,0,0:0:0:0:
202,42,113811,5,0,0:0:0:0:
206,40,113824,5,0,0:0:0:0:
211,39,113837,5,0,0:0:0:0:
216,37,113851,5,0,0:0:0:0:
221,36,113864,5,0,0:0:0:0:
226,35,113877,5,0,0:0:0:0:
231,34,113890,5,0,0:0:0:0:
236,34,113904,5,0,0:0:0:0:
241,33,113917,5,0,0:0:0:0:
246,33,113930,5,0,0:0:0:0:
251,32,113943,5,0,0:0:0:0:
256,32,113956,5,0,0:0:0:0:
260,32,113970,5,0,0:0:0:0:
265,33,113983,5,0,0:0:0:0:
270,33,113996,5,0,0:0:0:0:
275,34,114009,5,0,0:0:0:0:
280,34,114022,5,0,0:0:0:0:
285,35,114035,5,0,0:0:0:0:
290,36,114048,5,0,0:0:0:0:
295,37,114061,5,0,0:0:0:0:
300,39,114074,5,0,0:0:0:0:
305,40,114088,5,0,0:0:0:0:
309,42,114101,5,0,0:0:0:0:
314,44,114114,5,0,0:0:0:0:
319,45,114127,5,0,0:0:0:0:
323,47,114140,5,0,0:0:0:0:
328,50,114153,5,0,0:0:0:0:
332,52,114166,5,0,0:0:0:0:
337,55,114179,5,0,0:0:0:0:
341,57,114192,5,0,0:0:0:0:
345,60,114206,5,0,0:0:0:0:
349,63,114219,5,0,0:0:0:0:
353,66,114232,5,0,0:0:0:0:
357,69,114245,5,0,0:0:0:0:
361,72,114258,5,0,0:0:0:0:
364,75,114271,5,0,0:0:0:0:
368,79,114284,5,0,0:0:0:0:
372,83,114297,5,0,0:0:0:0:
375,86,114310,5,0,0:0:0:0:
