osu file format v14

[General]
AudioFilename: deltaMAX.mp3
AudioLeadIn: 1000
PreviewTime: 50149
Countdown: 1
SampleSet: None
StackLeniency: 0.2
Mode: 0
LetterboxInBreaks: 1
WidescreenStoryboard: 1

[Editor]
Bookmarks: 11850,28439,41420,52084,61137,75952,87824,97731,106231,113676,116246
DistanceSpacing: 0.5
BeatDivisor: 6
GridSize: 4
TimelineZoom: 8

[Metadata]
Title:deltaMAX
TitleUnicode:deltaMAX
Artist:DM Ashura
ArtistUnicode:DM Ashura
Creator:lsckjy
Version:deathstack 1/6
Source:DDR Forever
Tags:Dance Dance Revolution Universe 3 stepmania ignorethis lzy Doomsday tsuka Frank7654321
BeatmapID:824336
BeatmapSetID:367807

[Difficulty]
HPDrainRate:5
CircleSize:3
OverallDifficulty:0
ApproachRate:0
SliderMultiplier:2
SliderTickRate:0.5

[Events]
//Background and Video events
0,0,"deltaMAX-bg.png",0,0
//Break Periods
//Storyboard Layer 0 (Background)
//Storyboard Layer 1 (Fail)
//Storyboard Layer 2 (Pass)
//Storyboard Layer 3 (Foreground)
Sprite,Foreground,Centre,"nothing.png",320,240 F,0,125410,,0
//Storyboard Sound Samples

[TimingPoints]
315,600,4,1,0,80,1,0
8715,-100,4,1,0,17,0,0
9915,594.088816278034,4,1,0,40,1,1
10509,588.264130594637,4,1,0,40,1,0
11097,582.552551094713,4,1,0,40,1,0
11680,576.950814943026,4,1,0,40,1,0
12257,571.455783608743,4,1,0,40,1,0
12828,566.064437001745,4,1,0,40,1,0
13394,560.773867937754,4,1,0,40,1,0
13955,555.581276910968,4,1,0,40,1,0
14511,550.483967154457,4,1,0,40,1,0
15061,545.479339969999,4,1,0,40,1,0
15606,540.564890310374,4,1,0,40,1,0
16147,535.73820259833,4,1,0,40,1,0
16683,530.996946767556,4,1,0,40,1,0
17214,526.33887451204,4,1,0,40,1,0
17740,521.761815731119,4,1,0,40,1,0
18262,517.263675158412,4,1,0,40,1,0
18779,512.84242916364,4,1,0,40,1,0
19292,508.496122717064,4,1,0,40,1,0
19800,504.222866506996,4,1,0,40,1,0
20304,500.020834201425,4,1,0,40,1,0
20804,495.888259845448,4,1,0,40,1,0
21300,491.823435386696,4,1,0,40,1,0
21792,487.824708321476,4,1,0,40,1,0
22280,483.890479454817,4,1,0,40,1,0
22764,480.019200768031,4,1,0,40,1,0
23244,476.209373387833,4,1,0,40,1,0
23720,472.459545651404,4,1,0,40,1,0
24192,468.768311262159,4,1,0,40,1,0
24661,465.1343075313,4,1,0,40,1,0
25126,461.556213700527,4,1,0,40,1,0
25588,458.032749341578,4,1,0,40,1,0
26046,454.562672828516,4,1,0,40,1,0
26501,451.144779878943,4,1,0,45,1,0
26952,447.777902160528,4,1,0,45,1,0
27400,444.46090595948,4,1,0,45,1,0
27844,441.192690907754,4,1,0,45,1,0
28285,437.972188766013,4,1,0,45,1,0
28723,434.798362259502,4,1,0,45,1,0
29158,431.670203964171,4,1,0,45,1,0
29590,428.586735240544,4,1,0,45,1,0
30019,425.547005212951,4,1,0,45,1,0
30445,422.550089791894,4,1,0,45,1,0
30868,419.595090737438,4,1,0,45,1,0
31288,416.681134761624,4,1,0,45,1,0
31705,413.807372668023,4,1,0,45,1,0
32119,410.972978526662,4,1,0,45,1,0
32530,408.177148882615,4,1,0,45,1,0
32938,405.419101996689,4,1,0,45,1,0
33343,402.698077116682,4,1,0,45,1,0
33746,400.013333777793,4,1,0,45,1,0
34146,397.364151130832,4,1,0,45,1,0
34543,394.749827296951,4,1,0,45,1,0
34938,392.169678747671,4,1,0,45,1,0
35330,389.623039709081,4,1,0,45,1,0
35720,387.109261589084,4,1,0,45,1,0
36107,384.62771242668,4,1,0,45,1,0
36492,382.177776362305,4,1,0,45,1,0
36874,379.758853128264,4,1,0,45,1,0
37254,377.370357558414,4,1,0,45,1,0
37631,375.011719116222,4,1,0,45,1,0
38006,372.682381440417,4,1,0,45,1,0
38379,370.381801907466,4,1,0,45,1,0
38749,368.10945121016,4,1,0,45,1,0
39117,365.864812951614,4,1,0,45,1,0
39483,363.647383254038,4,1,0,50,1,0
39847,361.456670381638,4,1,0,50,1,0
40208,359.292194377077,4,1,0,50,1,0
40567,357.153486710914,4,1,0,50,1,0
40924,355.040089943489,4,1,0,50,1,0
41279,352.951557398747,4,1,0,50,1,0
41632,350.887452849499,4,1,0,50,1,0
41983,348.847350213669,4,1,0,50,1,0
42332,346.830833261077,4,1,0,50,1,0
42679,344.837495330326,4,1,0,50,1,0
43024,342.866939055402,4,1,0,50,1,0
43367,340.918776101594,4,1,0,50,1,0
43708,338.992626910365,4,1,0,50,1,0
44047,337.088120452822,4,1,0,50,1,0
44384,335.204893991452,4,1,0,50,1,0
44719,333.342592849801,4,1,0,50,1,0
45052,331.500870189784,4,1,0,50,1,0
45384,329.679386796341,4,1,0,50,1,0
45714,327.877810869149,4,1,0,50,1,0
46042,326.095817821136,4,1,0,50,1,0
46368,324.333090083516,4,1,0,50,1,0
46692,322.589316917121,4,1,0,50,1,0
47015,320.864194229792,4,1,0,50,1,0
47336,319.157424399585,4,1,0,50,1,0
47655,317.468716103601,4,1,0,50,1,0
47972,315.797784152215,4,1,0,50,1,0
48288,314.144349328516,4,1,0,50,1,0
48602,312.508138232766,4,1,0,50,1,0
48915,310.888883131687,4,1,0,50,1,0
49226,309.286321812418,4,1,0,50,1,0
49535,307.70019744096,4,1,0,50,1,0
49843,306.13025842496,4,1,0,50,1,0
50149,304.576258280667,4,1,0,55,1,1
50454,303.037955503927,4,1,0,55,1,1
50757,301.515113445061,4,1,0,55,1,1
51059,300.007500187505,4,1,0,55,1,1
51359,298.51488843006,4,1,0,55,1,1
51658,297.037055372658,4,1,0,55,1,1
51955,295.573782605483,4,1,0,55,1,1
52251,294.124856001373,4,1,0,55,1,1
52545,292.690065611356,4,1,0,55,1,1
52838,291.269205563242,4,1,0,55,1,1
53129,289.862073963139,4,1,0,55,1,1
53419,288.468472799827,4,1,0,55,1,1
53707,287.088207851862,4,1,0,55,1,1
53994,285.721088597348,4,1,0,55,1,1
54280,284.366928126259,4,1,0,55,1,1
54564,283.025543055261,4,1,0,55,1,1
54847,281.696753444917,4,1,0,55,1,1
55129,280.380382719222,4,1,0,55,1,1
55409,279.076257587386,4,1,0,55,1,1
55688,277.784207967777,4,1,0,55,1,1
55966,276.504066913984,4,1,0,55,1,1
56243,275.235670542902,4,1,0,55,1,1
56518,273.978857964794,4,1,0,55,1,1
56792,272.733471215255,4,1,0,55,1,1
57065,271.499355189031,4,1,0,55,1,1
57336,270.276357575621,4,1,0,55,1,1
57606,269.06432879661,4,1,0,55,1,1
57875,267.863121944686,4,1,0,55,1,1
58143,266.672592724283,4,1,0,55,1,1
58410,265.492599393792,4,1,0,55,1,1
58675,264.323002709311,4,1,0,55,1,1
58939,263.163665869866,4,1,0,55,1,1
59202,262.014454464071,4,1,0,60,1,1
59202,-200,4,1,0,60,0,1
59464,260.875236418183,4,1,0,60,1,0
59725,259.745881945497,4,1,0,60,1,0
59985,258.626263497058,4,1,0,60,1,0
60244,257.516255713642,4,1,0,60,1,0
60502,256.415735378961,4,1,0,60,1,0
60758,255.324581374072,4,1,0,60,1,0
61013,254.242674632937,4,1,0,60,1,0
61267,253.169898099116,4,1,0,60,1,0
61267,-200,4,1,0,60,0,0
61520,252.106136683544,4,1,0,60,1,0
61772,251.051277223373,4,1,0,60,1,0
62023,250.005208441843,4,1,0,60,1,0
62273,248.967820909147,4,1,0,60,1,0
62522,247.939007004277,4,1,0,60,1,0
62770,246.918660877796,4,1,0,60,1,0
63017,245.906678415541,4,1,0,60,1,0
63262,244.902957203208,4,1,0,60,1,0
63262,-200,4,1,0,60,0,0
63508,243.907396491799,4,1,0,60,1,0
63752,242.91989716391,4,1,0,60,1,0
63995,241.940361700841,4,1,0,60,1,0
64237,240.968694150485,4,1,0,60,1,0
64478,240.004800096002,4,1,0,60,1,0
64718,239.048586625232,4,1,0,60,1,0
64957,238.099962300839,4,1,0,60,1,0
65195,237.158837131169,4,1,0,60,1,0
65195,-200,4,1,0,60,0,0
65432,236.225122541782,4,1,0,60,1,0
65668,235.298731347673,4,1,0,60,1,0
65903,234.379577726127,4,1,0,60,1,0
66137,233.467577190218,4,1,0,60,1,0
66370,232.562646562918,4,1,0,60,1,0
66603,231.664703951814,4,1,0,60,1,0
66835,230.773668724399,4,1,0,60,1,0
67066,229.889461483936,4,1,0,60,1,0
67066,-200,4,1,0,60,0,0
67296,229.012004045879,4,1,0,60,1,0
67525,228.141219414818,4,1,0,60,1,0
67753,227.277031761965,4,1,0,60,1,0
67980,226.41936640314,4,1,0,60,1,0
68206,225.568149777251,4,1,0,60,1,0
68432,224.72330942527,4,1,0,60,1,0
68657,223.884773969664,4,1,0,60,1,0
68881,223.052473094295,4,1,0,60,1,0
68881,-200,4,1,0,60,0,0
69104,222.226337524769,4,1,0,60,1,0
69326,221.406299009207,4,1,0,60,1,0
69547,220.592290299454,4,1,0,60,1,0
69768,219.784245132695,4,1,0,60,1,0
69988,218.982098213471,4,1,0,60,1,0
70207,218.185785196094,4,1,0,60,1,0
70425,217.39524266744,4,1,0,60,1,0
70642,216.610408130111,4,1,0,60,1,0
70642,-200,4,1,0,60,0,0
70859,215.831219985971,4,1,0,60,1,0
71075,215.057617520027,4,1,0,60,1,0
71290,214.289540884659,4,1,0,60,1,0
71504,213.526931084183,4,1,0,60,1,0
71718,212.769729959751,4,1,0,60,1,0
71931,212.017880174561,4,1,0,60,1,0
72143,211.271325199387,4,1,0,60,1,0
72354,210.530009298409,4,1,0,60,1,0
72354,-200,4,1,0,60,0,0
72565,209.793877515341,4,1,0,60,1,0
72775,209.062875659855,4,1,0,60,1,0
72984,208.336950294276,4,1,0,60,1,0
73192,207.616048720566,4,1,0,60,1,0
73400,206.900118967568,4,1,0,60,1,0
73607,206.189109778519,4,1,0,60,1,0
73813,205.482970598812,4,1,0,60,1,0
74018,204.78165156402,4,1,0,65,1,0
74223,204.085103488155,4,1,1,65,1,0
74427,203.393277852167,4,1,1,65,1,0
74630,202.706126792682,4,1,1,65,1,0
74833,202.023603090961,4,1,1,65,1,0
75035,201.345660162083,4,1,1,65,1,0
75236,200.672252044349,4,1,1,65,1,0
75437,200.00333338889,4,1,1,65,1,0
75637,199.338859449493,4,1,1,65,1,0
75836,198.678786072617,4,1,1,65,1,0
76035,198.023069687619,4,1,1,65,1,0
76233,197.371667297159,4,1,1,65,1,0
76430,196.724536467811,4,1,1,65,1,0
76627,196.081635320839,4,1,1,65,1,0
76823,195.442922523168,4,1,1,65,1,0
77018,194.808357278527,4,1,1,65,1,0
77213,194.177899318759,4,1,1,65,1,0
77407,193.551508895305,4,1,1,65,1,0
77601,192.929146770848,4,1,1,65,1,0
77794,192.310774211125,4,1,1,65,1,0
77986,191.696352976885,4,1,1,65,1,0
78178,191.085845316008,4,1,1,65,1,0
78369,190.479213955777,4,1,1,65,1,0
78559,189.876422095286,4,1,1,65,1,0
78749,189.277433398003,4,1,1,65,1,0
78938,188.682211984465,4,1,1,65,1,0
79127,188.090722425116,4,1,1,65,1,0
79315,187.502929733277,4,1,1,65,1,0
79503,186.918799358245,4,1,1,65,1,0
79690,186.338297178528,4,1,1,65,1,0
79876,185.761389495193,4,1,1,65,1,0
80062,185.188043025355,4,1,1,65,1,0
80247,184.618224895768,4,1,1,65,1,0
80432,184.051902636544,4,1,1,65,1,0
80616,183.489044174987,4,1,1,65,1,0
80799,182.92961782954,4,1,1,65,1,0
80982,182.373592303834,4,1,1,65,1,0
81164,181.820936680859,4,1,1,65,1,0
81346,181.271620417227,4,1,1,65,1,0
81527,180.72561333755,4,1,1,65,1,0
81708,180.182885628913,4,1,1,65,1,0
81888,179.643407835447,4,1,1,65,1,0
82068,179.107150852998,4,1,1,65,1,0
82247,178.574085923898,4,1,1,65,1,0
82426,178.044184631819,4,1,1,65,1,0
82604,177.517418896729,4,1,1,65,1,0
82782,176.993760969926,4,1,1,65,1,0
82959,176.473183429168,4,1,1,65,1,0
83135,175.955659173888,4,1,1,65,1,0
83311,175.441161420489,4,1,1,65,1,0
83486,174.929663697722,4,1,1,65,1,0
83661,174.421139842149,4,1,1,65,1,0
83835,173.915563993681,4,1,1,65,1,0
84009,173.412910591194,4,1,1,65,1,0
84182,172.913154368219,4,1,1,65,1,0
84355,172.416270348712,4,1,1,65,1,0
84527,171.922233842892,4,1,1,65,1,0
84699,171.431020443149,4,1,1,65,1,0
84870,170.942606020029,4,1,1,65,1,0
85041,170.456966718277,4,1,1,65,1,0
85211,169.97407895296,4,1,1,65,1,0
85381,169.493919405641,4,1,1,65,1,0
85550,169.016465020634,4,1,1,65,1,0
85719,168.541693001306,4,1,1,65,1,0
85888,168.069580806454,4,1,1,70,1,1
86056,167.600106146734,4,1,1,70,1,1
86224,167.133246981156,4,1,1,70,1,1
86391,166.668981513632,4,1,1,70,1,1
86558,166.207288189587,4,1,1,70,1,1
86724,165.74814569262,4,1,1,70,1,1
86890,165.291532941225,4,1,1,70,1,1
87055,164.837429085564,4,1,1,70,1,1
87220,164.385813504295,4,1,1,70,1,1
87384,163.936665801445,4,1,1,70,1,1
87548,163.489965803349,4,1,1,70,1,1
87711,163.045693555619,4,1,1,70,1,1
87874,162.60382932018,4,1,1,70,1,1
88037,162.164353572346,4,1,1,70,1,1
88199,161.727246997938,4,1,1,70,1,1
88361,161.292490490464,4,1,1,70,1,1
88522,160.860065148326,4,1,1,70,1,1
88683,160.429952272089,4,1,1,70,1,1
88843,160.002133361778,4,1,1,70,1,1
89003,159.57659011423,4,1,1,70,1,1
89163,159.153304420483,4,1,1,70,1,1
89322,158.732258363206,4,1,1,70,1,1
89481,158.313434214172,4,1,1,70,1,1
89639,157.896814431769,4,1,1,70,1,1
89797,157.482381658552,4,1,1,70,1,1
89954,157.070118718831,4,1,1,70,1,1
90111,156.6600086163,4,1,1,70,1,1
90268,156.2520345317,4,1,1,70,1,1
90424,155.846179820517,4,1,1,70,1,1
90580,155.442428010726,4,1,1,70,1,1
90735,155.040762800553,4,1,1,70,1,1
90890,154.641168056289,4,1,1,70,1,1
91045,154.243627810126,4,1,1,70,1,1
91199,153.848126258029,4,1,1,70,1,1
91353,153.454647757644,4,1,1,70,1,1
91506,153.063176826235,4,1,1,70,1,1
91659,152.673698138653,4,1,1,70,1,1
91812,152.286196525337,4,1,1,70,1,1
91964,151.900656970341,4,1,1,70,1,1
92116,151.517064609402,4,1,1,70,1,1
92268,151.135404728019,4,1,1,70,1,1
92419,150.755662759582,4,1,1,70,1,1
92570,150.377824283512,4,1,1,70,1,1
92720,150.001875023438,4,1,1,70,1,1
92870,149.627800845397,4,1,1,70,1,1
93020,149.255587756067,4,1,1,70,1,1
93169,148.885221901016,4,1,1,70,1,1
93318,148.51668956299,4,1,1,70,1,1
93467,148.149977160212,4,1,1,70,1,1
93615,147.78507124472,4,1,1,70,1,1
93763,147.421958500719,4,1,1,70,1,1
93910,147.060625742963,4,1,1,70,1,1
94057,146.701059915158,4,1,1,70,1,1
94204,146.343248088391,4,1,1,70,1,1
94350,145.98717745958,4,1,1,70,1,1
94496,145.632835349944,4,1,1,70,1,1
94642,145.280209203501,4,1,1,70,1,1
94787,144.929286585587,4,1,1,70,1,1
94932,144.580055181388,4,1,1,70,1,1
95077,144.232502794505,4,1,1,70,1,1
95221,143.886617345532,4,1,1,70,1,1
95365,143.542386870656,4,1,1,70,1,1
95509,143.199799520281,4,1,1,70,1,1
95652,142.858843557661,4,1,1,70,1,1
95795,142.51950735757,4,1,1,75,1,1
95938,142.181779404969,4,1,1,75,1,1
96080,141.845648293715,4,1,1,75,1,1
96222,141.511102725268,4,1,1,75,1,1
96364,141.178131507429,4,1,1,75,1,1
96505,140.846723553093,4,1,1,75,1,1
96646,140.516867879015,4,1,1,75,1,1
96787,140.188553604598,4,1,1,75,1,1
96927,139.861769950699,4,1,1,75,1,1
97067,139.536506238445,4,1,1,75,1,1
97207,139.212751888073,4,1,1,75,1,1
97346,138.890496417783,4,1,1,75,1,1
97485,138.569729442603,4,1,1,75,1,1
97624,138.25044067328,4,1,1,75,1,1
97762,137.932619915171,4,1,1,75,1,1
97900,137.616257067168,4,1,1,75,1,1
98038,137.301342120619,4,1,1,75,1,1
98175,136.987865158278,4,1,1,75,1,1
98312,136.675816353261,4,1,1,75,1,1
98449,136.365185968022,4,1,1,75,1,1
98585,136.055964353337,4,1,1,75,1,1
98721,135.748141947307,4,1,1,75,1,1
98857,135.441709274371,4,1,1,75,1,1
98992,135.136656944335,4,1,1,75,1,1
99127,134.832975651412,4,1,1,75,1,1
99262,134.530656173275,4,1,1,75,1,1
99397,134.229689370127,4,1,1,75,1,1
99531,133.930066183774,4,1,1,75,1,1
99665,133.631777636722,4,1,1,75,1,1
99799,133.334814831276,4,1,1,75,1,1
99932,133.039168948658,4,1,1,75,1,1
100065,132.744831248133,4,1,1,75,1,1
100198,132.451793066149,4,1,1,75,1,1
100330,132.160045815483,4,1,1,75,1,1
100462,131.869580984406,4,1,1,75,1,1
100594,131.580390135857,4,1,1,75,1,1
100726,131.292464906618,4,1,1,75,1,1
100857,131.005797006518,4,1,1,75,1,1
100988,130.720378217628,4,1,1,75,1,1
101119,130.436200393483,4,1,1,75,1,1
101249,130.153255458302,4,1,1,75,1,1
101379,129.871535406227,4,1,1,75,1,1
101509,129.591032300565,4,1,1,75,1,1
101639,129.311738273042,4,1,1,75,1,1
101768,129.03364552307,4,1,1,75,1,1
101897,128.756746317021,4,1,1,75,1,1
102026,128.481032987505,4,1,1,75,1,1
102154,128.20649793267,4,1,1,75,1,1
102282,127.933133615497,4,1,1,75,1,1
102410,127.660932563112,4,1,1,75,1,1
102538,127.389887366108,4,1,1,75,1,1
102665,127.119990677867,4,1,1,75,1,1
102792,126.851235213903,4,1,1,75,1,1
102919,126.5836137512,4,1,1,75,1,1
103046,126.31711912757,4,1,1,75,1,1
103172,126.051744241011,4,1,1,75,1,1
103298,125.787482049078,4,1,1,75,1,1
103424,125.524325568259,4,1,1,75,1,1
103550,125.26226787336,4,1,1,75,1,1
103675,125.001302096897,4,1,1,75,1,1
103800,124.741421428497,4,1,1,75,1,1
103925,124.482619114306,4,1,1,75,1,1
104049,124.224888456402,4,1,1,75,1,1
104173,123.968222812219,4,1,1,75,1,1
104297,123.712615593975,4,1,1,80,1,1
104421,123.45806026811,4,1,1,80,1,1
104544,123.204550354726,4,1,1,80,1,1
104667,122.952079427043,4,1,1,80,1,1
104790,122.70064111085,4,1,1,80,1,1
104913,122.45022908397,4,1,1,80,1,1
105035,122.200837075734,4,1,1,80,1,1
105157,121.952458866452,4,1,1,80,1,1
105279,121.705088286899,4,1,1,80,1,1
105401,121.458719217806,4,1,1,80,1,1
105522,121.213345589349,4,1,1,80,1,1
105643,120.968961380659,4,1,1,80,1,1
105764,120.725560619322,4,1,1,80,1,1
105885,120.483137380897,4,1,1,80,1,1
106005,120.241685788435,4,1,1,80,1,1
106125,120.001200012,4,1,1,80,1,1
106245,119.761674268206,4,1,1,80,1,1
106365,119.523102819749,4,1,1,80,1,1
106485,119.28547997495,4,1,1,80,1,1
106604,119.048800087302,4,1,1,80,1,1
106723,118.813057555025,4,1,1,80,1,1
106842,118.578246820621,4,1,1,80,1,1
106961,118.344362370438,4,1,1,80,1,1
107079,118.11139873424,4,1,1,80,1,1
107197,117.879350484779,4,1,1,80,1,1
107315,117.648212237375,4,1,1,80,1,1
107433,117.417978649498,4,1,1,80,1,1
107550,117.188644420356,4,1,1,80,1,1
107667,116.96020429049,4,1,1,80,1,1
107784,116.732653041372,4,1,1,80,1,1
107901,116.505985495005,4,1,1,80,1,1
108018,116.280196513532,4,1,1,80,1,1
108134,116.055280998849,4,1,1,80,1,1
108250,115.831233892219,4,1,1,80,1,1
108366,115.608050173894,4,1,1,80,1,1
108482,115.385724862739,4,1,1,80,1,1
108597,115.164253015864,4,1,1,80,1,1
108712,114.943629728254,4,1,1,80,1,1
108827,114.72385013241,4,1,1,80,1,1
108942,114.50490939799,4,1,1,80,1,1
109057,114.286802731455,4,1,1,80,1,1
109171,114.069525375716,4,1,1,80,1,1
109285,113.853072609797,4,1,1,80,1,1
109399,113.637439748482,4,1,1,80,1,1
109513,113.422622141986,4,1,1,80,1,1
109626,113.208615175615,4,1,1,80,1,1
109739,112.995414269438,4,1,1,80,1,1
109852,112.783014877959,4,1,1,80,1,1
109965,112.571412489798,4,1,1,80,1,1
110078,112.360602627365,4,1,1,80,1,1
110190,112.15058084655,4,1,1,80,1,1
110302,111.941342736406,4,1,1,80,1,1
110414,111.732883918845,4,1,1,80,1,1
110526,111.525200048328,4,1,1,80,1,1
110638,111.318286811566,4,1,1,80,1,1
110749,111.112139927222,4,1,1,80,1,1
110860,110.906755145611,4,1,1,80,1,1
110971,110.702128248416,4,1,1,80,1,1
111082,110.498255048389,4,1,1,80,1,1
111192,110.295131389075,4,1,1,80,1,1
111302,110.092753144524,4,1,1,80,1,1
111412,109.891116219013,4,1,1,80,1,1
111522,109.690216546769,4,1,1,80,1,1
111632,109.490050091698,4,1,1,80,1,1
111741,109.290612847112,4,1,1,90,1,1
111850,109.091900835462,4,1,1,90,1,1
111959,108.893910108077,4,1,1,90,1,1
112068,108.696636744898,4,1,1,90,1,1
112177,108.500076854221,4,1,1,90,1,1
112286,108.304226572442,4,1,1,90,1,1
112394,108.109082063802,4,1,1,90,1,1
112502,107.91463952014,4,1,1,90,1,1
112610,107.720895160639,4,1,1,90,1,1
112718,107.527845231588,4,1,1,90,1,1
112826,107.335486006136,4,1,1,90,1,1
112933,107.143813784052,4,1,1,90,1,1
113040,106.952824891487,4,1,1,90,1,1
113147,106.762515680744,4,1,1,90,1,1
113254,106.57288253004,4,1,1,90,1,1
113361,106.383921843279,4,1,1,90,1,1
113467,106.195630049823,4,1,1,90,1,1
113573,106.008003604272,4,1,1,90,1,1
113679,105.821038986234,4,1,1,90,1,1
113785,105.634732700112,4,1,1,90,1,1
113891,105.449081274879,4,1,1,90,1,1
113996,105.264081263871,4,1,1,90,1,1
114101,105.079729244564,4,1,1,90,1,1
114206,104.896021818373,4,1,1,90,1,1
114311,104.712041884817,4,1,0,100,1,1
114337,-100,4,1,1,100,0,0

[Colours]
Combo1 : 0,255,0
Combo2 : 244,0,6
Combo3 : 129,69,252
Combo4 : 255,255,255

[HitObjects]
415,198,9915,5,0,0:0:0:0:
414,205,10014,1,0,0:0:0:0:
413,211,10113,1,0,0:0:0:0:
412,218,10212,1,0,0:0:0:0:
411,225,10311,1,0,0:0:0:0:
410,231,10410,1,0,0:0:0:0:
408,238,10509,1,0,0:0:0:0:
406,244,10607,1,0,0:0:0:0:
403,250,10705,1,0,0:0:0:0:
401,256,10803,1,0,0:0:0:0:
398,262,10901,1,0,0:0:0:0:
395,268,10999,1,0,0:0:0:0:
392,274,11097,1,0,0:0:0:0:
388,280,11194,1,0,0:0:0:0:
384,285,11291,1,0,0:0:0:0:
380,290,11388,1,0,0:0:0:0:
376,296,11485,1,0,0:0:0:0:
372,300,11582,1,0,0:0:0:0:
367,305,11680,1,0,0:0:0:0:
362,310,11776,1,0,0:0:0:0:
357,314,11872,1,0,0:0:0:0:
352,318,11968,1,0,0:0:0:0:
346,322,12064,1,0,0:0:0:0:
341,326,12160,1,0,0:0:0:0:
335,329,12257,1,0,0:0:0:0:
329,333,12352,1,0,0:0:0:0:
323,336,12447,1,0,0:0:0:0:
317,338,12542,1,0,0:0:0:0:
311,341,12637,1,0,0:0:0:0:
305,343,12733,1,0,0:0:0:0:
298,345,12828,1,0,0:0:0:0:
292,346,12922,1,0,0:0:0:0:
285,348,13016,1,0,0:0:0:0:
279,349,13111,1,0,0:0:0:0:
272,350,13205,1,0,0:0:0:0:
265,350,13299,1,0,0:0:0:0:
259,351,13394,1,0,0:0:0:0:
252,351,13487,1,0,0:0:0:0:
246,350,13580,1,0,0:0:0:0:
239,350,13674,1,0,0:0:0:0:
232,349,13767,1,0,0:0:0:0:
226,348,13861,1,0,0:0:0:0:
219,346,13955,1,0,0:0:0:0:
213,345,14047,1,0,0:0:0:0:
206,343,14140,1,0,0:0:0:0:
200,341,14232,1,0,0:0:0:0:
194,338,14325,1,0,0:0:0:0:
188,336,14417,1,0,0:0:0:0:
182,333,14511,1,0,0:0:0:0:
176,329,14602,1,0,0:0:0:0:
170,326,14694,1,0,0:0:0:0:
165,322,14786,1,0,0:0:0:0:
159,318,14877,1,0,0:0:0:0:
154,314,14969,1,0,0:0:0:0:
149,310,15061,1,0,0:0:0:0:
144,305,15151,1,0,0:0:0:0:
139,300,15242,1,0,0:0:0:0:
135,296,15333,1,0,0:0:0:0:
131,290,15424,1,0,0:0:0:0:
127,285,15515,1,0,0:0:0:0:
123,280,15606,1,0,0:0:0:0:
119,274,15696,1,0,0:0:0:0:
116,268,15786,1,0,0:0:0:0:
113,262,15876,1,0,0:0:0:0:
110,256,15966,1,0,0:0:0:0:
108,250,16056,1,0,0:0:0:0:
105,244,16147,1,0,0:0:0:0:
103,238,16236,1,0,0:0:0:0:
101,231,16325,1,0,0:0:0:0:
100,225,16414,1,0,0:0:0:0:
99,218,16504,1,0,0:0:0:0:
98,211,16593,1,0,0:0:0:0:
97,205,16683,1,0,0:0:0:0:
96,198,16771,1,0,0:0:0:0:
96,191,16859,1,0,0:0:0:0:
96,185,16948,1,0,0:0:0:0:
97,178,17036,1,0,0:0:0:0:
98,172,17125,1,0,0:0:0:0:
99,165,17214,1,0,0:0:0:0:
100,158,17301,1,0,0:0:0:0:
101,152,17389,1,0,0:0:0:0:
103,145,17477,1,0,0:0:0:0:
105,139,17564,1,0,0:0:0:0:
108,133,17652,1,0,0:0:0:0:
110,127,17740,1,0,0:0:0:0:
113,121,17826,1,0,0:0:0:0:
116,115,17913,1,0,0:0:0:0:
119,109,18000,1,0,0:0:0:0:
123,103,18087,1,0,0:0:0:0:
127,98,18174,1,0,0:0:0:0:
131,93,18262,1,0,0:0:0:0:
135,87,18348,1,0,0:0:0:0:
139,83,18434,1,0,0:0:0:0:
144,78,18520,1,0,0:0:0:0:
149,73,18606,1,0,0:0:0:0:
154,69,18693,1,0,0:0:0:0:
159,65,18779,1,0,0:0:0:0:
165,61,18864,1,0,0:0:0:0:
170,57,18949,1,0,0:0:0:0:
176,54,19035,1,0,0:0:0:0:
182,50,19120,1,0,0:0:0:0:
188,47,19206,1,0,0:0:0:0:
194,45,19292,1,0,0:0:0:0:
200,42,19376,1,0,0:0:0:0:
206,40,19461,1,0,0:0:0:0:
213,38,19546,1,0,0:0:0:0:
219,37,19630,1,0,0:0:0:0:
226,35,19715,1,0,0:0:0:0:
232,34,19800,1,0,0:0:0:0:
239,33,19884,1,0,0:0:0:0:
246,33,19968,1,0,0:0:0:0:
252,32,20052,1,0,0:0:0:0:
259,32,20136,1,0,0:0:0:0:
265,33,20220,1,0,0:0:0:0:
272,33,20304,1,0,0:0:0:0:
279,34,20387,1,0,0:0:0:0:
285,35,20470,1,0,0:0:0:0:
292,37,20554,1,0,0:0:0:0:
298,38,20637,1,0,0:0:0:0:
305,40,20720,1,0,0:0:0:0:
311,42,20804,1,0,0:0:0:0:
317,45,20886,1,0,0:0:0:0:
323,47,20969,1,0,0:0:0:0:
329,50,21051,1,0,0:0:0:0:
335,54,21134,1,0,0:0:0:0:
341,57,21217,1,0,0:0:0:0:
346,61,21300,1,0,0:0:0:0:
352,65,21381,1,0,0:0:0:0:
357,69,21463,1,0,0:0:0:0:
362,73,21545,1,0,0:0:0:0:
367,78,21627,1,0,0:0:0:0:
372,83,21709,1,0,0:0:0:0:
376,87,21792,1,0,0:0:0:0:
380,93,21873,1,0,0:0:0:0:
384,98,21954,1,0,0:0:0:0:
388,103,22035,1,0,0:0:0:0:
392,109,22117,1,0,0:0:0:0:
395,115,22198,1,0,0:0:0:0:
398,121,22280,1,0,0:0:0:0:
401,127,22360,1,0,0:0:0:0:
403,133,22441,1,0,0:0:0:0:
406,139,22521,1,0,0:0:0:0:
408,145,22602,1,0,0:0:0:0:
410,152,22683,1,0,0:0:0:0:
411,158,22764,1,0,0:0:0:0:
412,165,22844,1,0,0:0:0:0:
413,172,22924,1,0,0:0:0:0:
414,178,23004,1,0,0:0:0:0:
415,185,23084,1,0,0:0:0:0:
415,192,23164,1,0,0:0:0:0:
415,198,23244,1,0,0:0:0:0:
414,205,23323,1,0,0:0:0:0:
413,211,23402,1,0,0:0:0:0:
412,218,23482,1,0,0:0:0:0:
411,225,23561,1,0,0:0:0:0:
410,231,23640,1,0,0:0:0:0:
408,238,23720,1,0,0:0:0:0:
406,244,23798,1,0,0:0:0:0:
403,250,23877,1,0,0:0:0:0:
401,256,23956,1,0,0:0:0:0:
398,262,24034,1,0,0:0:0:0:
395,268,24113,1,0,0:0:0:0:
392,274,24192,1,0,0:0:0:0:
388,280,24270,1,0,0:0:0:0:
384,285,24348,1,0,0:0:0:0:
380,290,24426,1,0,0:0:0:0:
376,296,24504,1,0,0:0:0:0:
372,300,24582,1,0,0:0:0:0:
367,305,24661,1,0,0:0:0:0:
362,310,24738,1,0,0:0:0:0:
357,314,24816,1,0,0:0:0:0:
352,318,24893,1,0,0:0:0:0:
346,322,24971,1,0,0:0:0:0:
341,326,25048,1,0,0:0:0:0:
335,329,25126,1,0,0:0:0:0:
329,333,25202,1,0,0:0:0:0:
323,336,25279,1,0,0:0:0:0:
317,338,25356,1,0,0:0:0:0:
311,341,25433,1,0,0:0:0:0:
305,343,25510,1,0,0:0:0:0:
298,345,25588,1,0,0:0:0:0:
292,346,25664,1,0,0:0:0:0:
285,348,25740,1,0,0:0:0:0:
279,349,25817,1,0,0:0:0:0:
272,350,25893,1,0,0:0:0:0:
265,350,25969,1,0,0:0:0:0:
259,351,26046,1,0,0:0:0:0:
252,351,26121,1,0,0:0:0:0:
246,350,26197,1,0,0:0:0:0:
239,350,26273,1,0,0:0:0:0:
232,349,26349,1,0,0:0:0:0:
226,348,26424,1,0,0:0:0:0:
219,346,26501,1,0,0:0:0:0:
213,345,26576,1,0,0:0:0:0:
206,343,26651,1,0,0:0:0:0:
200,341,26726,1,0,0:0:0:0:
194,338,26801,1,0,0:0:0:0:
188,336,26876,1,0,0:0:0:0:
182,333,26952,1,0,0:0:0:0:
176,329,27026,1,0,0:0:0:0:
170,326,27101,1,0,0:0:0:0:
165,322,27175,1,0,0:0:0:0:
159,318,27250,1,0,0:0:0:0:
154,314,27325,1,0,0:0:0:0:
149,310,27400,1,0,0:0:0:0:
144,305,27474,1,0,0:0:0:0:
139,300,27548,1,0,0:0:0:0:
135,296,27622,1,0,0:0:0:0:
131,290,27696,1,0,0:0:0:0:
127,285,27770,1,0,0:0:0:0:
123,280,27844,1,0,0:0:0:0:
119,274,27917,1,0,0:0:0:0:
116,268,27991,1,0,0:0:0:0:
113,262,28064,1,0,0:0:0:0:
110,256,28138,1,0,0:0:0:0:
108,250,28211,1,0,0:0:0:0:
105,244,28285,1,0,0:0:0:0:
103,238,28357,1,0,0:0:0:0:
101,231,28430,1,0,0:0:0:0:
100,225,28503,1,0,0:0:0:0:
99,218,28576,1,0,0:0:0:0:
98,211,28649,1,0,0:0:0:0:
97,205,28723,1,0,0:0:0:0:
96,198,28795,1,0,0:0:0:0:
96,191,28867,1,0,0:0:0:0:
96,185,28940,1,0,0:0:0:0:
97,178,29012,1,0,0:0:0:0:
98,172,29085,1,0,0:0:0:0:
99,165,29158,1,0,0:0:0:0:
100,158,29229,1,0,0:0:0:0:
101,152,29301,1,0,0:0:0:0:
103,145,29373,1,0,0:0:0:0:
105,139,29445,1,0,0:0:0:0:
108,133,29517,1,0,0:0:0:0:
110,127,29590,1,0,0:0:0:0:
113,121,29661,1,0,0:0:0:0:
116,115,29732,1,0,0:0:0:0:
119,109,29804,1,0,0:0:0:0:
123,103,29875,1,0,0:0:0:0:
127,98,29947,1,0,0:0:0:0:
131,93,30019,1,0,0:0:0:0:
135,87,30089,1,0,0:0:0:0:
139,83,30160,1,0,0:0:0:0:
144,78,30231,1,0,0:0:0:0:
149,73,30302,1,0,0:0:0:0:
154,69,30373,1,0,0:0:0:0:
159,65,30445,1,0,0:0:0:0:
165,61,30515,1,0,0:0:0:0:
170,57,30585,1,0,0:0:0:0:
176,54,30656,1,0,0:0:0:0:
182,50,30726,1,0,0:0:0:0:
188,47,30797,1,0,0:0:0:0:
194,45,30868,1,0,0:0:0:0:
200,42,30937,1,0,0:0:0:0:
206,40,31007,1,0,0:0:0:0:
213,38,31077,1,0,0:0:0:0:
219,37,31147,1,0,0:0:0:0:
226,35,31217,1,0,0:0:0:0:
232,34,31288,1,0,0:0:0:0:
239,33,31357,1,0,0:0:0:0:
246,33,31426,1,0,0:0:0:0:
252,32,31496,1,0,0:0:0:0:
259,32,31565,1,0,0:0:0:0:
265,33,31635,1,0,0:0:0:0:
272,33,31705,1,0,0:0:0:0:
279,34,31773,1,0,0:0:0:0:
285,35,31842,1,0,0:0:0:0:
292,37,31911,1,0,0:0:0:0:
298,38,31980,1,0,0:0:0:0:
305,40,32049,1,0,0:0:0:0:
311,42,32119,1,0,0:0:0:0:
317,45,32187,1,0,0:0:0:0:
323,47,32255,1,0,0:0:0:0:
329,50,32324,1,0,0:0:0:0:
335,54,32392,1,0,0:0:0:0:
341,57,32461,1,0,0:0:0:0:
346,61,32530,1,0,0:0:0:0:
352,65,32598,1,0,0:0:0:0:
357,69,32666,1,0,0:0:0:0:
362,73,32734,1,0,0:0:0:0:
367,78,32802,1,0,0:0:0:0:
372,83,32870,1,0,0:0:0:0:
376,87,32938,1,0,0:0:0:0:
380,93,33005,1,0,0:0:0:0:
384,98,33073,1,0,0:0:0:0:
388,103,33140,1,0,0:0:0:0:
392,109,33208,1,0,0:0:0:0:
395,115,33275,1,0,0:0:0:0:
398,121,33343,1,0,0:0:0:0:
401,127,33410,1,0,0:0:0:0:
403,133,33477,1,0,0:0:0:0:
406,139,33544,1,0,0:0:0:0:
408,145,33611,1,0,0:0:0:0:
410,152,33678,1,0,0:0:0:0:
411,158,33746,1,0,0:0:0:0:
412,165,33812,1,0,0:0:0:0:
413,172,33879,1,0,0:0:0:0:
414,178,33946,1,0,0:0:0:0:
415,185,34012,1,0,0:0:0:0:
415,192,34079,1,0,0:0:0:0:
415,198,34146,1,0,0:0:0:0:
414,205,34212,1,0,0:0:0:0:
413,211,34278,1,0,0:0:0:0:
412,218,34344,1,0,0:0:0:0:
411,225,34410,1,0,0:0:0:0:
410,231,34477,1,0,0:0:0:0:
408,238,34543,1,0,0:0:0:0:
406,244,34608,1,0,0:0:0:0:
403,250,34674,1,0,0:0:0:0:
401,256,34740,1,0,0:0:0:0:
398,262,34806,1,0,0:0:0:0:
395,268,34871,1,0,0:0:0:0:
392,274,34937,1,0,0:0:0:0:
388,280,35003,1,0,0:0:0:0:
384,285,35068,1,0,0:0:0:0:
380,290,35134,1,0,0:0:0:0:
376,296,35199,1,0,0:0:0:0:
372,300,35264,1,0,0:0:0:0:
367,305,35330,1,0,0:0:0:0:
362,310,35394,1,0,0:0:0:0:
357,314,35459,1,0,0:0:0:0:
352,318,35524,1,0,0:0:0:0:
346,322,35589,1,0,0:0:0:0:
341,326,35654,1,0,0:0:0:0:
335,329,35720,1,0,0:0:0:0:
329,333,35784,1,0,0:0:0:0:
323,336,35849,1,0,0:0:0:0:
317,338,35913,1,0,0:0:0:0:
311,341,35978,1,0,0:0:0:0:
305,343,36042,1,0,0:0:0:0:
298,345,36107,1,0,0:0:0:0:
292,346,36171,1,0,0:0:0:0:
285,348,36235,1,0,0:0:0:0:
279,349,36299,1,0,0:0:0:0:
272,350,36363,1,0,0:0:0:0:
265,350,36427,1,0,0:0:0:0:
259,351,36492,1,0,0:0:0:0:
252,351,36555,1,0,0:0:0:0:
246,350,36619,1,0,0:0:0:0:
239,350,36683,1,0,0:0:0:0:
232,349,36746,1,0,0:0:0:0:
226,348,36810,1,0,0:0:0:0:
219,346,36874,1,0,0:0:0:0:
213,345,36937,1,0,0:0:0:0:
206,343,37000,1,0,0:0:0:0:
200,341,37063,1,0,0:0:0:0:
194,338,37127,1,0,0:0:0:0:
188,336,37190,1,0,0:0:0:0:
182,333,37254,1,0,0:0:0:0:
176,329,37316,1,0,0:0:0:0:
170,326,37379,1,0,0:0:0:0:
165,322,37442,1,0,0:0:0:0:
159,318,37505,1,0,0:0:0:0:
154,314,37568,1,0,0:0:0:0:
149,310,37631,1,0,0:0:0:0:
144,305,37693,1,0,0:0:0:0:
139,300,37756,1,0,0:0:0:0:
135,296,37818,1,0,0:0:0:0:
131,290,37881,1,0,0:0:0:0:
127,285,37943,1,0,0:0:0:0:
123,280,38006,1,0,0:0:0:0:
119,274,38068,1,0,0:0:0:0:
116,268,38130,1,0,0:0:0:0:
113,262,38192,1,0,0:0:0:0:
110,256,38254,1,0,0:0:0:0:
108,250,38316,1,0,0:0:0:0:
105,244,38379,1,0,0:0:0:0:
103,238,38440,1,0,0:0:0:0:
101,231,38502,1,0,0:0:0:0:
100,225,38564,1,0,0:0:0:0:
99,218,38625,1,0,0:0:0:0:
98,211,38687,1,0,0:0:0:0:
97,205,38749,1,0,0:0:0:0:
96,198,38810,1,0,0:0:0:0:
96,191,38871,1,0,0:0:0:0:
96,185,38933,1,0,0:0:0:0:
97,178,38994,1,0,0:0:0:0:
98,172,39055,1,0,0:0:0:0:
99,165,39117,1,0,0:0:0:0:
100,158,39177,1,0,0:0:0:0:
101,152,39238,1,0,0:0:0:0:
103,145,39299,1,0,0:0:0:0:
105,139,39360,1,0,0:0:0:0:
108,133,39421,1,0,0:0:0:0:
110,127,39483,1,0,0:0:0:0:
113,121,39543,1,0,0:0:0:0:
116,115,39604,1,0,0:0:0:0:
119,109,39664,1,0,0:0:0:0:
123,103,39725,1,0,0:0:0:0:
127,98,39786,1,0,0:0:0:0:
131,93,39847,1,0,0:0:0:0:
135,87,39907,1,0,0:0:0:0:
139,83,39967,1,0,0:0:0:0:
144,78,40027,1,0,0:0:0:0:
149,73,40087,1,0,0:0:0:0:
154,69,40148,1,0,0:0:0:0:
159,65,40208,1,0,0:0:0:0:
165,61,40267,1,0,0:0:0:0:
170,57,40327,1,0,0:0:0:0:
176,54,40387,1,0,0:0:0:0:
182,50,40447,1,0,0:0:0:0:
188,47,40507,1,0,0:0:0:0:
194,45,40567,1,0,0:0:0:0:
200,42,40626,1,0,0:0:0:0:
206,40,40686,1,0,0:0:0:0:
213,38,40745,1,0,0:0:0:0:
219,37,40805,1,0,0:0:0:0:
226,35,40864,1,0,0:0:0:0:
232,34,40924,1,0,0:0:0:0:
239,33,40983,1,0,0:0:0:0:
246,33,41042,1,0,0:0:0:0:
252,32,41101,1,0,0:0:0:0:
259,32,41160,1,0,0:0:0:0:
265,33,41219,1,0,0:0:0:0:
272,33,41279,1,0,0:0:0:0:
279,34,41337,1,0,0:0:0:0:
285,35,41396,1,0,0:0:0:0:
292,37,41455,1,0,0:0:0:0:
298,38,41514,1,0,0:0:0:0:
305,40,41573,1,0,0:0:0:0:
311,42,41632,1,0,0:0:0:0:
317,45,41690,1,0,0:0:0:0:
323,47,41748,1,0,0:0:0:0:
329,50,41807,1,0,0:0:0:0:
335,54,41865,1,0,0:0:0:0:
341,57,41924,1,0,0:0:0:0:
346,61,41983,1,0,0:0:0:0:
352,65,42041,1,0,0:0:0:0:
357,69,42099,1,0,0:0:0:0:
362,73,42157,1,0,0:0:0:0:
367,78,42215,1,0,0:0:0:0:
372,83,42273,1,0,0:0:0:0:
376,87,42332,1,0,0:0:0:0:
380,93,42389,1,0,0:0:0:0:
384,98,42447,1,0,0:0:0:0:
388,103,42505,1,0,0:0:0:0:
392,109,42563,1,0,0:0:0:0:
395,115,42621,1,0,0:0:0:0:
398,121,42679,1,0,0:0:0:0:
401,127,42736,1,0,0:0:0:0:
403,133,42793,1,0,0:0:0:0:
406,139,42851,1,0,0:0:0:0:
408,145,42908,1,0,0:0:0:0:
410,152,42966,1,0,0:0:0:0:
411,158,43024,1,0,0:0:0:0:
412,165,43081,1,0,0:0:0:0:
413,172,43138,1,0,0:0:0:0:
414,178,43195,1,0,0:0:0:0:
415,185,43252,1,0,0:0:0:0:
415,192,43309,1,0,0:0:0:0:
415,198,43367,1,0,0:0:0:0:
414,205,43423,1,0,0:0:0:0:
413,211,43480,1,0,0:0:0:0:
412,218,43537,1,0,0:0:0:0:
411,225,43594,1,0,0:0:0:0:
410,231,43651,1,0,0:0:0:0:
408,238,43708,1,0,0:0:0:0:
406,244,43764,1,0,0:0:0:0:
403,250,43820,1,0,0:0:0:0:
401,256,43877,1,0,0:0:0:0:
398,262,43933,1,0,0:0:0:0:
395,268,43990,1,0,0:0:0:0:
392,274,44047,1,0,0:0:0:0:
388,280,44103,1,0,0:0:0:0:
384,285,44159,1,0,0:0:0:0:
380,290,44215,1,0,0:0:0:0:
376,296,44271,1,0,0:0:0:0:
372,300,44327,1,0,0:0:0:0:
367,305,44384,1,0,0:0:0:0:
362,310,44439,1,0,0:0:0:0:
357,314,44495,1,0,0:0:0:0:
352,318,44551,1,0,0:0:0:0:
346,322,44607,1,0,0:0:0:0:
341,326,44663,1,0,0:0:0:0:
335,329,44719,1,0,0:0:0:0:
329,333,44774,1,0,0:0:0:0:
323,336,44830,1,0,0:0:0:0:
317,338,44885,1,0,0:0:0:0:
311,341,44941,1,0,0:0:0:0:
305,343,44996,1,0,0:0:0:0:
298,345,45052,1,0,0:0:0:0:
292,346,45107,1,0,0:0:0:0:
285,348,45162,1,0,0:0:0:0:
279,349,45217,1,0,0:0:0:0:
272,350,45273,1,0,0:0:0:0:
265,350,45328,1,0,0:0:0:0:
259,351,45384,1,0,0:0:0:0:
252,351,45438,1,0,0:0:0:0:
246,350,45493,1,0,0:0:0:0:
239,350,45548,1,0,0:0:0:0:
232,349,45603,1,0,0:0:0:0:
226,348,45658,1,0,0:0:0:0:
219,346,45714,1,0,0:0:0:0:
213,345,45768,1,0,0:0:0:0:
206,343,45823,1,0,0:0:0:0:
200,341,45877,1,0,0:0:0:0:
194,338,45932,1,0,0:0:0:0:
188,336,45987,1,0,0:0:0:0:
182,333,46042,1,0,0:0:0:0:
176,329,46096,1,0,0:0:0:0:
170,326,46150,1,0,0:0:0:0:
165,322,46205,1,0,0:0:0:0:
159,318,46259,1,0,0:0:0:0:
154,314,46313,1,0,0:0:0:0:
149,310,46368,1,0,0:0:0:0:
144,305,46422,1,0,0:0:0:0:
139,300,46476,1,0,0:0:0:0:
135,296,46530,1,0,0:0:0:0:
131,290,46584,1,0,0:0:0:0:
127,285,46638,1,0,0:0:0:0:
123,280,46692,1,0,0:0:0:0:
119,274,46745,1,0,0:0:0:0:
116,268,46799,1,0,0:0:0:0:
113,262,46853,1,0,0:0:0:0:
110,256,46907,1,0,0:0:0:0:
108,250,46960,1,0,0:0:0:0:
105,244,47015,1,0,0:0:0:0:
103,238,47068,1,0,0:0:0:0:
101,231,47121,1,0,0:0:0:0:
100,225,47175,1,0,0:0:0:0:
99,218,47228,1,0,0:0:0:0:
98,211,47282,1,0,0:0:0:0:
97,205,47336,1,0,0:0:0:0:
96,198,47389,1,0,0:0:0:0:
96,191,47442,1,0,0:0:0:0:
96,185,47495,1,0,0:0:0:0:
97,178,47548,1,0,0:0:0:0:
98,172,47601,1,0,0:0:0:0:
99,165,47655,1,0,0:0:0:0:
100,158,47707,1,0,0:0:0:0:
101,152,47760,1,0,0:0:0:0:
103,145,47813,1,0,0:0:0:0:
105,139,47866,1,0,0:0:0:0:
108,133,47919,1,0,0:0:0:0:
110,127,47972,1,0,0:0:0:0:
113,121,48024,1,0,0:0:0:0:
116,115,48077,1,0,0:0:0:0:
119,109,48129,1,0,0:0:0:0:
123,103,48182,1,0,0:0:0:0:
127,98,48235,1,0,0:0:0:0:
131,93,48288,1,0,0:0:0:0:
135,87,48340,1,0,0:0:0:0:
139,83,48392,1,0,0:0:0:0:
144,78,48445,1,0,0:0:0:0:
149,73,48497,1,0,0:0:0:0:
154,69,48549,1,0,0:0:0:0:
159,65,48602,1,0,0:0:0:0:
165,61,48654,1,0,0:0:0:0:
170,57,48706,1,0,0:0:0:0:
176,54,48758,1,0,0:0:0:0:
182,50,48810,1,0,0:0:0:0:
188,47,48862,1,0,0:0:0:0:
194,45,48915,1,0,0:0:0:0:
200,42,48966,1,0,0:0:0:0:
206,40,49018,1,0,0:0:0:0:
213,38,49070,1,0,0:0:0:0:
219,37,49122,1,0,0:0:0:0:
226,35,49174,1,0,0:0:0:0:
232,34,49226,1,0,0:0:0:0:
239,33,49277,1,0,0:0:0:0:
246,33,49329,1,0,0:0:0:0:
252,32,49380,1,0,0:0:0:0:
259,32,49432,1,0,0:0:0:0:
265,33,49483,1,0,0:0:0:0:
272,33,49535,1,0,0:0:0:0:
279,34,49586,1,0,0:0:0:0:
285,35,49637,1,0,0:0:0:0:
292,37,49688,1,0,0:0:0:0:
298,38,49740,1,0,0:0:0:0:
305,40,49791,1,0,0:0:0:0:
311,42,49843,1,0,0:0:0:0:
317,45,49894,1,0,0:0:0:0:
323,47,49945,1,0,0:0:0:0:
329,50,49996,1,0,0:0:0:0:
335,54,50047,1,0,0:0:0:0:
341,57,50098,1,0,0:0:0:0:
346,61,50149,1,0,0:0:0:0:
352,65,50199,1,0,0:0:0:0:
357,69,50250,1,0,0:0:0:0:
362,73,50301,1,0,0:0:0:0:
367,78,50352,1,0,0:0:0:0:
372,83,50402,1,0,0:0:0:0:
376,87,50454,1,0,0:0:0:0:
380,93,50504,1,0,0:0:0:0:
384,98,50555,1,0,0:0:0:0:
388,103,50605,1,0,0:0:0:0:
392,109,50656,1,0,0:0:0:0:
395,115,50706,1,0,0:0:0:0:
398,121,50757,1,0,0:0:0:0:
401,127,50807,1,0,0:0:0:0:
403,133,50857,1,0,0:0:0:0:
406,139,50907,1,0,0:0:0:0:
408,145,50958,1,0,0:0:0:0:
410,152,51008,1,0,0:0:0:0:
411,158,51059,1,0,0:0:0:0:
412,165,51109,1,0,0:0:0:0:
413,172,51159,1,0,0:0:0:0:
414,178,51209,1,0,0:0:0:0:
415,185,51259,1,0,0:0:0:0:
415,192,51309,1,0,0:0:0:0:
415,198,51359,5,0,0:0:0:0:
414,205,51408,1,0,0:0:0:0:
413,211,51458,1,0,0:0:0:0:
412,218,51508,1,0,0:0:0:0:
411,225,51558,1,0,0:0:0:0:
410,231,51607,1,0,0:0:0:0:
408,238,51657,1,0,0:0:0:0:
406,244,51707,1,0,0:0:0:0:
403,250,51757,1,0,0:0:0:0:
401,256,51806,1,0,0:0:0:0:
398,262,51856,1,0,0:0:0:0:
395,268,51905,1,0,0:0:0:0:
392,274,51955,1,0,0:0:0:0:
388,280,52004,1,0,0:0:0:0:
384,285,52053,1,0,0:0:0:0:
380,290,52102,1,0,0:0:0:0:
376,296,52152,1,0,0:0:0:0:
372,300,52201,1,0,0:0:0:0:
367,305,52250,1,0,0:0:0:0:
362,310,52300,1,0,0:0:0:0:
357,314,52349,1,0,0:0:0:0:
352,318,52398,1,0,0:0:0:0:
346,322,52447,1,0,0:0:0:0:
341,326,52496,1,0,0:0:0:0:
335,329,52545,1,0,0:0:0:0:
329,333,52593,1,0,0:0:0:0:
323,336,52642,1,0,0:0:0:0:
317,338,52691,1,0,0:0:0:0:
311,341,52740,1,0,0:0:0:0:
305,343,52788,1,0,0:0:0:0:
298,345,52837,1,0,0:0:0:0:
292,346,52886,1,0,0:0:0:0:
285,348,52935,1,0,0:0:0:0:
279,349,52983,1,0,0:0:0:0:
272,350,53032,1,0,0:0:0:0:
265,350,53080,1,0,0:0:0:0:
259,351,53129,1,0,0:0:0:0:
252,351,53177,1,0,0:0:0:0:
246,350,53225,1,0,0:0:0:0:
239,350,53273,1,0,0:0:0:0:
232,349,53322,1,0,0:0:0:0:
226,348,53370,1,0,0:0:0:0:
219,346,53419,1,0,0:0:0:0:
213,345,53467,1,0,0:0:0:0:
206,343,53515,1,0,0:0:0:0:
200,341,53563,1,0,0:0:0:0:
194,338,53611,1,0,0:0:0:0:
188,336,53659,1,0,0:0:0:0:
182,333,53707,1,0,0:0:0:0:
176,329,53754,1,0,0:0:0:0:
170,326,53802,1,0,0:0:0:0:
165,322,53850,1,0,0:0:0:0:
159,318,53898,1,0,0:0:0:0:
154,314,53946,1,0,0:0:0:0:
149,310,53994,1,0,0:0:0:0:
144,305,54041,1,0,0:0:0:0:
139,300,54089,1,0,0:0:0:0:
135,296,54136,1,0,0:0:0:0:
131,290,54184,1,0,0:0:0:0:
127,285,54232,1,0,0:0:0:0:
123,280,54280,1,0,0:0:0:0:
119,274,54327,1,0,0:0:0:0:
116,268,54374,1,0,0:0:0:0:
113,262,54422,1,0,0:0:0:0:
110,256,54469,1,0,0:0:0:0:
108,250,54516,1,0,0:0:0:0:
105,244,54564,1,0,0:0:0:0:
103,238,54611,1,0,0:0:0:0:
101,231,54658,1,0,0:0:0:0:
100,225,54705,1,0,0:0:0:0:
99,218,54752,1,0,0:0:0:0:
98,211,54799,1,0,0:0:0:0:
97,205,54847,1,0,0:0:0:0:
96,198,54893,1,0,0:0:0:0:
96,191,54940,1,0,0:0:0:0:
96,185,54987,1,0,0:0:0:0:
97,178,55034,1,0,0:0:0:0:
98,172,55081,1,0,0:0:0:0:
99,165,55129,1,0,0:0:0:0:
100,158,55175,1,0,0:0:0:0:
101,152,55222,1,0,0:0:0:0:
103,145,55269,1,0,0:0:0:0:
105,139,55315,1,0,0:0:0:0:
108,133,55362,1,0,0:0:0:0:
110,127,55409,1,0,0:0:0:0:
113,121,55455,1,0,0:0:0:0:
116,115,55502,1,0,0:0:0:0:
119,109,55548,1,0,0:0:0:0:
123,103,55595,1,0,0:0:0:0:
127,98,55641,1,0,0:0:0:0:
131,93,55688,1,0,0:0:0:0:
135,87,55734,1,0,0:0:0:0:
139,83,55780,1,0,0:0:0:0:
144,78,55826,1,0,0:0:0:0:
149,73,55873,1,0,0:0:0:0:
154,69,55919,1,0,0:0:0:0:
159,65,55966,1,0,0:0:0:0:
165,61,56012,1,0,0:0:0:0:
170,57,56058,1,0,0:0:0:0:
176,54,56104,1,0,0:0:0:0:
182,50,56150,1,0,0:0:0:0:
188,47,56196,1,0,0:0:0:0:
194,45,56243,1,0,0:0:0:0:
200,42,56288,1,0,0:0:0:0:
206,40,56334,1,0,0:0:0:0:
213,38,56380,1,0,0:0:0:0:
219,37,56426,1,0,0:0:0:0:
226,35,56472,1,0,0:0:0:0:
232,34,56518,1,0,0:0:0:0:
239,33,56563,1,0,0:0:0:0:
246,33,56609,1,0,0:0:0:0:
252,32,56654,1,0,0:0:0:0:
259,32,56700,1,0,0:0:0:0:
265,33,56746,1,0,0:0:0:0:
272,33,56792,1,0,0:0:0:0:
279,34,56837,1,0,0:0:0:0:
285,35,56882,1,0,0:0:0:0:
292,37,56928,1,0,0:0:0:0:
298,38,56973,1,0,0:0:0:0:
305,40,57019,1,0,0:0:0:0:
311,42,57065,1,0,0:0:0:0:
317,45,57110,1,0,0:0:0:0:
323,47,57155,1,0,0:0:0:0:
329,50,57200,1,0,0:0:0:0:
335,54,57245,1,0,0:0:0:0:
341,57,57291,1,0,0:0:0:0:
346,61,57336,1,0,0:0:0:0:
352,65,57381,1,0,0:0:0:0:
357,69,57426,1,0,0:0:0:0:
362,73,57471,1,0,0:0:0:0:
367,78,57516,1,0,0:0:0:0:
372,83,57561,1,0,0:0:0:0:
376,87,57606,1,0,0:0:0:0:
380,93,57650,1,0,0:0:0:0:
384,98,57695,1,0,0:0:0:0:
388,103,57740,1,0,0:0:0:0:
392,109,57785,1,0,0:0:0:0:
395,115,57830,1,0,0:0:0:0:
398,121,57875,1,0,0:0:0:0:
401,127,57919,1,0,0:0:0:0:
403,133,57964,1,0,0:0:0:0:
406,139,58008,1,0,0:0:0:0:
408,145,58053,1,0,0:0:0:0:
410,152,58098,1,0,0:0:0:0:
411,158,58143,1,0,0:0:0:0:
412,165,58187,1,0,0:0:0:0:
413,172,58231,1,0,0:0:0:0:
414,178,58276,1,0,0:0:0:0:
415,185,58320,1,0,0:0:0:0:
415,192,58365,1,0,0:0:0:0:
415,198,58410,1,0,0:0:0:0:
414,205,58454,1,0,0:0:0:0:
413,211,58498,1,0,0:0:0:0:
412,218,58542,1,0,0:0:0:0:
411,225,58586,1,0,0:0:0:0:
410,231,58631,1,0,0:0:0:0:
408,238,58675,1,0,0:0:0:0:
406,244,58719,1,0,0:0:0:0:
403,250,58763,1,0,0:0:0:0:
401,256,58807,1,0,0:0:0:0:
398,262,58851,1,0,0:0:0:0:
395,268,58895,1,0,0:0:0:0:
392,274,58939,1,0,0:0:0:0:
388,280,58982,1,0,0:0:0:0:
384,285,59026,1,0,0:0:0:0:
380,290,59070,1,0,0:0:0:0:
376,296,59114,1,0,0:0:0:0:
372,300,59158,1,0,0:0:0:0:
367,305,59202,1,0,0:0:0:0:
362,310,59245,1,0,0:0:0:0:
357,314,59289,1,0,0:0:0:0:
352,318,59333,1,0,0:0:0:0:
346,322,59376,1,0,0:0:0:0:
341,326,59420,1,0,0:0:0:0:
335,329,59464,1,0,0:0:0:0:
329,333,59507,1,0,0:0:0:0:
323,336,59550,1,0,0:0:0:0:
317,338,59594,1,0,0:0:0:0:
311,341,59637,1,0,0:0:0:0:
305,343,59681,1,0,0:0:0:0:
298,345,59725,1,0,0:0:0:0:
292,346,59768,1,0,0:0:0:0:
285,348,59811,1,0,0:0:0:0:
279,349,59854,1,0,0:0:0:0:
272,350,59898,1,0,0:0:0:0:
265,350,59941,1,0,0:0:0:0:
259,351,59985,1,0,0:0:0:0:
252,351,60028,1,0,0:0:0:0:
246,350,60071,1,0,0:0:0:0:
239,350,60114,1,0,0:0:0:0:
232,349,60157,1,0,0:0:0:0:
226,348,60200,1,0,0:0:0:0:
219,346,60244,1,0,0:0:0:0:
213,345,60286,1,0,0:0:0:0:
206,343,60329,1,0,0:0:0:0:
200,341,60372,1,0,0:0:0:0:
194,338,60415,1,0,0:0:0:0:
188,336,60458,1,0,0:0:0:0:
182,333,60502,1,0,0:0:0:0:
176,329,60544,1,0,0:0:0:0:
170,326,60587,1,0,0:0:0:0:
165,322,60630,1,0,0:0:0:0:
159,318,60672,1,0,0:0:0:0:
154,314,60715,1,0,0:0:0:0:
149,310,60758,1,0,0:0:0:0:
144,305,60800,1,0,0:0:0:0:
139,300,60843,1,0,0:0:0:0:
135,296,60885,1,0,0:0:0:0:
131,290,60928,1,0,0:0:0:0:
127,285,60970,1,0,0:0:0:0:
123,280,61013,1,0,0:0:0:0:
119,274,61055,1,0,0:0:0:0:
116,268,61097,1,0,0:0:0:0:
113,262,61140,1,0,0:0:0:0:
110,256,61182,1,0,0:0:0:0:
108,250,61224,1,0,0:0:0:0:
105,244,61267,1,0,0:0:0:0:
103,238,61309,1,0,0:0:0:0:
101,231,61351,1,0,0:0:0:0:
100,225,61393,1,0,0:0:0:0:
99,218,61435,1,0,0:0:0:0:
98,211,61477,1,0,0:0:0:0:
97,205,61520,1,0,0:0:0:0:
96,198,61562,1,0,0:0:0:0:
96,191,61604,1,0,0:0:0:0:
96,185,61646,1,0,0:0:0:0:
97,178,61688,1,0,0:0:0:0:
98,172,61730,1,0,0:0:0:0:
99,165,61772,1,0,0:0:0:0:
100,158,61813,1,0,0:0:0:0:
101,152,61855,1,0,0:0:0:0:
103,145,61897,1,0,0:0:0:0:
105,139,61939,1,0,0:0:0:0:
108,133,61981,1,0,0:0:0:0:
110,127,62023,1,0,0:0:0:0:
113,121,62064,1,0,0:0:0:0:
116,115,62106,1,0,0:0:0:0:
119,109,62148,1,0,0:0:0:0:
123,103,62189,1,0,0:0:0:0:
127,98,62231,1,0,0:0:0:0:
131,93,62273,1,0,0:0:0:0:
135,87,62314,1,0,0:0:0:0:
139,83,62355,1,0,0:0:0:0:
144,78,62397,1,0,0:0:0:0:
149,73,62438,1,0,0:0:0:0:
154,69,62480,1,0,0:0:0:0:
159,65,62522,1,0,0:0:0:0:
165,61,62563,1,0,0:0:0:0:
170,57,62604,1,0,0:0:0:0:
176,54,62645,1,0,0:0:0:0:
182,50,62687,1,0,0:0:0:0:
188,47,62728,1,0,0:0:0:0:
194,45,62770,1,0,0:0:0:0:
200,42,62811,1,0,0:0:0:0:
206,40,62852,1,0,0:0:0:0:
213,38,62893,1,0,0:0:0:0:
219,37,62934,1,0,0:0:0:0:
226,35,62975,1,0,0:0:0:0:
232,34,63017,1,0,0:0:0:0:
239,33,63057,1,0,0:0:0:0:
246,33,63098,1,0,0:0:0:0:
252,32,63139,1,0,0:0:0:0:
259,32,63180,1,0,0:0:0:0:
265,33,63221,1,0,0:0:0:0:
272,33,63262,1,0,0:0:0:0:
279,34,63302,1,0,0:0:0:0:
285,35,63343,1,0,0:0:0:0:
292,37,63384,1,0,0:0:0:0:
298,38,63425,1,0,0:0:0:0:
305,40,63466,1,0,0:0:0:0:
311,42,63508,1,0,0:0:0:0:
317,45,63548,1,0,0:0:0:0:
323,47,63589,1,0,0:0:0:0:
329,50,63629,1,0,0:0:0:0:
335,54,63670,1,0,0:0:0:0:
341,57,63711,1,0,0:0:0:0:
346,61,63752,1,0,0:0:0:0:
352,65,63792,1,0,0:0:0:0:
357,69,63832,1,0,0:0:0:0:
362,73,63873,1,0,0:0:0:0:
367,78,63913,1,0,0:0:0:0:
372,83,63954,1,0,0:0:0:0:
376,87,63995,1,0,0:0:0:0:
380,93,64035,1,0,0:0:0:0:
384,98,64075,1,0,0:0:0:0:
388,103,64115,1,0,0:0:0:0:
392,109,64156,1,0,0:0:0:0:
395,115,64196,1,0,0:0:0:0:
398,121,64237,1,0,0:0:0:0:
401,127,64277,1,0,0:0:0:0:
403,133,64317,1,0,0:0:0:0:
406,139,64357,1,0,0:0:0:0:
408,145,64397,1,0,0:0:0:0:
410,152,64437,1,0,0:0:0:0:
411,158,64478,1,0,0:0:0:0:
412,165,64518,1,0,0:0:0:0:
413,172,64558,1,0,0:0:0:0:
414,178,64598,1,0,0:0:0:0:
415,185,64638,1,0,0:0:0:0:
415,192,64678,1,0,0:0:0:0:
415,198,64718,1,0,0:0:0:0:
414,205,64757,1,0,0:0:0:0:
413,211,64797,1,0,0:0:0:0:
412,218,64837,1,0,0:0:0:0:
411,225,64877,1,0,0:0:0:0:
410,231,64917,1,0,0:0:0:0:
408,238,64957,1,0,0:0:0:0:
406,244,64996,1,0,0:0:0:0:
403,250,65036,1,0,0:0:0:0:
401,256,65076,1,0,0:0:0:0:
398,262,65115,1,0,0:0:0:0:
395,268,65155,1,0,0:0:0:0:
392,274,65195,1,0,0:0:0:0:
388,280,65234,1,0,0:0:0:0:
384,285,65274,1,0,0:0:0:0:
380,290,65313,1,0,0:0:0:0:
376,296,65353,1,0,0:0:0:0:
372,300,65392,1,0,0:0:0:0:
367,305,65432,1,0,0:0:0:0:
362,310,65471,1,0,0:0:0:0:
357,314,65510,1,0,0:0:0:0:
352,318,65550,1,0,0:0:0:0:
346,322,65589,1,0,0:0:0:0:
341,326,65628,1,0,0:0:0:0:
335,329,65668,1,0,0:0:0:0:
329,333,65707,1,0,0:0:0:0:
323,336,65746,1,0,0:0:0:0:
317,338,65785,1,0,0:0:0:0:
311,341,65824,1,0,0:0:0:0:
305,343,65864,1,0,0:0:0:0:
298,345,65903,1,0,0:0:0:0:
292,346,65942,1,0,0:0:0:0:
285,348,65981,1,0,0:0:0:0:
279,349,66020,1,0,0:0:0:0:
272,350,66059,1,0,0:0:0:0:
265,350,66098,1,0,0:0:0:0:
259,351,66137,1,0,0:0:0:0:
252,351,66175,1,0,0:0:0:0:
246,350,66214,1,0,0:0:0:0:
239,350,66253,1,0,0:0:0:0:
232,349,66292,1,0,0:0:0:0:
226,348,66331,1,0,0:0:0:0:
219,346,66370,1,0,0:0:0:0:
213,345,66408,1,0,0:0:0:0:
206,343,66447,1,0,0:0:0:0:
200,341,66486,1,0,0:0:0:0:
194,338,66525,1,0,0:0:0:0:
188,336,66563,1,0,0:0:0:0:
182,333,66602,1,0,0:0:0:0:
176,329,66641,1,0,0:0:0:0:
170,326,66680,1,0,0:0:0:0:
165,322,66718,1,0,0:0:0:0:
159,318,66757,1,0,0:0:0:0:
154,314,66796,1,0,0:0:0:0:
149,310,66835,1,0,0:0:0:0:
144,305,66873,1,0,0:0:0:0:
139,300,66911,1,0,0:0:0:0:
135,296,66950,1,0,0:0:0:0:
131,290,66988,1,0,0:0:0:0:
127,285,67027,1,0,0:0:0:0:
123,280,67066,1,0,0:0:0:0:
119,274,67104,1,0,0:0:0:0:
116,268,67142,1,0,0:0:0:0:
113,262,67180,1,0,0:0:0:0:
110,256,67219,1,0,0:0:0:0:
108,250,67257,1,0,0:0:0:0:
105,244,67296,1,0,0:0:0:0:
103,238,67334,1,0,0:0:0:0:
101,231,67372,1,0,0:0:0:0:
100,225,67410,1,0,0:0:0:0:
99,218,67448,1,0,0:0:0:0:
98,211,67486,1,0,0:0:0:0:
97,205,67525,1,0,0:0:0:0:
96,198,67563,1,0,0:0:0:0:
96,191,67601,1,0,0:0:0:0:
96,185,67639,1,0,0:0:0:0:
97,178,67677,1,0,0:0:0:0:
98,172,67715,1,0,0:0:0:0:
99,165,67753,1,0,0:0:0:0:
100,158,67790,1,0,0:0:0:0:
101,152,67828,1,0,0:0:0:0:
103,145,67866,1,0,0:0:0:0:
105,139,67904,1,0,0:0:0:0:
108,133,67942,1,0,0:0:0:0:
110,127,67980,1,0,0:0:0:0:
113,121,68017,1,0,0:0:0:0:
116,115,68055,1,0,0:0:0:0:
119,109,68093,1,0,0:0:0:0:
123,103,68130,1,0,0:0:0:0:
127,98,68168,1,0,0:0:0:0:
131,93,68206,1,0,0:0:0:0:
135,87,68243,1,0,0:0:0:0:
139,83,68281,1,0,0:0:0:0:
144,78,68318,1,0,0:0:0:0:
149,73,68356,1,0,0:0:0:0:
154,69,68393,1,0,0:0:0:0:
159,65,68432,1,0,0:0:0:0:
165,61,68469,1,0,0:0:0:0:
170,57,68506,1,0,0:0:0:0:
176,54,68544,1,0,0:0:0:0:
182,50,68581,1,0,0:0:0:0:
188,47,68619,1,0,0:0:0:0:
194,45,68657,1,0,0:0:0:0:
200,42,68694,1,0,0:0:0:0:
206,40,68731,1,0,0:0:0:0:
213,38,68768,1,0,0:0:0:0:
219,37,68806,1,0,0:0:0:0:
226,35,68843,1,0,0:0:0:0:
232,34,68881,1,0,0:0:0:0:
239,33,68918,1,0,0:0:0:0:
246,33,68955,1,0,0:0:0:0:
252,32,68992,1,0,0:0:0:0:
259,32,69029,1,0,0:0:0:0:
265,33,69066,1,0,0:0:0:0:
272,33,69104,1,0,0:0:0:0:
279,34,69141,1,0,0:0:0:0:
285,35,69178,1,0,0:0:0:0:
292,37,69215,1,0,0:0:0:0:
298,38,69252,1,0,0:0:0:0:
305,40,69289,1,0,0:0:0:0:
311,42,69326,1,0,0:0:0:0:
317,45,69362,1,0,0:0:0:0:
323,47,69399,1,0,0:0:0:0:
329,50,69436,1,0,0:0:0:0:
335,54,69473,1,0,0:0:0:0:
341,57,69510,1,0,0:0:0:0:
346,61,69547,1,0,0:0:0:0:
352,65,69583,1,0,0:0:0:0:
357,69,69620,1,0,0:0:0:0:
362,73,69657,1,0,0:0:0:0:
367,78,69694,1,0,0:0:0:0:
372,83,69730,1,0,0:0:0:0:
376,87,69768,1,0,0:0:0:0:
380,93,69804,1,0,0:0:0:0:
384,98,69841,1,0,0:0:0:0:
388,103,69877,1,0,0:0:0:0:
392,109,69914,1,0,0:0:0:0:
395,115,69951,1,0,0:0:0:0:
398,121,69988,1,0,0:0:0:0:
401,127,70024,1,0,0:0:0:0:
403,133,70060,1,0,0:0:0:0:
406,139,70097,1,0,0:0:0:0:
408,145,70133,1,0,0:0:0:0:
410,152,70170,1,0,0:0:0:0:
411,158,70207,1,0,0:0:0:0:
412,165,70243,1,0,0:0:0:0:
413,172,70279,1,0,0:0:0:0:
414,178,70316,1,0,0:0:0:0:
415,185,70352,1,0,0:0:0:0:
415,192,70388,1,0,0:0:0:0:
415,198,70425,1,0,0:0:0:0:
414,205,70461,1,0,0:0:0:0:
413,211,70497,1,0,0:0:0:0:
412,218,70533,1,0,0:0:0:0:
411,225,70569,1,0,0:0:0:0:
410,231,70606,1,0,0:0:0:0:
408,238,70642,1,0,0:0:0:0:
406,244,70678,1,0,0:0:0:0:
403,250,70714,1,0,0:0:0:0:
401,256,70750,1,0,0:0:0:0:
398,262,70786,1,0,0:0:0:0:
395,268,70822,1,0,0:0:0:0:
392,274,70859,1,0,0:0:0:0:
388,280,70894,1,0,0:0:0:0:
384,285,70930,1,0,0:0:0:0:
380,290,70966,1,0,0:0:0:0:
376,296,71002,1,0,0:0:0:0:
372,300,71038,1,0,0:0:0:0:
367,305,71075,1,0,0:0:0:0:
362,310,71110,1,0,0:0:0:0:
357,314,71146,1,0,0:0:0:0:
352,318,71182,1,0,0:0:0:0:
346,322,71218,1,0,0:0:0:0:
341,326,71254,1,0,0:0:0:0:
335,329,71290,1,0,0:0:0:0:
329,333,71325,1,0,0:0:0:0:
323,336,71361,1,0,0:0:0:0:
317,338,71397,1,0,0:0:0:0:
311,341,71432,1,0,0:0:0:0:
305,343,71468,1,0,0:0:0:0:
298,345,71504,1,0,0:0:0:0:
292,346,71539,1,0,0:0:0:0:
285,348,71575,1,0,0:0:0:0:
279,349,71610,1,0,0:0:0:0:
272,350,71646,1,0,0:0:0:0:
265,350,71681,1,0,0:0:0:0:
259,351,71718,1,0,0:0:0:0:
252,351,71753,1,0,0:0:0:0:
246,350,71788,1,0,0:0:0:0:
239,350,71824,1,0,0:0:0:0:
232,349,71859,1,0,0:0:0:0:
226,348,71895,1,0,0:0:0:0:
219,346,71931,1,0,0:0:0:0:
213,345,71966,1,0,0:0:0:0:
206,343,72001,1,0,0:0:0:0:
200,341,72037,1,0,0:0:0:0:
194,338,72072,1,0,0:0:0:0:
188,336,72107,1,0,0:0:0:0:
182,333,72143,1,0,0:0:0:0:
176,329,72178,1,0,0:0:0:0:
170,326,72213,1,0,0:0:0:0:
165,322,72248,1,0,0:0:0:0:
159,318,72283,1,0,0:0:0:0:
154,314,72319,1,0,0:0:0:0:
149,310,72354,1,0,0:0:0:0:
144,305,72389,1,0,0:0:0:0:
139,300,72424,1,0,0:0:0:0:
135,296,72459,1,0,0:0:0:0:
131,290,72494,1,0,0:0:0:0:
127,285,72529,1,0,0:0:0:0:
123,280,72565,1,0,0:0:0:0:
119,274,72599,1,0,0:0:0:0:
116,268,72634,1,0,0:0:0:0:
113,262,72669,1,0,0:0:0:0:
110,256,72704,1,0,0:0:0:0:
108,250,72739,1,0,0:0:0:0:
105,244,72775,1,0,0:0:0:0:
103,238,72809,1,0,0:0:0:0:
101,231,72844,1,0,0:0:0:0:
100,225,72879,1,0,0:0:0:0:
99,218,72914,1,0,0:0:0:0:
98,211,72949,1,0,0:0:0:0:
97,205,72984,1,0,0:0:0:0:
96,198,73018,1,0,0:0:0:0:
96,191,73053,1,0,0:0:0:0:
96,185,73088,1,0,0:0:0:0:
97,178,73122,1,0,0:0:0:0:
98,172,73157,1,0,0:0:0:0:
99,165,73192,1,0,0:0:0:0:
100,158,73226,1,0,0:0:0:0:
101,152,73261,1,0,0:0:0:0:
103,145,73295,1,0,0:0:0:0:
105,139,73330,1,0,0:0:0:0:
108,133,73365,1,0,0:0:0:0:
110,127,73400,1,0,0:0:0:0:
113,121,73434,1,0,0:0:0:0:
116,115,73468,1,0,0:0:0:0:
119,109,73503,1,0,0:0:0:0:
123,103,73537,1,0,0:0:0:0:
127,98,73572,1,0,0:0:0:0:
131,93,73607,1,0,0:0:0:0:
135,87,73641,1,0,0:0:0:0:
139,83,73675,1,0,0:0:0:0:
144,78,73710,1,0,0:0:0:0:
149,73,73744,1,0,0:0:0:0:
154,69,73778,1,0,0:0:0:0:
159,65,73813,1,0,0:0:0:0:
165,61,73847,1,0,0:0:0:0:
170,57,73881,1,0,0:0:0:0:
176,54,73915,1,0,0:0:0:0:
182,50,73949,1,0,0:0:0:0:
188,47,73984,1,0,0:0:0:0:
194,45,74018,1,0,0:0:0:0:
200,42,74052,1,0,0:0:0:0:
206,40,74086,1,0,0:0:0:0:
213,38,74120,1,0,0:0:0:0:
219,37,74154,1,0,0:0:0:0:
226,35,74188,1,0,0:0:0:0:
232,34,74223,1,0,0:0:0:0:
239,33,74257,1,0,0:0:0:0:
246,33,74291,1,0,0:0:0:0:
252,32,74325,1,0,0:0:0:0:
259,32,74359,1,0,0:0:0:0:
265,33,74393,1,0,0:0:0:0:
272,33,74427,1,0,0:0:0:0:
279,34,74460,1,0,0:0:0:0:
285,35,74494,1,0,0:0:0:0:
292,37,74528,1,0,0:0:0:0:
298,38,74562,1,0,0:0:0:0:
305,40,74596,1,0,0:0:0:0:
311,42,74630,1,0,0:0:0:0:
317,45,74663,1,0,0:0:0:0:
323,47,74697,1,0,0:0:0:0:
329,50,74731,1,0,0:0:0:0:
335,54,74765,1,0,0:0:0:0:
341,57,74798,1,0,0:0:0:0:
346,61,74833,1,0,0:0:0:0:
352,65,74866,1,0,0:0:0:0:
357,69,74900,1,0,0:0:0:0:
362,73,74934,1,0,0:0:0:0:
367,78,74967,1,0,0:0:0:0:
372,83,75001,1,0,0:0:0:0:
376,87,75035,1,0,0:0:0:0:
380,93,75068,1,0,0:0:0:0:
384,98,75102,1,0,0:0:0:0:
388,103,75135,1,0,0:0:0:0:
392,109,75169,1,0,0:0:0:0:
395,115,75202,1,0,0:0:0:0:
398,121,75236,1,0,0:0:0:0:
401,127,75269,1,0,0:0:0:0:
403,133,75302,1,0,0:0:0:0:
406,139,75336,1,0,0:0:0:0:
408,145,75369,1,0,0:0:0:0:
410,152,75403,1,0,0:0:0:0:
411,158,75437,1,0,0:0:0:0:
412,165,75470,1,0,0:0:0:0:
413,172,75503,1,0,0:0:0:0:
414,178,75537,1,0,0:0:0:0:
415,185,75570,1,0,0:0:0:0:
415,192,75603,1,0,0:0:0:0:
415,198,75637,5,0,0:0:0:0:
414,205,75670,1,0,0:0:0:0:
413,211,75703,1,0,0:0:0:0:
412,218,75736,1,0,0:0:0:0:
411,225,75769,1,0,0:0:0:0:
410,231,75803,1,0,0:0:0:0:
408,238,75836,1,0,0:0:0:0:
406,244,75869,1,0,0:0:0:0:
403,250,75902,1,0,0:0:0:0:
401,256,75935,1,0,0:0:0:0:
398,262,75968,1,0,0:0:0:0:
395,268,76001,1,0,0:0:0:0:
392,274,76034,1,0,0:0:0:0:
388,280,76068,1,0,0:0:0:0:
384,285,76101,1,0,0:0:0:0:
380,290,76134,1,0,0:0:0:0:
376,296,76167,1,0,0:0:0:0:
372,300,76200,1,0,0:0:0:0:
367,305,76233,1,0,0:0:0:0:
362,310,76265,1,0,0:0:0:0:
357,314,76298,1,0,0:0:0:0:
352,318,76331,1,0,0:0:0:0:
346,322,76364,1,0,0:0:0:0:
341,326,76397,1,0,0:0:0:0:
335,329,76430,1,0,0:0:0:0:
329,333,76462,1,0,0:0:0:0:
323,336,76495,1,0,0:0:0:0:
317,338,76528,1,0,0:0:0:0:
311,341,76561,1,0,0:0:0:0:
305,343,76593,1,0,0:0:0:0:
298,345,76626,1,0,0:0:0:0:
292,346,76659,1,0,0:0:0:0:
285,348,76692,1,0,0:0:0:0:
279,349,76725,1,0,0:0:0:0:
272,350,76757,1,0,0:0:0:0:
265,350,76790,1,0,0:0:0:0:
259,351,76823,1,0,0:0:0:0:
252,351,76855,1,0,0:0:0:0:
246,350,76888,1,0,0:0:0:0:
239,350,76920,1,0,0:0:0:0:
232,349,76953,1,0,0:0:0:0:
226,348,76985,1,0,0:0:0:0:
219,346,77018,1,0,0:0:0:0:
213,345,77050,1,0,0:0:0:0:
206,343,77082,1,0,0:0:0:0:
200,341,77115,1,0,0:0:0:0:
194,338,77147,1,0,0:0:0:0:
188,336,77180,1,0,0:0:0:0:
182,333,77213,1,0,0:0:0:0:
176,329,77245,1,0,0:0:0:0:
170,326,77277,1,0,0:0:0:0:
165,322,77310,1,0,0:0:0:0:
159,318,77342,1,0,0:0:0:0:
154,314,77374,1,0,0:0:0:0:
149,310,77407,1,0,0:0:0:0:
144,305,77439,1,0,0:0:0:0:
139,300,77471,1,0,0:0:0:0:
135,296,77503,1,0,0:0:0:0:
131,290,77536,1,0,0:0:0:0:
127,285,77568,1,0,0:0:0:0:
123,280,77601,1,0,0:0:0:0:
119,274,77633,1,0,0:0:0:0:
116,268,77665,1,0,0:0:0:0:
113,262,77697,1,0,0:0:0:0:
110,256,77729,1,0,0:0:0:0:
108,250,77761,1,0,0:0:0:0:
105,244,77794,1,0,0:0:0:0:
103,238,77826,1,0,0:0:0:0:
101,231,77858,1,0,0:0:0:0:
100,225,77890,1,0,0:0:0:0:
99,218,77922,1,0,0:0:0:0:
98,211,77954,1,0,0:0:0:0:
97,205,77986,1,0,0:0:0:0:
96,198,78017,1,0,0:0:0:0:
96,191,78049,1,0,0:0:0:0:
96,185,78081,1,0,0:0:0:0:
97,178,78113,1,0,0:0:0:0:
98,172,78145,1,0,0:0:0:0:
99,165,78178,1,0,0:0:0:0:
100,158,78209,1,0,0:0:0:0:
101,152,78241,1,0,0:0:0:0:
103,145,78273,1,0,0:0:0:0:
105,139,78305,1,0,0:0:0:0:
108,133,78337,1,0,0:0:0:0:
110,127,78369,1,0,0:0:0:0:
113,121,78400,1,0,0:0:0:0:
116,115,78432,1,0,0:0:0:0:
119,109,78464,1,0,0:0:0:0:
123,103,78495,1,0,0:0:0:0:
127,98,78527,1,0,0:0:0:0:
131,93,78559,1,0,0:0:0:0:
135,87,78590,1,0,0:0:0:0:
139,83,78622,1,0,0:0:0:0:
144,78,78653,1,0,0:0:0:0:
149,73,78685,1,0,0:0:0:0:
154,69,78717,1,0,0:0:0:0:
159,65,78749,1,0,0:0:0:0:
165,61,78780,1,0,0:0:0:0:
170,57,78812,1,0,0:0:0:0:
176,54,78843,1,0,0:0:0:0:
182,50,78875,1,0,0:0:0:0:
188,47,78906,1,0,0:0:0:0:
194,45,78938,1,0,0:0:0:0:
200,42,78969,1,0,0:0:0:0:
206,40,79000,1,0,0:0:0:0:
213,38,79032,1,0,0:0:0:0:
219,37,79063,1,0,0:0:0:0:
226,35,79095,1,0,0:0:0:0:
232,34,79127,1,0,0:0:0:0:
239,33,79158,1,0,0:0:0:0:
246,33,79189,1,0,0:0:0:0:
252,32,79221,1,0,0:0:0:0:
259,32,79252,1,0,0:0:0:0:
265,33,79283,1,0,0:0:0:0:
272,33,79315,1,0,0:0:0:0:
279,34,79346,1,0,0:0:0:0:
285,35,79377,1,0,0:0:0:0:
292,37,79408,1,0,0:0:0:0:
298,38,79440,1,0,0:0:0:0:
305,40,79471,1,0,0:0:0:0:
311,42,79503,1,0,0:0:0:0:
317,45,79534,1,0,0:0:0:0:
323,47,79565,1,0,0:0:0:0:
329,50,79596,1,0,0:0:0:0:
335,54,79627,1,0,0:0:0:0:
341,57,79658,1,0,0:0:0:0:
346,61,79690,1,0,0:0:0:0:
352,65,79721,1,0,0:0:0:0:
357,69,79752,1,0,0:0:0:0:
362,73,79783,1,0,0:0:0:0:
367,78,79814,1,0,0:0:0:0:
372,83,79845,1,0,0:0:0:0:
376,87,79876,1,0,0:0:0:0:
380,93,79906,1,0,0:0:0:0:
384,98,79937,1,0,0:0:0:0:
388,103,79968,1,0,0:0:0:0:
392,109,79999,1,0,0:0:0:0:
395,115,80030,1,0,0:0:0:0:
398,121,80062,1,0,0:0:0:0:
401,127,80092,1,0,0:0:0:0:
403,133,80123,1,0,0:0:0:0:
406,139,80154,1,0,0:0:0:0:
408,145,80185,1,0,0:0:0:0:
410,152,80216,1,0,0:0:0:0:
411,158,80247,1,0,0:0:0:0:
412,165,80277,1,0,0:0:0:0:
413,172,80308,1,0,0:0:0:0:
414,178,80339,1,0,0:0:0:0:
415,185,80370,1,0,0:0:0:0:
415,192,80400,1,0,0:0:0:0:
415,198,80432,1,0,0:0:0:0:
414,205,80462,1,0,0:0:0:0:
413,211,80493,1,0,0:0:0:0:
412,218,80524,1,0,0:0:0:0:
411,225,80554,1,0,0:0:0:0:
410,231,80585,1,0,0:0:0:0:
408,238,80616,1,0,0:0:0:0:
406,244,80646,1,0,0:0:0:0:
403,250,80677,1,0,0:0:0:0:
401,256,80707,1,0,0:0:0:0:
398,262,80738,1,0,0:0:0:0:
395,268,80768,1,0,0:0:0:0:
392,274,80799,1,0,0:0:0:0:
388,280,80829,1,0,0:0:0:0:
384,285,80859,1,0,0:0:0:0:
380,290,80890,1,0,0:0:0:0:
376,296,80920,1,0,0:0:0:0:
372,300,80951,1,0,0:0:0:0:
367,305,80982,1,0,0:0:0:0:
362,310,81012,1,0,0:0:0:0:
357,314,81042,1,0,0:0:0:0:
352,318,81073,1,0,0:0:0:0:
346,322,81103,1,0,0:0:0:0:
341,326,81133,1,0,0:0:0:0:
335,329,81164,1,0,0:0:0:0:
329,333,81194,1,0,0:0:0:0:
323,336,81224,1,0,0:0:0:0:
317,338,81254,1,0,0:0:0:0:
311,341,81285,1,0,0:0:0:0:
305,343,81315,1,0,0:0:0:0:
298,345,81346,1,0,0:0:0:0:
292,346,81376,1,0,0:0:0:0:
285,348,81406,1,0,0:0:0:0:
279,349,81436,1,0,0:0:0:0:
272,350,81466,1,0,0:0:0:0:
265,350,81497,1,0,0:0:0:0:
259,351,81527,1,0,0:0:0:0:
252,351,81557,1,0,0:0:0:0:
246,350,81587,1,0,0:0:0:0:
239,350,81617,1,0,0:0:0:0:
232,349,81647,1,0,0:0:0:0:
226,348,81677,1,0,0:0:0:0:
219,346,81708,1,0,0:0:0:0:
213,345,81738,1,0,0:0:0:0:
206,343,81768,1,0,0:0:0:0:
200,341,81798,1,0,0:0:0:0:
194,338,81828,1,0,0:0:0:0:
188,336,81858,1,0,0:0:0:0:
182,333,81888,1,0,0:0:0:0:
176,329,81917,1,0,0:0:0:0:
170,326,81947,1,0,0:0:0:0:
165,322,81977,1,0,0:0:0:0:
159,318,82007,1,0,0:0:0:0:
154,314,82037,1,0,0:0:0:0:
149,310,82068,1,0,0:0:0:0:
144,305,82097,1,0,0:0:0:0:
139,300,82127,1,0,0:0:0:0:
135,296,82157,1,0,0:0:0:0:
131,290,82187,1,0,0:0:0:0:
127,285,82217,1,0,0:0:0:0:
123,280,82247,1,0,0:0:0:0:
119,274,82276,1,0,0:0:0:0:
116,268,82306,1,0,0:0:0:0:
113,262,82336,1,0,0:0:0:0:
110,256,82366,1,0,0:0:0:0:
108,250,82395,1,0,0:0:0:0:
105,244,82426,1,0,0:0:0:0:
103,238,82455,1,0,0:0:0:0:
101,231,82485,1,0,0:0:0:0:
100,225,82515,1,0,0:0:0:0:
99,218,82544,1,0,0:0:0:0:
98,211,82574,1,0,0:0:0:0:
97,205,82604,1,0,0:0:0:0:
96,198,82633,1,0,0:0:0:0:
96,191,82663,1,0,0:0:0:0:
96,185,82692,1,0,0:0:0:0:
97,178,82722,1,0,0:0:0:0:
98,172,82751,1,0,0:0:0:0:
99,165,82782,1,0,0:0:0:0:
100,158,82811,1,0,0:0:0:0:
101,152,82840,1,0,0:0:0:0:
103,145,82870,1,0,0:0:0:0:
105,139,82899,1,0,0:0:0:0:
108,133,82929,1,0,0:0:0:0:
110,127,82959,1,0,0:0:0:0:
113,121,82988,1,0,0:0:0:0:
116,115,83017,1,0,0:0:0:0:
119,109,83047,1,0,0:0:0:0:
123,103,83076,1,0,0:0:0:0:
127,98,83106,1,0,0:0:0:0:
131,93,83135,1,0,0:0:0:0:
135,87,83164,1,0,0:0:0:0:
139,83,83193,1,0,0:0:0:0:
144,78,83222,1,0,0:0:0:0:
149,73,83252,1,0,0:0:0:0:
154,69,83281,1,0,0:0:0:0:
159,65,83311,1,0,0:0:0:0:
165,61,83340,1,0,0:0:0:0:
170,57,83369,1,0,0:0:0:0:
176,54,83398,1,0,0:0:0:0:
182,50,83427,1,0,0:0:0:0:
188,47,83457,1,0,0:0:0:0:
194,45,83486,1,0,0:0:0:0:
200,42,83515,1,0,0:0:0:0:
206,40,83544,1,0,0:0:0:0:
213,38,83573,1,0,0:0:0:0:
219,37,83602,1,0,0:0:0:0:
226,35,83631,1,0,0:0:0:0:
232,34,83661,1,0,0:0:0:0:
239,33,83690,1,0,0:0:0:0:
246,33,83719,1,0,0:0:0:0:
252,32,83748,1,0,0:0:0:0:
259,32,83777,1,0,0:0:0:0:
265,33,83806,1,0,0:0:0:0:
272,33,83835,1,0,0:0:0:0:
279,34,83863,1,0,0:0:0:0:
285,35,83892,1,0,0:0:0:0:
292,37,83921,1,0,0:0:0:0:
298,38,83950,1,0,0:0:0:0:
305,40,83979,1,0,0:0:0:0:
311,42,84009,1,0,0:0:0:0:
317,45,84037,1,0,0:0:0:0:
323,47,84066,1,0,0:0:0:0:
329,50,84095,1,0,0:0:0:0:
335,54,84124,1,0,0:0:0:0:
341,57,84153,1,0,0:0:0:0:
346,61,84182,1,0,0:0:0:0:
352,65,84210,1,0,0:0:0:0:
357,69,84239,1,0,0:0:0:0:
362,73,84268,1,0,0:0:0:0:
367,78,84297,1,0,0:0:0:0:
372,83,84326,1,0,0:0:0:0:
376,87,84355,1,0,0:0:0:0:
380,93,84383,1,0,0:0:0:0:
384,98,84412,1,0,0:0:0:0:
388,103,84441,1,0,0:0:0:0:
392,109,84469,1,0,0:0:0:0:
395,115,84498,1,0,0:0:0:0:
398,121,84527,1,0,0:0:0:0:
401,127,84555,1,0,0:0:0:0:
403,133,84584,1,0,0:0:0:0:
406,139,84612,1,0,0:0:0:0:
408,145,84641,1,0,0:0:0:0:
410,152,84670,1,0,0:0:0:0:
411,158,84699,1,0,0:0:0:0:
412,165,84727,1,0,0:0:0:0:
413,172,84756,1,0,0:0:0:0:
414,178,84784,1,0,0:0:0:0:
415,185,84813,1,0,0:0:0:0:
415,192,84841,1,0,0:0:0:0:
415,198,84870,1,0,0:0:0:0:
414,205,84898,1,0,0:0:0:0:
413,211,84926,1,0,0:0:0:0:
412,218,84955,1,0,0:0:0:0:
411,225,84983,1,0,0:0:0:0:
410,231,85012,1,0,0:0:0:0:
408,238,85040,1,0,0:0:0:0:
406,244,85069,1,0,0:0:0:0:
403,250,85097,1,0,0:0:0:0:
401,256,85126,1,0,0:0:0:0:
398,262,85154,1,0,0:0:0:0:
395,268,85183,1,0,0:0:0:0:
392,274,85211,1,0,0:0:0:0:
388,280,85239,1,0,0:0:0:0:
384,285,85267,1,0,0:0:0:0:
380,290,85295,1,0,0:0:0:0:
376,296,85324,1,0,0:0:0:0:
372,300,85352,1,0,0:0:0:0:
367,305,85380,1,0,0:0:0:0:
362,310,85409,1,0,0:0:0:0:
357,314,85437,1,0,0:0:0:0:
352,318,85465,1,0,0:0:0:0:
346,322,85493,1,0,0:0:0:0:
341,326,85522,1,0,0:0:0:0:
335,329,85550,1,0,0:0:0:0:
329,333,85578,1,0,0:0:0:0:
323,336,85606,1,0,0:0:0:0:
317,338,85634,1,0,0:0:0:0:
311,341,85662,1,0,0:0:0:0:
305,343,85690,1,0,0:0:0:0:
298,345,85719,1,0,0:0:0:0:
292,346,85747,1,0,0:0:0:0:
285,348,85775,1,0,0:0:0:0:
279,349,85803,1,0,0:0:0:0:
272,350,85831,1,0,0:0:0:0:
265,350,85859,1,0,0:0:0:0:
259,351,85887,1,0,0:0:0:0:
252,351,85916,1,0,0:0:0:0:
246,350,85944,1,0,0:0:0:0:
239,350,85972,1,0,0:0:0:0:
232,349,86000,1,0,0:0:0:0:
226,348,86028,1,0,0:0:0:0:
219,346,86056,1,0,0:0:0:0:
213,345,86083,1,0,0:0:0:0:
206,343,86111,1,0,0:0:0:0:
200,341,86139,1,0,0:0:0:0:
194,338,86167,1,0,0:0:0:0:
188,336,86195,1,0,0:0:0:0:
182,333,86223,1,0,0:0:0:0:
176,329,86251,1,0,0:0:0:0:
170,326,86279,1,0,0:0:0:0:
165,322,86307,1,0,0:0:0:0:
159,318,86335,1,0,0:0:0:0:
154,314,86363,1,0,0:0:0:0:
149,310,86391,1,0,0:0:0:0:
144,305,86418,1,0,0:0:0:0:
139,300,86446,1,0,0:0:0:0:
135,296,86474,1,0,0:0:0:0:
131,290,86502,1,0,0:0:0:0:
127,285,86529,1,0,0:0:0:0:
123,280,86557,1,0,0:0:0:0:
119,274,86585,1,0,0:0:0:0:
116,268,86613,1,0,0:0:0:0:
113,262,86641,1,0,0:0:0:0:
110,256,86668,1,0,0:0:0:0:
108,250,86696,1,0,0:0:0:0:
105,244,86724,1,0,0:0:0:0:
103,238,86751,1,0,0:0:0:0:
101,231,86779,1,0,0:0:0:0:
100,225,86806,1,0,0:0:0:0:
99,218,86834,1,0,0:0:0:0:
98,211,86862,1,0,0:0:0:0:
97,205,86890,1,0,0:0:0:0:
96,198,86917,1,0,0:0:0:0:
96,191,86945,1,0,0:0:0:0:
96,185,86972,1,0,0:0:0:0:
97,178,87000,1,0,0:0:0:0:
98,172,87027,1,0,0:0:0:0:
99,165,87055,1,0,0:0:0:0:
100,158,87082,1,0,0:0:0:0:
101,152,87109,1,0,0:0:0:0:
103,145,87137,1,0,0:0:0:0:
105,139,87164,1,0,0:0:0:0:
108,133,87192,1,0,0:0:0:0:
110,127,87220,1,0,0:0:0:0:
113,121,87247,1,0,0:0:0:0:
116,115,87274,1,0,0:0:0:0:
119,109,87302,1,0,0:0:0:0:
123,103,87329,1,0,0:0:0:0:
127,98,87356,1,0,0:0:0:0:
131,93,87384,1,0,0:0:0:0:
135,87,87411,1,0,0:0:0:0:
139,83,87438,1,0,0:0:0:0:
144,78,87465,1,0,0:0:0:0:
149,73,87493,1,0,0:0:0:0:
154,69,87520,1,0,0:0:0:0:
159,65,87548,1,0,0:0:0:0:
165,61,87575,1,0,0:0:0:0:
170,57,87602,1,0,0:0:0:0:
176,54,87629,1,0,0:0:0:0:
182,50,87656,1,0,0:0:0:0:
188,47,87684,1,0,0:0:0:0:
194,45,87711,1,0,0:0:0:0:
200,42,87738,1,0,0:0:0:0:
206,40,87765,1,0,0:0:0:0:
213,38,87792,1,0,0:0:0:0:
219,37,87819,1,0,0:0:0:0:
226,35,87846,1,0,0:0:0:0:
232,34,87874,1,0,0:0:0:0:
239,33,87901,1,0,0:0:0:0:
246,33,87928,1,0,0:0:0:0:
252,32,87955,1,0,0:0:0:0:
259,32,87982,1,0,0:0:0:0:
265,33,88009,1,0,0:0:0:0:
272,33,88037,1,0,0:0:0:0:
279,34,88064,1,0,0:0:0:0:
285,35,88091,1,0,0:0:0:0:
292,37,88118,1,0,0:0:0:0:
298,38,88145,1,0,0:0:0:0:
305,40,88172,1,0,0:0:0:0:
311,42,88199,1,0,0:0:0:0:
317,45,88225,1,0,0:0:0:0:
323,47,88252,1,0,0:0:0:0:
329,50,88279,1,0,0:0:0:0:
335,54,88306,1,0,0:0:0:0:
341,57,88333,1,0,0:0:0:0:
346,61,88361,1,0,0:0:0:0:
352,65,88387,1,0,0:0:0:0:
357,69,88414,1,0,0:0:0:0:
362,73,88441,1,0,0:0:0:0:
367,78,88468,1,0,0:0:0:0:
372,83,88495,1,0,0:0:0:0:
376,87,88522,1,0,0:0:0:0:
380,93,88548,1,0,0:0:0:0:
384,98,88575,1,0,0:0:0:0:
388,103,88602,1,0,0:0:0:0:
392,109,88629,1,0,0:0:0:0:
395,115,88656,1,0,0:0:0:0:
398,121,88683,1,0,0:0:0:0:
401,127,88709,1,0,0:0:0:0:
403,133,88736,1,0,0:0:0:0:
406,139,88763,1,0,0:0:0:0:
408,145,88789,1,0,0:0:0:0:
410,152,88816,1,0,0:0:0:0:
411,158,88843,1,0,0:0:0:0:
412,165,88869,1,0,0:0:0:0:
413,172,88896,1,0,0:0:0:0:
414,178,88923,1,0,0:0:0:0:
415,185,88949,1,0,0:0:0:0:
415,192,88976,1,0,0:0:0:0:
415,198,89003,1,0,0:0:0:0:
414,205,89029,1,0,0:0:0:0:
413,211,89056,1,0,0:0:0:0:
412,218,89082,1,0,0:0:0:0:
411,225,89109,1,0,0:0:0:0:
410,231,89135,1,0,0:0:0:0:
408,238,89163,1,0,0:0:0:0:
406,244,89189,1,0,0:0:0:0:
403,250,89216,1,0,0:0:0:0:
401,256,89242,1,0,0:0:0:0:
398,262,89269,1,0,0:0:0:0:
395,268,89295,1,0,0:0:0:0:
392,274,89322,1,0,0:0:0:0:
388,280,89348,1,0,0:0:0:0:
384,285,89374,1,0,0:0:0:0:
380,290,89401,1,0,0:0:0:0:
376,296,89427,1,0,0:0:0:0:
372,300,89454,1,0,0:0:0:0:
367,305,89481,1,0,0:0:0:0:
362,310,89507,1,0,0:0:0:0:
357,314,89533,1,0,0:0:0:0:
352,318,89560,1,0,0:0:0:0:
346,322,89586,1,0,0:0:0:0:
341,326,89612,1,0,0:0:0:0:
335,329,89639,1,0,0:0:0:0:
329,333,89665,1,0,0:0:0:0:
323,336,89691,1,0,0:0:0:0:
317,338,89717,1,0,0:0:0:0:
311,341,89744,1,0,0:0:0:0:
305,343,89770,1,0,0:0:0:0:
298,345,89797,1,0,0:0:0:0:
292,346,89823,1,0,0:0:0:0:
285,348,89849,1,0,0:0:0:0:
279,349,89875,1,0,0:0:0:0:
272,350,89901,1,0,0:0:0:0:
265,350,89928,1,0,0:0:0:0:
259,351,89954,1,0,0:0:0:0:
252,351,89980,1,0,0:0:0:0:
246,350,90006,1,0,0:0:0:0:
239,350,90032,1,0,0:0:0:0:
232,349,90058,1,0,0:0:0:0:
226,348,90084,1,0,0:0:0:0:
219,346,90111,1,0,0:0:0:0:
213,345,90137,1,0,0:0:0:0:
206,343,90163,1,0,0:0:0:0:
200,341,90189,1,0,0:0:0:0:
194,338,90215,1,0,0:0:0:0:
188,336,90241,1,0,0:0:0:0:
182,333,90268,1,0,0:0:0:0:
176,329,90294,1,0,0:0:0:0:
170,326,90320,1,0,0:0:0:0:
165,322,90346,1,0,0:0:0:0:
159,318,90372,1,0,0:0:0:0:
154,314,90398,1,0,0:0:0:0:
149,310,90424,1,0,0:0:0:0:
144,305,90449,1,0,0:0:0:0:
139,300,90475,1,0,0:0:0:0:
135,296,90501,1,0,0:0:0:0:
131,290,90527,1,0,0:0:0:0:
127,285,90553,1,0,0:0:0:0:
123,280,90580,1,0,0:0:0:0:
119,274,90605,1,0,0:0:0:0:
116,268,90631,1,0,0:0:0:0:
113,262,90657,1,0,0:0:0:0:
110,256,90683,1,0,0:0:0:0:
108,250,90709,1,0,0:0:0:0:
105,244,90735,1,0,0:0:0:0:
103,238,90760,1,0,0:0:0:0:
101,231,90786,1,0,0:0:0:0:
100,225,90812,1,0,0:0:0:0:
99,218,90838,1,0,0:0:0:0:
98,211,90864,1,0,0:0:0:0:
97,205,90890,1,0,0:0:0:0:
96,198,90915,1,0,0:0:0:0:
96,191,90941,1,0,0:0:0:0:
96,185,90967,1,0,0:0:0:0:
97,178,90993,1,0,0:0:0:0:
98,172,91018,1,0,0:0:0:0:
99,165,91045,1,0,0:0:0:0:
100,158,91070,1,0,0:0:0:0:
101,152,91096,1,0,0:0:0:0:
103,145,91122,1,0,0:0:0:0:
105,139,91147,1,0,0:0:0:0:
108,133,91173,1,0,0:0:0:0:
110,127,91199,1,0,0:0:0:0:
113,121,91224,1,0,0:0:0:0:
116,115,91250,1,0,0:0:0:0:
119,109,91275,1,0,0:0:0:0:
123,103,91301,1,0,0:0:0:0:
127,98,91327,1,0,0:0:0:0:
131,93,91353,1,0,0:0:0:0:
135,87,91378,1,0,0:0:0:0:
139,83,91404,1,0,0:0:0:0:
144,78,91429,1,0,0:0:0:0:
149,73,91455,1,0,0:0:0:0:
154,69,91480,1,0,0:0:0:0:
159,65,91506,1,0,0:0:0:0:
165,61,91531,1,0,0:0:0:0:
170,57,91557,1,0,0:0:0:0:
176,54,91582,1,0,0:0:0:0:
182,50,91608,1,0,0:0:0:0:
188,47,91633,1,0,0:0:0:0:
194,45,91659,1,0,0:0:0:0:
200,42,91684,1,0,0:0:0:0:
206,40,91709,1,0,0:0:0:0:
213,38,91735,1,0,0:0:0:0:
219,37,91760,1,0,0:0:0:0:
226,35,91786,1,0,0:0:0:0:
232,34,91812,1,0,0:0:0:0:
239,33,91837,1,0,0:0:0:0:
246,33,91862,1,0,0:0:0:0:
252,32,91888,1,0,0:0:0:0:
259,32,91913,1,0,0:0:0:0:
265,33,91938,1,0,0:0:0:0:
272,33,91964,1,0,0:0:0:0:
279,34,91989,1,0,0:0:0:0:
285,35,92014,1,0,0:0:0:0:
292,37,92039,1,0,0:0:0:0:
298,38,92065,1,0,0:0:0:0:
305,40,92090,1,0,0:0:0:0:
311,42,92116,1,0,0:0:0:0:
317,45,92141,1,0,0:0:0:0:
323,47,92166,1,0,0:0:0:0:
329,50,92191,1,0,0:0:0:0:
335,54,92217,1,0,0:0:0:0:
341,57,92242,1,0,0:0:0:0:
346,61,92268,1,0,0:0:0:0:
352,65,92293,1,0,0:0:0:0:
357,69,92318,1,0,0:0:0:0:
362,73,92343,1,0,0:0:0:0:
367,78,92368,1,0,0:0:0:0:
372,83,92393,1,0,0:0:0:0:
376,87,92419,1,0,0:0:0:0:
380,93,92444,1,0,0:0:0:0:
384,98,92469,1,0,0:0:0:0:
388,103,92494,1,0,0:0:0:0:
392,109,92519,1,0,0:0:0:0:
395,115,92544,1,0,0:0:0:0:
398,121,92570,1,0,0:0:0:0:
401,127,92595,1,0,0:0:0:0:
403,133,92620,1,0,0:0:0:0:
406,139,92645,1,0,0:0:0:0:
408,145,92670,1,0,0:0:0:0:
410,152,92695,1,0,0:0:0:0:
411,158,92720,1,0,0:0:0:0:
412,165,92745,1,0,0:0:0:0:
413,172,92770,1,0,0:0:0:0:
414,178,92795,1,0,0:0:0:0:
415,185,92820,1,0,0:0:0:0:
415,192,92845,1,0,0:0:0:0:
415,198,92870,5,0,0:0:0:0:
414,205,92894,1,0,0:0:0:0:
413,211,92919,1,0,0:0:0:0:
412,218,92944,1,0,0:0:0:0:
411,225,92969,1,0,0:0:0:0:
410,231,92994,1,0,0:0:0:0:
408,238,93019,1,0,0:0:0:0:
406,244,93044,1,0,0:0:0:0:
403,250,93069,1,0,0:0:0:0:
401,256,93094,1,0,0:0:0:0:
398,262,93119,1,0,0:0:0:0:
395,268,93144,1,0,0:0:0:0:
392,274,93169,1,0,0:0:0:0:
388,280,93193,1,0,0:0:0:0:
384,285,93218,1,0,0:0:0:0:
380,290,93243,1,0,0:0:0:0:
376,296,93268,1,0,0:0:0:0:
372,300,93293,1,0,0:0:0:0:
367,305,93317,1,0,0:0:0:0:
362,310,93342,1,0,0:0:0:0:
357,314,93367,1,0,0:0:0:0:
352,318,93392,1,0,0:0:0:0:
346,322,93417,1,0,0:0:0:0:
341,326,93441,1,0,0:0:0:0:
335,329,93466,1,0,0:0:0:0:
329,333,93491,1,0,0:0:0:0:
323,336,93516,1,0,0:0:0:0:
317,338,93541,1,0,0:0:0:0:
311,341,93565,1,0,0:0:0:0:
305,343,93590,1,0,0:0:0:0:
298,345,93615,1,0,0:0:0:0:
292,346,93639,1,0,0:0:0:0:
285,348,93664,1,0,0:0:0:0:
279,349,93688,1,0,0:0:0:0:
272,350,93713,1,0,0:0:0:0:
265,350,93738,1,0,0:0:0:0:
259,351,93762,1,0,0:0:0:0:
252,351,93787,1,0,0:0:0:0:
246,350,93812,1,0,0:0:0:0:
239,350,93836,1,0,0:0:0:0:
232,349,93861,1,0,0:0:0:0:
226,348,93885,1,0,0:0:0:0:
219,346,93910,1,0,0:0:0:0:
213,345,93934,1,0,0:0:0:0:
206,343,93959,1,0,0:0:0:0:
200,341,93983,1,0,0:0:0:0:
194,338,94008,1,0,0:0:0:0:
188,336,94032,1,0,0:0:0:0:
182,333,94057,1,0,0:0:0:0:
176,329,94081,1,0,0:0:0:0:
170,326,94105,1,0,0:0:0:0:
165,322,94130,1,0,0:0:0:0:
159,318,94154,1,0,0:0:0:0:
154,314,94179,1,0,0:0:0:0:
149,310,94203,1,0,0:0:0:0:
144,305,94228,1,0,0:0:0:0:
139,300,94252,1,0,0:0:0:0:
135,296,94277,1,0,0:0:0:0:
131,290,94301,1,0,0:0:0:0:
127,285,94325,1,0,0:0:0:0:
123,280,94350,1,0,0:0:0:0:
119,274,94374,1,0,0:0:0:0:
116,268,94398,1,0,0:0:0:0:
113,262,94422,1,0,0:0:0:0:
110,256,94447,1,0,0:0:0:0:
108,250,94471,1,0,0:0:0:0:
105,244,94495,1,0,0:0:0:0:
103,238,94520,1,0,0:0:0:0:
101,231,94544,1,0,0:0:0:0:
100,225,94568,1,0,0:0:0:0:
99,218,94593,1,0,0:0:0:0:
98,211,94617,1,0,0:0:0:0:
97,205,94641,1,0,0:0:0:0:
96,198,94666,1,0,0:0:0:0:
96,191,94690,1,0,0:0:0:0:
96,185,94714,1,0,0:0:0:0:
97,178,94738,1,0,0:0:0:0:
98,172,94763,1,0,0:0:0:0:
99,165,94787,1,0,0:0:0:0:
100,158,94811,1,0,0:0:0:0:
101,152,94835,1,0,0:0:0:0:
103,145,94859,1,0,0:0:0:0:
105,139,94883,1,0,0:0:0:0:
108,133,94907,1,0,0:0:0:0:
110,127,94931,1,0,0:0:0:0:
113,121,94956,1,0,0:0:0:0:
116,115,94980,1,0,0:0:0:0:
119,109,95004,1,0,0:0:0:0:
123,103,95028,1,0,0:0:0:0:
127,98,95052,1,0,0:0:0:0:
131,93,95076,1,0,0:0:0:0:
135,87,95101,1,0,0:0:0:0:
139,83,95125,1,0,0:0:0:0:
144,78,95149,1,0,0:0:0:0:
149,73,95173,1,0,0:0:0:0:
154,69,95197,1,0,0:0:0:0:
159,65,95221,1,0,0:0:0:0:
165,61,95244,1,0,0:0:0:0:
170,57,95268,1,0,0:0:0:0:
176,54,95292,1,0,0:0:0:0:
182,50,95316,1,0,0:0:0:0:
188,47,95340,1,0,0:0:0:0:
194,45,95364,1,0,0:0:0:0:
200,42,95388,1,0,0:0:0:0:
206,40,95412,1,0,0:0:0:0:
213,38,95436,1,0,0:0:0:0:
219,37,95460,1,0,0:0:0:0:
226,35,95484,1,0,0:0:0:0:
232,34,95508,1,0,0:0:0:0:
239,33,95532,1,0,0:0:0:0:
246,33,95556,1,0,0:0:0:0:
252,32,95580,1,0,0:0:0:0:
259,32,95604,1,0,0:0:0:0:
265,33,95628,1,0,0:0:0:0:
272,33,95652,1,0,0:0:0:0:
279,34,95675,1,0,0:0:0:0:
285,35,95699,1,0,0:0:0:0:
292,37,95723,1,0,0:0:0:0:
298,38,95747,1,0,0:0:0:0:
305,40,95771,1,0,0:0:0:0:
311,42,95795,1,0,0:0:0:0:
317,45,95818,1,0,0:0:0:0:
323,47,95842,1,0,0:0:0:0:
329,50,95866,1,0,0:0:0:0:
335,54,95890,1,0,0:0:0:0:
341,57,95913,1,0,0:0:0:0:
346,61,95937,1,0,0:0:0:0:
352,65,95961,1,0,0:0:0:0:
357,69,95985,1,0,0:0:0:0:
362,73,96009,1,0,0:0:0:0:
367,78,96032,1,0,0:0:0:0:
372,83,96056,1,0,0:0:0:0:
376,87,96080,1,0,0:0:0:0:
380,93,96103,1,0,0:0:0:0:
384,98,96127,1,0,0:0:0:0:
388,103,96150,1,0,0:0:0:0:
392,109,96174,1,0,0:0:0:0:
395,115,96198,1,0,0:0:0:0:
398,121,96222,1,0,0:0:0:0:
401,127,96245,1,0,0:0:0:0:
403,133,96269,1,0,0:0:0:0:
406,139,96292,1,0,0:0:0:0:
408,145,96316,1,0,0:0:0:0:
410,152,96339,1,0,0:0:0:0:
411,158,96363,1,0,0:0:0:0:
412,165,96387,1,0,0:0:0:0:
413,172,96411,1,0,0:0:0:0:
414,178,96434,1,0,0:0:0:0:
415,185,96458,1,0,0:0:0:0:
415,192,96481,1,0,0:0:0:0:
415,198,96505,1,0,0:0:0:0:
414,205,96528,1,0,0:0:0:0:
413,211,96551,1,0,0:0:0:0:
412,218,96575,1,0,0:0:0:0:
411,225,96598,1,0,0:0:0:0:
410,231,96622,1,0,0:0:0:0:
408,238,96646,1,0,0:0:0:0:
406,244,96669,1,0,0:0:0:0:
403,250,96692,1,0,0:0:0:0:
401,256,96716,1,0,0:0:0:0:
398,262,96739,1,0,0:0:0:0:
395,268,96763,1,0,0:0:0:0:
392,274,96787,1,0,0:0:0:0:
388,280,96810,1,0,0:0:0:0:
384,285,96833,1,0,0:0:0:0:
380,290,96857,1,0,0:0:0:0:
376,296,96880,1,0,0:0:0:0:
372,300,96903,1,0,0:0:0:0:
367,305,96927,1,0,0:0:0:0:
362,310,96950,1,0,0:0:0:0:
357,314,96973,1,0,0:0:0:0:
352,318,96996,1,0,0:0:0:0:
346,322,97020,1,0,0:0:0:0:
341,326,97043,1,0,0:0:0:0:
335,329,97067,1,0,0:0:0:0:
329,333,97090,1,0,0:0:0:0:
323,336,97113,1,0,0:0:0:0:
317,338,97136,1,0,0:0:0:0:
311,341,97160,1,0,0:0:0:0:
305,343,97183,1,0,0:0:0:0:
298,345,97207,1,0,0:0:0:0:
292,346,97230,1,0,0:0:0:0:
285,348,97253,1,0,0:0:0:0:
279,349,97276,1,0,0:0:0:0:
272,350,97299,1,0,0:0:0:0:
265,350,97323,1,0,0:0:0:0:
259,351,97346,1,0,0:0:0:0:
252,351,97369,1,0,0:0:0:0:
246,350,97392,1,0,0:0:0:0:
239,350,97415,1,0,0:0:0:0:
232,349,97438,1,0,0:0:0:0:
226,348,97461,1,0,0:0:0:0:
219,346,97485,1,0,0:0:0:0:
213,345,97508,1,0,0:0:0:0:
206,343,97531,1,0,0:0:0:0:
200,341,97554,1,0,0:0:0:0:
194,338,97577,1,0,0:0:0:0:
188,336,97600,1,0,0:0:0:0:
182,333,97624,1,0,0:0:0:0:
176,329,97647,1,0,0:0:0:0:
170,326,97670,1,0,0:0:0:0:
165,322,97693,1,0,0:0:0:0:
159,318,97716,1,0,0:0:0:0:
154,314,97739,1,0,0:0:0:0:
149,310,97762,1,0,0:0:0:0:
144,305,97784,1,0,0:0:0:0:
139,300,97807,1,0,0:0:0:0:
135,296,97830,1,0,0:0:0:0:
131,290,97853,1,0,0:0:0:0:
127,285,97876,1,0,0:0:0:0:
123,280,97900,1,0,0:0:0:0:
119,274,97922,1,0,0:0:0:0:
116,268,97945,1,0,0:0:0:0:
113,262,97968,1,0,0:0:0:0:
110,256,97991,1,0,0:0:0:0:
108,250,98014,1,0,0:0:0:0:
105,244,98038,1,0,0:0:0:0:
103,238,98060,1,0,0:0:0:0:
101,231,98083,1,0,0:0:0:0:
100,225,98106,1,0,0:0:0:0:
99,218,98129,1,0,0:0:0:0:
98,211,98152,1,0,0:0:0:0:
97,205,98175,1,0,0:0:0:0:
96,198,98197,1,0,0:0:0:0:
96,191,98220,1,0,0:0:0:0:
96,185,98243,1,0,0:0:0:0:
97,178,98266,1,0,0:0:0:0:
98,172,98289,1,0,0:0:0:0:
99,165,98312,1,0,0:0:0:0:
100,158,98334,1,0,0:0:0:0:
101,152,98357,1,0,0:0:0:0:
103,145,98380,1,0,0:0:0:0:
105,139,98403,1,0,0:0:0:0:
108,133,98425,1,0,0:0:0:0:
110,127,98449,1,0,0:0:0:0:
113,121,98471,1,0,0:0:0:0:
116,115,98494,1,0,0:0:0:0:
119,109,98517,1,0,0:0:0:0:
123,103,98539,1,0,0:0:0:0:
127,98,98562,1,0,0:0:0:0:
131,93,98585,1,0,0:0:0:0:
135,87,98607,1,0,0:0:0:0:
139,83,98630,1,0,0:0:0:0:
144,78,98653,1,0,0:0:0:0:
149,73,98675,1,0,0:0:0:0:
154,69,98698,1,0,0:0:0:0:
159,65,98721,1,0,0:0:0:0:
165,61,98743,1,0,0:0:0:0:
170,57,98766,1,0,0:0:0:0:
176,54,98788,1,0,0:0:0:0:
182,50,98811,1,0,0:0:0:0:
188,47,98834,1,0,0:0:0:0:
194,45,98857,1,0,0:0:0:0:
200,42,98879,1,0,0:0:0:0:
206,40,98902,1,0,0:0:0:0:
213,38,98924,1,0,0:0:0:0:
219,37,98947,1,0,0:0:0:0:
226,35,98969,1,0,0:0:0:0:
232,34,98992,1,0,0:0:0:0:
239,33,99014,1,0,0:0:0:0:
246,33,99037,1,0,0:0:0:0:
252,32,99059,1,0,0:0:0:0:
259,32,99082,1,0,0:0:0:0:
265,33,99104,1,0,0:0:0:0:
272,33,99127,1,0,0:0:0:0:
279,34,99149,1,0,0:0:0:0:
285,35,99171,1,0,0:0:0:0:
292,37,99194,1,0,0:0:0:0:
298,38,99216,1,0,0:0:0:0:
305,40,99239,1,0,0:0:0:0:
311,42,99262,1,0,0:0:0:0:
317,45,99284,1,0,0:0:0:0:
323,47,99306,1,0,0:0:0:0:
329,50,99329,1,0,0:0:0:0:
335,54,99351,1,0,0:0:0:0:
341,57,99374,1,0,0:0:0:0:
346,61,99397,1,0,0:0:0:0:
352,65,99419,1,0,0:0:0:0:
357,69,99441,1,0,0:0:0:0:
362,73,99464,1,0,0:0:0:0:
367,78,99486,1,0,0:0:0:0:
372,83,99508,1,0,0:0:0:0:
376,87,99531,1,0,0:0:0:0:
380,93,99553,1,0,0:0:0:0:
384,98,99575,1,0,0:0:0:0:
388,103,99597,1,0,0:0:0:0:
392,109,99620,1,0,0:0:0:0:
395,115,99642,1,0,0:0:0:0:
398,121,99665,1,0,0:0:0:0:
401,127,99687,1,0,0:0:0:0:
403,133,99709,1,0,0:0:0:0:
406,139,99731,1,0,0:0:0:0:
408,145,99754,1,0,0:0:0:0:
410,152,99776,1,0,0:0:0:0:
411,158,99799,1,0,0:0:0:0:
412,165,99821,1,0,0:0:0:0:
413,172,99843,1,0,0:0:0:0:
414,178,99865,1,0,0:0:0:0:
415,185,99887,1,0,0:0:0:0:
415,192,99910,1,0,0:0:0:0:
415,198,99932,1,0,0:0:0:0:
414,205,99954,1,0,0:0:0:0:
413,211,99976,1,0,0:0:0:0:
412,218,99998,1,0,0:0:0:0:
411,225,100020,1,0,0:0:0:0:
410,231,100042,1,0,0:0:0:0:
408,238,100065,1,0,0:0:0:0:
406,244,100087,1,0,0:0:0:0:
403,250,100109,1,0,0:0:0:0:
401,256,100131,1,0,0:0:0:0:
398,262,100153,1,0,0:0:0:0:
395,268,100175,1,0,0:0:0:0:
392,274,100197,1,0,0:0:0:0:
388,280,100220,1,0,0:0:0:0:
384,285,100242,1,0,0:0:0:0:
380,290,100264,1,0,0:0:0:0:
376,296,100286,1,0,0:0:0:0:
372,300,100308,1,0,0:0:0:0:
367,305,100330,1,0,0:0:0:0:
362,310,100352,1,0,0:0:0:0:
357,314,100374,1,0,0:0:0:0:
352,318,100396,1,0,0:0:0:0:
346,322,100418,1,0,0:0:0:0:
341,326,100440,1,0,0:0:0:0:
335,329,100462,1,0,0:0:0:0:
329,333,100483,1,0,0:0:0:0:
323,336,100505,1,0,0:0:0:0:
317,338,100527,1,0,0:0:0:0:
311,341,100549,1,0,0:0:0:0:
305,343,100571,1,0,0:0:0:0:
298,345,100593,1,0,0:0:0:0:
292,346,100615,1,0,0:0:0:0:
285,348,100637,1,0,0:0:0:0:
279,349,100659,1,0,0:0:0:0:
272,350,100681,1,0,0:0:0:0:
265,350,100703,1,0,0:0:0:0:
259,351,100725,1,0,0:0:0:0:
252,351,100747,1,0,0:0:0:0:
246,350,100769,1,0,0:0:0:0:
239,350,100791,1,0,0:0:0:0:
232,349,100813,1,0,0:0:0:0:
226,348,100835,1,0,0:0:0:0:
219,346,100857,1,0,0:0:0:0:
213,345,100878,1,0,0:0:0:0:
206,343,100900,1,0,0:0:0:0:
200,341,100922,1,0,0:0:0:0:
194,338,100944,1,0,0:0:0:0:
188,336,100966,1,0,0:0:0:0:
182,333,100988,1,0,0:0:0:0:
176,329,101009,1,0,0:0:0:0:
170,326,101031,1,0,0:0:0:0:
165,322,101053,1,0,0:0:0:0:
159,318,101075,1,0,0:0:0:0:
154,314,101096,1,0,0:0:0:0:
149,310,101118,1,0,0:0:0:0:
144,305,101140,1,0,0:0:0:0:
139,300,101162,1,0,0:0:0:0:
135,296,101184,1,0,0:0:0:0:
131,290,101205,1,0,0:0:0:0:
127,285,101227,1,0,0:0:0:0:
123,280,101249,1,0,0:0:0:0:
119,274,101270,1,0,0:0:0:0:
116,268,101292,1,0,0:0:0:0:
113,262,101314,1,0,0:0:0:0:
110,256,101335,1,0,0:0:0:0:
108,250,101357,1,0,0:0:0:0:
105,244,101379,1,0,0:0:0:0:
103,238,101400,1,0,0:0:0:0:
101,231,101422,1,0,0:0:0:0:
100,225,101443,1,0,0:0:0:0:
99,218,101465,1,0,0:0:0:0:
98,211,101487,1,0,0:0:0:0:
97,205,101509,1,0,0:0:0:0:
96,198,101530,1,0,0:0:0:0:
96,191,101552,1,0,0:0:0:0:
96,185,101573,1,0,0:0:0:0:
97,178,101595,1,0,0:0:0:0:
98,172,101616,1,0,0:0:0:0:
99,165,101638,1,0,0:0:0:0:
100,158,101660,1,0,0:0:0:0:
101,152,101682,1,0,0:0:0:0:
103,145,101703,1,0,0:0:0:0:
105,139,101725,1,0,0:0:0:0:
108,133,101746,1,0,0:0:0:0:
110,127,101768,1,0,0:0:0:0:
113,121,101789,1,0,0:0:0:0:
116,115,101811,1,0,0:0:0:0:
119,109,101832,1,0,0:0:0:0:
123,103,101854,1,0,0:0:0:0:
127,98,101875,1,0,0:0:0:0:
131,93,101897,1,0,0:0:0:0:
135,87,101918,1,0,0:0:0:0:
139,83,101939,1,0,0:0:0:0:
144,78,101961,1,0,0:0:0:0:
149,73,101982,1,0,0:0:0:0:
154,69,102004,1,0,0:0:0:0:
159,65,102026,1,0,0:0:0:0:
165,61,102047,1,0,0:0:0:0:
170,57,102068,1,0,0:0:0:0:
176,54,102090,1,0,0:0:0:0:
182,50,102111,1,0,0:0:0:0:
188,47,102133,1,0,0:0:0:0:
194,45,102154,1,0,0:0:0:0:
200,42,102175,1,0,0:0:0:0:
206,40,102196,1,0,0:0:0:0:
213,38,102218,1,0,0:0:0:0:
219,37,102239,1,0,0:0:0:0:
226,35,102260,1,0,0:0:0:0:
232,34,102282,1,0,0:0:0:0:
239,33,102303,1,0,0:0:0:0:
246,33,102324,1,0,0:0:0:0:
252,32,102345,1,0,0:0:0:0:
259,32,102367,1,0,0:0:0:0:
265,33,102388,1,0,0:0:0:0:
272,33,102410,1,0,0:0:0:0:
279,34,102431,1,0,0:0:0:0:
285,35,102452,1,0,0:0:0:0:
292,37,102473,1,0,0:0:0:0:
298,38,102495,1,0,0:0:0:0:
305,40,102516,1,0,0:0:0:0:
311,42,102538,1,0,0:0:0:0:
317,45,102559,1,0,0:0:0:0:
323,47,102580,1,0,0:0:0:0:
329,50,102601,1,0,0:0:0:0:
335,54,102622,1,0,0:0:0:0:
341,57,102644,1,0,0:0:0:0:
346,61,102665,1,0,0:0:0:0:
352,65,102686,1,0,0:0:0:0:
357,69,102707,1,0,0:0:0:0:
362,73,102728,1,0,0:0:0:0:
367,78,102749,1,0,0:0:0:0:
372,83,102770,1,0,0:0:0:0:
376,87,102792,1,0,0:0:0:0:
380,93,102813,1,0,0:0:0:0:
384,98,102834,1,0,0:0:0:0:
388,103,102855,1,0,0:0:0:0:
392,109,102876,1,0,0:0:0:0:
395,115,102897,1,0,0:0:0:0:
398,121,102919,1,0,0:0:0:0:
401,127,102940,1,0,0:0:0:0:
403,133,102961,1,0,0:0:0:0:
406,139,102982,1,0,0:0:0:0:
408,145,103003,1,0,0:0:0:0:
410,152,103024,1,0,0:0:0:0:
411,158,103046,1,0,0:0:0:0:
412,165,103067,1,0,0:0:0:0:
413,172,103088,1,0,0:0:0:0:
414,178,103109,1,0,0:0:0:0:
415,185,103130,1,0,0:0:0:0:
415,192,103151,1,0,0:0:0:0:
415,198,103172,1,0,0:0:0:0:
414,205,103193,1,0,0:0:0:0:
413,211,103214,1,0,0:0:0:0:
412,218,103235,1,0,0:0:0:0:
411,225,103256,1,0,0:0:0:0:
410,231,103277,1,0,0:0:0:0:
408,238,103298,1,0,0:0:0:0:
406,244,103318,1,0,0:0:0:0:
403,250,103339,1,0,0:0:0:0:
401,256,103360,1,0,0:0:0:0:
398,262,103381,1,0,0:0:0:0:
395,268,103402,1,0,0:0:0:0:
392,274,103424,1,0,0:0:0:0:
388,280,103444,1,0,0:0:0:0:
384,285,103465,1,0,0:0:0:0:
380,290,103486,1,0,0:0:0:0:
376,296,103507,1,0,0:0:0:0:
372,300,103528,1,0,0:0:0:0:
367,305,103550,1,0,0:0:0:0:
362,310,103570,1,0,0:0:0:0:
357,314,103591,1,0,0:0:0:0:
352,318,103612,1,0,0:0:0:0:
346,322,103633,1,0,0:0:0:0:
341,326,103654,1,0,0:0:0:0:
335,329,103675,1,0,0:0:0:0:
329,333,103695,1,0,0:0:0:0:
323,336,103716,1,0,0:0:0:0:
317,338,103737,1,0,0:0:0:0:
311,341,103758,1,0,0:0:0:0:
305,343,103779,1,0,0:0:0:0:
298,345,103800,1,0,0:0:0:0:
292,346,103820,1,0,0:0:0:0:
285,348,103841,1,0,0:0:0:0:
279,349,103862,1,0,0:0:0:0:
272,350,103883,1,0,0:0:0:0:
265,350,103903,1,0,0:0:0:0:
259,351,103925,1,0,0:0:0:0:
252,351,103945,1,0,0:0:0:0:
246,350,103966,1,0,0:0:0:0:
239,350,103987,1,0,0:0:0:0:
232,349,104007,1,0,0:0:0:0:
226,348,104028,1,0,0:0:0:0:
219,346,104049,1,0,0:0:0:0:
213,345,104069,1,0,0:0:0:0:
206,343,104090,1,0,0:0:0:0:
200,341,104111,1,0,0:0:0:0:
194,338,104131,1,0,0:0:0:0:
188,336,104152,1,0,0:0:0:0:
182,333,104173,1,0,0:0:0:0:
176,329,104193,1,0,0:0:0:0:
170,326,104214,1,0,0:0:0:0:
165,322,104234,1,0,0:0:0:0:
159,318,104255,1,0,0:0:0:0:
154,314,104276,1,0,0:0:0:0:
149,310,104297,1,0,0:0:0:0:
144,305,104317,1,0,0:0:0:0:
139,300,104338,1,0,0:0:0:0:
135,296,104358,1,0,0:0:0:0:
131,290,104379,1,0,0:0:0:0:
127,285,104400,1,0,0:0:0:0:
123,280,104421,1,0,0:0:0:0:
119,274,104441,1,0,0:0:0:0:
116,268,104462,1,0,0:0:0:0:
113,262,104482,1,0,0:0:0:0:
110,256,104503,1,0,0:0:0:0:
108,250,104523,1,0,0:0:0:0:
105,244,104544,1,0,0:0:0:0:
103,238,104564,1,0,0:0:0:0:
101,231,104585,1,0,0:0:0:0:
100,225,104605,1,0,0:0:0:0:
99,218,104626,1,0,0:0:0:0:
98,211,104646,1,0,0:0:0:0:
97,205,104667,1,0,0:0:0:0:
96,198,104687,1,0,0:0:0:0:
96,191,104707,1,0,0:0:0:0:
96,185,104728,1,0,0:0:0:0:
97,178,104748,1,0,0:0:0:0:
98,172,104769,1,0,0:0:0:0:
99,165,104790,1,0,0:0:0:0:
100,158,104810,1,0,0:0:0:0:
101,152,104830,1,0,0:0:0:0:
103,145,104851,1,0,0:0:0:0:
105,139,104871,1,0,0:0:0:0:
108,133,104892,1,0,0:0:0:0:
110,127,104913,1,0,0:0:0:0:
113,121,104933,1,0,0:0:0:0:
116,115,104953,1,0,0:0:0:0:
119,109,104974,1,0,0:0:0:0:
123,103,104994,1,0,0:0:0:0:
127,98,105015,1,0,0:0:0:0:
131,93,105035,1,0,0:0:0:0:
135,87,105055,1,0,0:0:0:0:
139,83,105075,1,0,0:0:0:0:
144,78,105096,1,0,0:0:0:0:
149,73,105116,1,0,0:0:0:0:
154,69,105136,1,0,0:0:0:0:
159,65,105157,1,0,0:0:0:0:
165,61,105177,1,0,0:0:0:0:
170,57,105197,1,0,0:0:0:0:
176,54,105217,1,0,0:0:0:0:
182,50,105238,1,0,0:0:0:0:
188,47,105258,1,0,0:0:0:0:
194,45,105279,1,0,0:0:0:0:
200,42,105299,1,0,0:0:0:0:
206,40,105319,1,0,0:0:0:0:
213,38,105339,1,0,0:0:0:0:
219,37,105360,1,0,0:0:0:0:
226,35,105380,1,0,0:0:0:0:
232,34,105401,1,0,0:0:0:0:
239,33,105421,1,0,0:0:0:0:
246,33,105441,1,0,0:0:0:0:
252,32,105461,1,0,0:0:0:0:
259,32,105481,1,0,0:0:0:0:
265,33,105502,1,0,0:0:0:0:
272,33,105522,1,0,0:0:0:0:
279,34,105542,1,0,0:0:0:0:
285,35,105562,1,0,0:0:0:0:
292,37,105582,1,0,0:0:0:0:
298,38,105602,1,0,0:0:0:0:
305,40,105623,1,0,0:0:0:0:
311,42,105643,1,0,0:0:0:0:
317,45,105663,1,0,0:0:0:0:
323,47,105683,1,0,0:0:0:0:
329,50,105703,1,0,0:0:0:0:
335,54,105723,1,0,0:0:0:0:
341,57,105743,1,0,0:0:0:0:
346,61,105764,1,0,0:0:0:0:
352,65,105784,1,0,0:0:0:0:
357,69,105804,1,0,0:0:0:0:
362,73,105824,1,0,0:0:0:0:
367,78,105844,1,0,0:0:0:0:
372,83,105864,1,0,0:0:0:0:
376,87,105885,1,0,0:0:0:0:
380,93,105905,1,0,0:0:0:0:
384,98,105925,1,0,0:0:0:0:
388,103,105945,1,0,0:0:0:0:
392,109,105965,1,0,0:0:0:0:
395,115,105985,1,0,0:0:0:0:
398,121,106005,1,0,0:0:0:0:
401,127,106025,1,0,0:0:0:0:
403,133,106045,1,0,0:0:0:0:
406,139,106065,1,0,0:0:0:0:
408,145,106085,1,0,0:0:0:0:
410,152,106105,1,0,0:0:0:0:
411,158,106125,1,0,0:0:0:0:
412,165,106145,1,0,0:0:0:0:
413,172,106165,1,0,0:0:0:0:
414,178,106185,1,0,0:0:0:0:
415,185,106205,1,0,0:0:0:0:
415,192,106225,1,0,0:0:0:0:
415,198,106245,5,0,0:0:0:0:
414,205,106264,1,0,0:0:0:0:
413,211,106284,1,0,0:0:0:0:
412,218,106304,1,0,0:0:0:0:
411,225,106324,1,0,0:0:0:0:
410,231,106344,1,0,0:0:0:0:
408,238,106364,1,0,0:0:0:0:
406,244,106384,1,0,0:0:0:0:
403,250,106404,1,0,0:0:0:0:
401,256,106424,1,0,0:0:0:0:
398,262,106444,1,0,0:0:0:0:
395,268,106464,1,0,0:0:0:0:
392,274,106484,1,0,0:0:0:0:
388,280,106504,1,0,0:0:0:0:
384,285,106524,1,0,0:0:0:0:
380,290,106544,1,0,0:0:0:0:
376,296,106564,1,0,0:0:0:0:
372,300,106584,1,0,0:0:0:0:
367,305,106604,1,0,0:0:0:0:
362,310,106623,1,0,0:0:0:0:
357,314,106643,1,0,0:0:0:0:
352,318,106663,1,0,0:0:0:0:
346,322,106683,1,0,0:0:0:0:
341,326,106703,1,0,0:0:0:0:
335,329,106723,1,0,0:0:0:0:
329,333,106742,1,0,0:0:0:0:
323,336,106762,1,0,0:0:0:0:
317,338,106782,1,0,0:0:0:0:
311,341,106802,1,0,0:0:0:0:
305,343,106822,1,0,0:0:0:0:
298,345,106841,1,0,0:0:0:0:
292,346,106861,1,0,0:0:0:0:
285,348,106881,1,0,0:0:0:0:
279,349,106901,1,0,0:0:0:0:
272,350,106921,1,0,0:0:0:0:
265,350,106940,1,0,0:0:0:0:
259,351,106960,1,0,0:0:0:0:
252,351,106980,1,0,0:0:0:0:
246,350,107000,1,0,0:0:0:0:
239,350,107020,1,0,0:0:0:0:
232,349,107039,1,0,0:0:0:0:
226,348,107059,1,0,0:0:0:0:
219,346,107079,1,0,0:0:0:0:
213,345,107098,1,0,0:0:0:0:
206,343,107118,1,0,0:0:0:0:
200,341,107138,1,0,0:0:0:0:
194,338,107157,1,0,0:0:0:0:
188,336,107177,1,0,0:0:0:0:
182,333,107197,1,0,0:0:0:0:
176,329,107216,1,0,0:0:0:0:
170,326,107236,1,0,0:0:0:0:
165,322,107255,1,0,0:0:0:0:
159,318,107275,1,0,0:0:0:0:
154,314,107295,1,0,0:0:0:0:
149,310,107314,1,0,0:0:0:0:
144,305,107334,1,0,0:0:0:0:
139,300,107354,1,0,0:0:0:0:
135,296,107373,1,0,0:0:0:0:
131,290,107393,1,0,0:0:0:0:
127,285,107413,1,0,0:0:0:0:
123,280,107432,1,0,0:0:0:0:
119,274,107452,1,0,0:0:0:0:
116,268,107472,1,0,0:0:0:0:
113,262,107491,1,0,0:0:0:0:
110,256,107511,1,0,0:0:0:0:
108,250,107530,1,0,0:0:0:0:
105,244,107550,1,0,0:0:0:0:
103,238,107569,1,0,0:0:0:0:
101,231,107589,1,0,0:0:0:0:
100,225,107608,1,0,0:0:0:0:
99,218,107628,1,0,0:0:0:0:
98,211,107647,1,0,0:0:0:0:
97,205,107667,1,0,0:0:0:0:
96,198,107686,1,0,0:0:0:0:
96,191,107705,1,0,0:0:0:0:
96,185,107725,1,0,0:0:0:0:
97,178,107744,1,0,0:0:0:0:
98,172,107764,1,0,0:0:0:0:
99,165,107783,1,0,0:0:0:0:
100,158,107803,1,0,0:0:0:0:
101,152,107822,1,0,0:0:0:0:
103,145,107842,1,0,0:0:0:0:
105,139,107861,1,0,0:0:0:0:
108,133,107881,1,0,0:0:0:0:
110,127,107900,1,0,0:0:0:0:
113,121,107920,1,0,0:0:0:0:
116,115,107939,1,0,0:0:0:0:
119,109,107959,1,0,0:0:0:0:
123,103,107978,1,0,0:0:0:0:
127,98,107998,1,0,0:0:0:0:
131,93,108017,1,0,0:0:0:0:
135,87,108037,1,0,0:0:0:0:
139,83,108056,1,0,0:0:0:0:
144,78,108076,1,0,0:0:0:0:
149,73,108095,1,0,0:0:0:0:
154,69,108114,1,0,0:0:0:0:
159,65,108134,1,0,0:0:0:0:
165,61,108153,1,0,0:0:0:0:
170,57,108172,1,0,0:0:0:0:
176,54,108192,1,0,0:0:0:0:
182,50,108211,1,0,0:0:0:0:
188,47,108230,1,0,0:0:0:0:
194,45,108250,1,0,0:0:0:0:
200,42,108269,1,0,0:0:0:0:
206,40,108288,1,0,0:0:0:0:
213,38,108307,1,0,0:0:0:0:
219,37,108327,1,0,0:0:0:0:
226,35,108346,1,0,0:0:0:0:
232,34,108365,1,0,0:0:0:0:
239,33,108385,1,0,0:0:0:0:
246,33,108404,1,0,0:0:0:0:
252,32,108423,1,0,0:0:0:0:
259,32,108443,1,0,0:0:0:0:
265,33,108462,1,0,0:0:0:0:
272,33,108481,1,0,0:0:0:0:
279,34,108501,1,0,0:0:0:0:
285,35,108520,1,0,0:0:0:0:
292,37,108539,1,0,0:0:0:0:
298,38,108558,1,0,0:0:0:0:
305,40,108578,1,0,0:0:0:0:
311,42,108597,1,0,0:0:0:0:
317,45,108616,1,0,0:0:0:0:
323,47,108635,1,0,0:0:0:0:
329,50,108654,1,0,0:0:0:0:
335,54,108673,1,0,0:0:0:0:
341,57,108692,1,0,0:0:0:0:
346,61,108712,1,0,0:0:0:0:
352,65,108731,1,0,0:0:0:0:
357,69,108750,1,0,0:0:0:0:
362,73,108769,1,0,0:0:0:0:
367,78,108788,1,0,0:0:0:0:
372,83,108807,1,0,0:0:0:0:
376,87,108826,1,0,0:0:0:0:
380,93,108846,1,0,0:0:0:0:
384,98,108865,1,0,0:0:0:0:
388,103,108884,1,0,0:0:0:0:
392,109,108903,1,0,0:0:0:0:
395,115,108922,1,0,0:0:0:0:
398,121,108941,1,0,0:0:0:0:
401,127,108961,1,0,0:0:0:0:
403,133,108980,1,0,0:0:0:0:
406,139,108999,1,0,0:0:0:0:
408,145,109018,1,0,0:0:0:0:
410,152,109037,1,0,0:0:0:0:
411,158,109056,1,0,0:0:0:0:
412,165,109076,1,0,0:0:0:0:
413,172,109095,1,0,0:0:0:0:
414,178,109114,1,0,0:0:0:0:
415,185,109133,1,0,0:0:0:0:
415,192,109152,1,0,0:0:0:0:
415,198,109171,1,0,0:0:0:0:
414,205,109190,1,0,0:0:0:0:
413,211,109209,1,0,0:0:0:0:
412,218,109228,1,0,0:0:0:0:
411,225,109247,1,0,0:0:0:0:
410,231,109266,1,0,0:0:0:0:
408,238,109285,1,0,0:0:0:0:
406,244,109303,1,0,0:0:0:0:
403,250,109322,1,0,0:0:0:0:
401,256,109341,1,0,0:0:0:0:
398,262,109360,1,0,0:0:0:0:
395,268,109379,1,0,0:0:0:0:
392,274,109398,1,0,0:0:0:0:
388,280,109417,1,0,0:0:0:0:
384,285,109436,1,0,0:0:0:0:
380,290,109455,1,0,0:0:0:0:
376,296,109474,1,0,0:0:0:0:
372,300,109493,1,0,0:0:0:0:
367,305,109512,1,0,0:0:0:0:
362,310,109531,1,0,0:0:0:0:
357,314,109550,1,0,0:0:0:0:
352,318,109569,1,0,0:0:0:0:
346,322,109588,1,0,0:0:0:0:
341,326,109607,1,0,0:0:0:0:
335,329,109626,1,0,0:0:0:0:
329,333,109644,1,0,0:0:0:0:
323,336,109663,1,0,0:0:0:0:
317,338,109682,1,0,0:0:0:0:
311,341,109701,1,0,0:0:0:0:
305,343,109720,1,0,0:0:0:0:
298,345,109739,1,0,0:0:0:0:
292,346,109757,1,0,0:0:0:0:
285,348,109776,1,0,0:0:0:0:
279,349,109795,1,0,0:0:0:0:
272,350,109814,1,0,0:0:0:0:
265,350,109833,1,0,0:0:0:0:
259,351,109852,1,0,0:0:0:0:
252,351,109870,1,0,0:0:0:0:
246,350,109889,1,0,0:0:0:0:
239,350,109908,1,0,0:0:0:0:
232,349,109927,1,0,0:0:0:0:
226,348,109945,1,0,0:0:0:0:
219,346,109964,1,0,0:0:0:0:
213,345,109983,1,0,0:0:0:0:
206,343,110002,1,0,0:0:0:0:
200,341,110021,1,0,0:0:0:0:
194,338,110040,1,0,0:0:0:0:
188,336,110058,1,0,0:0:0:0:
182,333,110077,1,0,0:0:0:0:
176,329,110096,1,0,0:0:0:0:
170,326,110115,1,0,0:0:0:0:
165,322,110134,1,0,0:0:0:0:
159,318,110152,1,0,0:0:0:0:
154,314,110171,1,0,0:0:0:0:
149,310,110190,1,0,0:0:0:0:
144,305,110208,1,0,0:0:0:0:
139,300,110227,1,0,0:0:0:0:
135,296,110246,1,0,0:0:0:0:
131,290,110264,1,0,0:0:0:0:
127,285,110283,1,0,0:0:0:0:
123,280,110302,1,0,0:0:0:0:
119,274,110320,1,0,0:0:0:0:
116,268,110339,1,0,0:0:0:0:
113,262,110357,1,0,0:0:0:0:
110,256,110376,1,0,0:0:0:0:
108,250,110395,1,0,0:0:0:0:
105,244,110414,1,0,0:0:0:0:
103,238,110432,1,0,0:0:0:0:
101,231,110451,1,0,0:0:0:0:
100,225,110469,1,0,0:0:0:0:
99,218,110488,1,0,0:0:0:0:
98,211,110507,1,0,0:0:0:0:
97,205,110526,1,0,0:0:0:0:
96,198,110544,1,0,0:0:0:0:
96,191,110563,1,0,0:0:0:0:
96,185,110581,1,0,0:0:0:0:
97,178,110600,1,0,0:0:0:0:
98,172,110618,1,0,0:0:0:0:
99,165,110637,1,0,0:0:0:0:
100,158,110656,1,0,0:0:0:0:
101,152,110675,1,0,0:0:0:0:
103,145,110693,1,0,0:0:0:0:
105,139,110712,1,0,0:0:0:0:
108,133,110730,1,0,0:0:0:0:
110,127,110749,1,0,0:0:0:0:
113,121,110767,1,0,0:0:0:0:
116,115,110786,1,0,0:0:0:0:
119,109,110804,1,0,0:0:0:0:
123,103,110823,1,0,0:0:0:0:
127,98,110841,1,0,0:0:0:0:
131,93,110860,1,0,0:0:0:0:
135,87,110878,1,0,0:0:0:0:
139,83,110896,1,0,0:0:0:0:
144,78,110915,1,0,0:0:0:0:
149,73,110933,1,0,0:0:0:0:
154,69,110952,1,0,0:0:0:0:
159,65,110971,1,0,0:0:0:0:
165,61,110989,1,0,0:0:0:0:
170,57,111007,1,0,0:0:0:0:
176,54,111026,1,0,0:0:0:0:
182,50,111044,1,0,0:0:0:0:
188,47,111063,1,0,0:0:0:0:
194,45,111082,1,0,0:0:0:0:
200,42,111100,1,0,0:0:0:0:
206,40,111118,1,0,0:0:0:0:
213,38,111137,1,0,0:0:0:0:
219,37,111155,1,0,0:0:0:0:
226,35,111174,1,0,0:0:0:0:
232,34,111192,1,0,0:0:0:0:
239,33,111210,1,0,0:0:0:0:
246,33,111228,1,0,0:0:0:0:
252,32,111247,1,0,0:0:0:0:
259,32,111265,1,0,0:0:0:0:
265,33,111283,1,0,0:0:0:0:
272,33,111302,1,0,0:0:0:0:
279,34,111320,1,0,0:0:0:0:
285,35,111338,1,0,0:0:0:0:
292,37,111357,1,0,0:0:0:0:
298,38,111375,1,0,0:0:0:0:
305,40,111393,1,0,0:0:0:0:
311,42,111412,1,0,0:0:0:0:
317,45,111430,1,0,0:0:0:0:
323,47,111448,1,0,0:0:0:0:
329,50,111466,1,0,0:0:0:0:
335,54,111485,1,0,0:0:0:0:
341,57,111503,1,0,0:0:0:0:
346,61,111522,1,0,0:0:0:0:
352,65,111540,1,0,0:0:0:0:
357,69,111558,1,0,0:0:0:0:
362,73,111576,1,0,0:0:0:0:
367,78,111595,1,0,0:0:0:0:
372,83,111613,1,0,0:0:0:0:
376,87,111632,1,0,0:0:0:0:
380,93,111650,1,0,0:0:0:0:
384,98,111668,1,0,0:0:0:0:
388,103,111686,1,0,0:0:0:0:
392,109,111704,1,0,0:0:0:0:
395,115,111723,1,0,0:0:0:0:
398,121,111741,5,0,0:0:0:0:
401,127,111759,5,0,0:0:0:0:
403,133,111777,5,0,0:0:0:0:
406,139,111795,5,0,0:0:0:0:
408,145,111813,5,0,0:0:0:0:
410,152,111832,5,0,0:0:0:0:
411,158,111850,5,0,0:0:0:0:
412,165,111868,5,0,0:0:0:0:
413,172,111886,5,0,0:0:0:0:
414,178,111904,5,0,0:0:0:0:
415,185,111922,5,0,0:0:0:0:
415,192,111940,5,0,0:0:0:0:
415,198,111959,5,0,0:0:0:0:
414,205,111977,5,0,0:0:0:0:
413,211,111995,5,0,0:0:0:0:
412,218,112013,5,0,0:0:0:0:
411,225,112031,5,0,0:0:0:0:
410,231,112049,5,0,0:0:0:0:
408,238,112067,5,0,0:0:0:0:
406,244,112086,5,0,0:0:0:0:
403,250,112104,5,0,0:0:0:0:
401,256,112122,5,0,0:0:0:0:
398,262,112140,5,0,0:0:0:0:
395,268,112158,5,0,0:0:0:0:
392,274,112176,5,0,0:0:0:0:
388,280,112195,5,0,0:0:0:0:
384,285,112213,5,0,0:0:0:0:
380,290,112231,5,0,0:0:0:0:
376,296,112249,5,0,0:0:0:0:
372,300,112267,5,0,0:0:0:0:
367,305,112285,5,0,0:0:0:0:
362,310,112304,5,0,0:0:0:0:
357,314,112322,5,0,0:0:0:0:
352,318,112340,5,0,0:0:0:0:
346,322,112358,5,0,0:0:0:0:
341,326,112376,5,0,0:0:0:0:
335,329,112394,5,0,0:0:0:0:
329,333,112412,5,0,0:0:0:0:
323,336,112430,5,0,0:0:0:0:
317,338,112448,5,0,0:0:0:0:
311,341,112466,5,0,0:0:0:0:
305,343,112484,5,0,0:0:0:0:
298,345,112502,5,0,0:0:0:0:
292,346,112519,5,0,0:0:0:0:
285,348,112537,5,0,0:0:0:0:
279,349,112555,5,0,0:0:0:0:
272,350,112573,5,0,0:0:0:0:
265,350,112591,5,0,0:0:0:0:
259,351,112609,5,0,0:0:0:0:
252,351,112627,5,0,0:0:0:0:
246,350,112645,5,0,0:0:0:0:
239,350,112663,5,0,0:0:0:0:
232,349,112681,5,0,0:0:0:0:
226,348,112699,5,0,0:0:0:0:
219,346,112717,5,0,0:0:0:0:
213,345,112735,5,0,0:0:0:0:
206,343,112753,5,0,0:0:0:0:
200,341,112771,5,0,0:0:0:0:
194,338,112789,5,0,0:0:0:0:
188,336,112807,5,0,0:0:0:0:
182,333,112825,5,0,0:0:0:0:
176,329,112843,5,0,0:0:0:0:
170,326,112861,5,0,0:0:0:0:
165,322,112879,5,0,0:0:0:0:
159,318,112897,5,0,0:0:0:0:
154,314,112915,5,0,0:0:0:0:
149,310,112933,5,0,0:0:0:0:
144,305,112950,5,0,0:0:0:0:
139,300,112968,5,0,0:0:0:0:
135,296,112986,5,0,0:0:0:0:
131,290,113004,5,0,0:0:0:0:
127,285,113022,5,0,0:0:0:0:
123,280,113040,5,0,0:0:0:0:
119,274,113057,5,0,0:0:0:0:
116,268,113075,5,0,0:0:0:0:
113,262,113093,5,0,0:0:0:0:
110,256,113111,5,0,0:0:0:0:
108,250,113129,5,0,0:0:0:0:
105,244,113147,5,0,0:0:0:0:
103,238,113164,5,0,0:0:0:0:
101,231,113182,5,0,0:0:0:0:
100,225,113200,5,0,0:0:0:0:
99,218,113218,5,0,0:0:0:0:
98,211,113235,5,0,0:0:0:0:
97,205,113253,5,0,0:0:0:0:
96,198,113271,5,0,0:0:0:0:
96,191,113289,5,0,0:0:0:0:
96,185,113307,5,0,0:0:0:0:
97,178,113325,5,0,0:0:0:0:
98,172,113342,5,0,0:0:0:0:
99,165,113360,5,0,0:0:0:0:
100,158,113378,5,0,0:0:0:0:
101,152,113396,5,0,0:0:0:0:
103,145,113414,5,0,0:0:0:0:
105,139,113431,5,0,0:0:0:0:
108,133,113449,5,0,0:0:0:0:
110,127,113467,5,0,0:0:0:0:
113,121,113484,5,0,0:0:0:0:
116,115,113502,5,0,0:0:0:0:
119,109,113520,5,0,0:0:0:0:
123,103,113537,5,0,0:0:0:0:
127,98,113555,5,0,0:0:0:0:
131,93,113573,5,0,0:0:0:0:
135,87,113590,5,0,0:0:0:0:
139,83,113608,5,0,0:0:0:0:
144,78,113626,5,0,0:0:0:0:
149,73,113643,5,0,0:0:0:0:
154,69,113661,5,0,0:0:0:0:
159,65,113679,5,0,0:0:0:0:
165,61,113696,5,0,0:0:0:0:
170,57,113714,5,0,0:0:0:0:
176,54,113731,5,0,0:0:0:0:
182,50,113749,5,0,0:0:0:0:
188,47,113767,5,0,0:0:0:0:
194,45,113785,5,0,0:0:0:0:
200,42,113802,5,0,0:0:0:0:
206,40,113820,5,0,0:0:0:0:
213,38,113837,5,0,0:0:0:0:
219,37,113855,5,0,0:0:0:0:
226,35,113873,5,0,0:0:0:0:
232,34,113891,5,0,0:0:0:0:
239,33,113908,5,0,0:0:0:0:
246,33,113926,5,0,0:0:0:0:
252,32,113943,5,0,0:0:0:0:
259,32,113961,5,0,0:0:0:0:
265,33,113978,5,0,0:0:0:0:
272,33,113996,5,0,0:0:0:0:
279,34,114013,5,0,0:0:0:0:
285,35,114031,5,0,0:0:0:0:
292,37,114048,5,0,0:0:0:0:
298,38,114066,5,0,0:0:0:0:
305,40,114083,5,0,0:0:0:0:
311,42,114101,5,0,0:0:0:0:
317,45,114118,5,0,0:0:0:0:
323,47,114136,5,0,0:0:0:0:
329,50,114153,5,0,0:0:0:0:
335,54,114171,5,0,0:0:0:0:
341,57,114188,5,0,0:0:0:0:
346,61,114206,5,0,0:0:0:0:
352,65,114223,5,0,0:0:0:0:
357,69,114240,5,0,0:0:0:0:
362,73,114258,5,0,0:0:0:0:
367,78,114275,5,0,0:0:0:0:
372,83,114293,5,0,0:0:0:0:
376,87,114311,5,0,0:0:0:0:
