osu file format v14

[General]
AudioFilename: deltaMAX.mp3
AudioLeadIn: 1000
PreviewTime: 50149
Countdown: 1
SampleSet: None
StackLeniency: 0.2
Mode: 0
LetterboxInBreaks: 1
WidescreenStoryboard: 1

[Editor]
Bookmarks: 11850,28439,41420,52084,61137,75952,87824,97731,106231,113676,116246
DistanceSpacing: 0.5
BeatDivisor: 6
GridSize: 4
TimelineZoom: 8

[Metadata]
Title:deltaMAX
TitleUnicode:deltaMAX
Artist:DM Ashura
ArtistUnicode:DM Ashura
Creator:lsckjy
Version:deathstack 1/4
Source:DDR Forever
Tags:Dance Dance Revolution Universe 3 stepmania ignorethis lzy Doomsday tsuka Frank7654321
BeatmapID:824335
BeatmapSetID:367807

[Difficulty]
HPDrainRate:5
CircleSize:3
OverallDifficulty:0
ApproachRate:0
SliderMultiplier:2
SliderTickRate:0.5

[Events]
//Background and Video events
0,0,"deltaMAX-bg.png",0,0
//Break Periods
//Storyboard Layer 0 (Background)
//Storyboard Layer 1 (Fail)
//Storyboard Layer 2 (Pass)
//Storyboard Layer 3 (Foreground)
Sprite,Foreground,Centre,"nothing.png",320,240 F,0,125410,,0
//Storyboard Sound Samples

[TimingPoints]
315,600,4,1,0,80,1,0
8715,-100,4,1,0,17,0,0
9915,594.088816278034,4,1,0,40,1,1
10509,588.264130594637,4,1,0,40,1,0
11097,582.552551094713,4,1,0,40,1,0
11680,576.950814943026,4,1,0,40,1,0
12257,571.455783608743,4,1,0,40,1,0
12828,566.064437001745,4,1,0,40,1,0
13394,560.773867937754,4,1,0,40,1,0
13955,555.581276910968,4,1,0,40,1,0
14511,550.483967154457,4,1,0,40,1,0
15061,545.479339969999,4,1,0,40,1,0
15606,540.564890310374,4,1,0,40,1,0
16147,535.73820259833,4,1,0,40,1,0
16683,530.996946767556,4,1,0,40,1,0
17214,526.33887451204,4,1,0,40,1,0
17740,521.761815731119,4,1,0,40,1,0
18262,517.263675158412,4,1,0,40,1,0
18779,512.84242916364,4,1,0,40,1,0
19292,508.496122717064,4,1,0,40,1,0
19800,504.222866506996,4,1,0,40,1,0
20304,500.020834201425,4,1,0,40,1,0
20804,495.888259845448,4,1,0,40,1,0
21300,491.823435386696,4,1,0,40,1,0
21792,487.824708321476,4,1,0,40,1,0
22280,483.890479454817,4,1,0,40,1,0
22764,480.019200768031,4,1,0,40,1,0
23244,476.209373387833,4,1,0,40,1,0
23720,472.459545651404,4,1,0,40,1,0
24192,468.768311262159,4,1,0,40,1,0
24661,465.1343075313,4,1,0,40,1,0
25126,461.556213700527,4,1,0,40,1,0
25588,458.032749341578,4,1,0,40,1,0
26046,454.562672828516,4,1,0,40,1,0
26501,451.144779878943,4,1,0,45,1,0
26952,447.777902160528,4,1,0,45,1,0
27400,444.46090595948,4,1,0,45,1,0
27844,441.192690907754,4,1,0,45,1,0
28285,437.972188766013,4,1,0,45,1,0
28723,434.798362259502,4,1,0,45,1,0
29158,431.670203964171,4,1,0,45,1,0
29590,428.586735240544,4,1,0,45,1,0
30019,425.547005212951,4,1,0,45,1,0
30445,422.550089791894,4,1,0,45,1,0
30868,419.595090737438,4,1,0,45,1,0
31288,416.681134761624,4,1,0,45,1,0
31705,413.807372668023,4,1,0,45,1,0
32119,410.972978526662,4,1,0,45,1,0
32530,408.177148882615,4,1,0,45,1,0
32938,405.419101996689,4,1,0,45,1,0
33343,402.698077116682,4,1,0,45,1,0
33746,400.013333777793,4,1,0,45,1,0
34146,397.364151130832,4,1,0,45,1,0
34543,394.749827296951,4,1,0,45,1,0
34938,392.169678747671,4,1,0,45,1,0
35330,389.623039709081,4,1,0,45,1,0
35720,387.109261589084,4,1,0,45,1,0
36107,384.62771242668,4,1,0,45,1,0
36492,382.177776362305,4,1,0,45,1,0
36874,379.758853128264,4,1,0,45,1,0
37254,377.370357558414,4,1,0,45,1,0
37631,375.011719116222,4,1,0,45,1,0
38006,372.682381440417,4,1,0,45,1,0
38379,370.381801907466,4,1,0,45,1,0
38749,368.10945121016,4,1,0,45,1,0
39117,365.864812951614,4,1,0,45,1,0
39483,363.647383254038,4,1,0,50,1,0
39847,361.456670381638,4,1,0,50,1,0
40208,359.292194377077,4,1,0,50,1,0
40567,357.153486710914,4,1,0,50,1,0
40924,355.040089943489,4,1,0,50,1,0
41279,352.951557398747,4,1,0,50,1,0
41632,350.887452849499,4,1,0,50,1,0
41983,348.847350213669,4,1,0,50,1,0
42332,346.830833261077,4,1,0,50,1,0
42679,344.837495330326,4,1,0,50,1,0
43024,342.866939055402,4,1,0,50,1,0
43367,340.918776101594,4,1,0,50,1,0
43708,338.992626910365,4,1,0,50,1,0
44047,337.088120452822,4,1,0,50,1,0
44384,335.204893991452,4,1,0,50,1,0
44719,333.342592849801,4,1,0,50,1,0
45052,331.500870189784,4,1,0,50,1,0
45384,329.679386796341,4,1,0,50,1,0
45714,327.877810869149,4,1,0,50,1,0
46042,326.095817821136,4,1,0,50,1,0
46368,324.333090083516,4,1,0,50,1,0
46692,322.589316917121,4,1,0,50,1,0
47015,320.864194229792,4,1,0,50,1,0
47336,319.157424399585,4,1,0,50,1,0
47655,317.468716103601,4,1,0,50,1,0
47972,315.797784152215,4,1,0,50,1,0
48288,314.144349328516,4,1,0,50,1,0
48602,312.508138232766,4,1,0,50,1,0
48915,310.888883131687,4,1,0,50,1,0
49226,309.286321812418,4,1,0,50,1,0
49535,307.70019744096,4,1,0,50,1,0
49843,306.13025842496,4,1,0,50,1,0
50149,304.576258280667,4,1,0,55,1,1
50454,303.037955503927,4,1,0,55,1,1
50757,301.515113445061,4,1,0,55,1,1
51059,300.007500187505,4,1,0,55,1,1
51359,298.51488843006,4,1,0,55,1,1
51658,297.037055372658,4,1,0,55,1,1
51955,295.573782605483,4,1,0,55,1,1
52251,294.124856001373,4,1,0,55,1,1
52545,292.690065611356,4,1,0,55,1,1
52838,291.269205563242,4,1,0,55,1,1
53129,289.862073963139,4,1,0,55,1,1
53419,288.468472799827,4,1,0,55,1,1
53707,287.088207851862,4,1,0,55,1,1
53994,285.721088597348,4,1,0,55,1,1
54280,284.366928126259,4,1,0,55,1,1
54564,283.025543055261,4,1,0,55,1,1
54847,281.696753444917,4,1,0,55,1,1
55129,280.380382719222,4,1,0,55,1,1
55409,279.076257587386,4,1,0,55,1,1
55688,277.784207967777,4,1,0,55,1,1
55966,276.504066913984,4,1,0,55,1,1
56243,275.235670542902,4,1,0,55,1,1
56518,273.978857964794,4,1,0,55,1,1
56792,272.733471215255,4,1,0,55,1,1
57065,271.499355189031,4,1,0,55,1,1
57336,270.276357575621,4,1,0,55,1,1
57606,269.06432879661,4,1,0,55,1,1
57875,267.863121944686,4,1,0,55,1,1
58143,266.672592724283,4,1,0,55,1,1
58410,265.492599393792,4,1,0,55,1,1
58675,264.323002709311,4,1,0,55,1,1
58939,263.163665869866,4,1,0,55,1,1
59202,262.014454464071,4,1,0,60,1,1
59202,-200,4,1,0,60,0,1
59464,260.875236418183,4,1,0,60,1,0
59725,259.745881945497,4,1,0,60,1,0
59985,258.626263497058,4,1,0,60,1,0
60244,257.516255713642,4,1,0,60,1,0
60502,256.415735378961,4,1,0,60,1,0
60758,255.324581374072,4,1,0,60,1,0
61013,254.242674632937,4,1,0,60,1,0
61267,253.169898099116,4,1,0,60,1,0
61267,-200,4,1,0,60,0,0
61520,252.106136683544,4,1,0,60,1,0
61772,251.051277223373,4,1,0,60,1,0
62023,250.005208441843,4,1,0,60,1,0
62273,248.967820909147,4,1,0,60,1,0
62522,247.939007004277,4,1,0,60,1,0
62770,246.918660877796,4,1,0,60,1,0
63017,245.906678415541,4,1,0,60,1,0
63262,244.902957203208,4,1,0,60,1,0
63262,-200,4,1,0,60,0,0
63508,243.907396491799,4,1,0,60,1,0
63752,242.91989716391,4,1,0,60,1,0
63995,241.940361700841,4,1,0,60,1,0
64237,240.968694150485,4,1,0,60,1,0
64478,240.004800096002,4,1,0,60,1,0
64718,239.048586625232,4,1,0,60,1,0
64957,238.099962300839,4,1,0,60,1,0
65195,237.158837131169,4,1,0,60,1,0
65195,-200,4,1,0,60,0,0
65432,236.225122541782,4,1,0,60,1,0
65668,235.298731347673,4,1,0,60,1,0
65903,234.379577726127,4,1,0,60,1,0
66137,233.467577190218,4,1,0,60,1,0
66370,232.562646562918,4,1,0,60,1,0
66603,231.664703951814,4,1,0,60,1,0
66835,230.773668724399,4,1,0,60,1,0
67066,229.889461483936,4,1,0,60,1,0
67066,-200,4,1,0,60,0,0
67296,229.012004045879,4,1,0,60,1,0
67525,228.141219414818,4,1,0,60,1,0
67753,227.277031761965,4,1,0,60,1,0
67980,226.41936640314,4,1,0,60,1,0
68206,225.568149777251,4,1,0,60,1,0
68432,224.72330942527,4,1,0,60,1,0
68657,223.884773969664,4,1,0,60,1,0
68881,223.052473094295,4,1,0,60,1,0
68881,-200,4,1,0,60,0,0
69104,222.226337524769,4,1,0,60,1,0
69326,221.406299009207,4,1,0,60,1,0
69547,220.592290299454,4,1,0,60,1,0
69768,219.784245132695,4,1,0,60,1,0
69988,218.982098213471,4,1,0,60,1,0
70207,218.185785196094,4,1,0,60,1,0
70425,217.39524266744,4,1,0,60,1,0
70642,216.610408130111,4,1,0,60,1,0
70642,-200,4,1,0,60,0,0
70859,215.831219985971,4,1,0,60,1,0
71075,215.057617520027,4,1,0,60,1,0
71290,214.289540884659,4,1,0,60,1,0
71504,213.526931084183,4,1,0,60,1,0
71718,212.769729959751,4,1,0,60,1,0
71931,212.017880174561,4,1,0,60,1,0
72143,211.271325199387,4,1,0,60,1,0
72354,210.530009298409,4,1,0,60,1,0
72354,-200,4,1,0,60,0,0
72565,209.793877515341,4,1,0,60,1,0
72775,209.062875659855,4,1,0,60,1,0
72984,208.336950294276,4,1,0,60,1,0
73192,207.616048720566,4,1,0,60,1,0
73400,206.900118967568,4,1,0,60,1,0
73607,206.189109778519,4,1,0,60,1,0
73813,205.482970598812,4,1,0,60,1,0
74018,204.78165156402,4,1,0,65,1,0
74223,204.085103488155,4,1,1,65,1,0
74427,203.393277852167,4,1,1,65,1,0
74630,202.706126792682,4,1,1,65,1,0
74833,202.023603090961,4,1,1,65,1,0
75035,201.345660162083,4,1,1,65,1,0
75236,200.672252044349,4,1,1,65,1,0
75437,200.00333338889,4,1,1,65,1,0
75637,199.338859449493,4,1,1,65,1,0
75836,198.678786072617,4,1,1,65,1,0
76035,198.023069687619,4,1,1,65,1,0
76233,197.371667297159,4,1,1,65,1,0
76430,196.724536467811,4,1,1,65,1,0
76627,196.081635320839,4,1,1,65,1,0
76823,195.442922523168,4,1,1,65,1,0
77018,194.808357278527,4,1,1,65,1,0
77213,194.177899318759,4,1,1,65,1,0
77407,193.551508895305,4,1,1,65,1,0
77601,192.929146770848,4,1,1,65,1,0
77794,192.310774211125,4,1,1,65,1,0
77986,191.696352976885,4,1,1,65,1,0
78178,191.085845316008,4,1,1,65,1,0
78369,190.479213955777,4,1,1,65,1,0
78559,189.876422095286,4,1,1,65,1,0
78749,189.277433398003,4,1,1,65,1,0
78938,188.682211984465,4,1,1,65,1,0
79127,188.090722425116,4,1,1,65,1,0
79315,187.502929733277,4,1,1,65,1,0
79503,186.918799358245,4,1,1,65,1,0
79690,186.338297178528,4,1,1,65,1,0
79876,185.761389495193,4,1,1,65,1,0
80062,185.188043025355,4,1,1,65,1,0
80247,184.618224895768,4,1,1,65,1,0
80432,184.051902636544,4,1,1,65,1,0
80616,183.489044174987,4,1,1,65,1,0
80799,182.92961782954,4,1,1,65,1,0
80982,182.373592303834,4,1,1,65,1,0
81164,181.820936680859,4,1,1,65,1,0
81346,181.271620417227,4,1,1,65,1,0
81527,180.72561333755,4,1,1,65,1,0
81708,180.182885628913,4,1,1,65,1,0
81888,179.643407835447,4,1,1,65,1,0
82068,179.107150852998,4,1,1,65,1,0
82247,178.574085923898,4,1,1,65,1,0
82426,178.044184631819,4,1,1,65,1,0
82604,177.517418896729,4,1,1,65,1,0
82782,176.993760969926,4,1,1,65,1,0
82959,176.473183429168,4,1,1,65,1,0
83135,175.955659173888,4,1,1,65,1,0
83311,175.441161420489,4,1,1,65,1,0
83486,174.929663697722,4,1,1,65,1,0
83661,174.421139842149,4,1,1,65,1,0
83835,173.915563993681,4,1,1,65,1,0
84009,173.412910591194,4,1,1,65,1,0
84182,172.913154368219,4,1,1,65,1,0
84355,172.416270348712,4,1,1,65,1,0
84527,171.922233842892,4,1,1,65,1,0
84699,171.431020443149,4,1,1,65,1,0
84870,170.942606020029,4,1,1,65,1,0
85041,170.456966718277,4,1,1,65,1,0
85211,169.97407895296,4,1,1,65,1,0
85381,169.493919405641,4,1,1,65,1,0
85550,169.016465020634,4,1,1,65,1,0
85719,168.541693001306,4,1,1,65,1,0
85888,168.069580806454,4,1,1,70,1,1
86056,167.600106146734,4,1,1,70,1,1
86224,167.133246981156,4,1,1,70,1,1
86391,166.668981513632,4,1,1,70,1,1
86558,166.207288189587,4,1,1,70,1,1
86724,165.74814569262,4,1,1,70,1,1
86890,165.291532941225,4,1,1,70,1,1
87055,164.837429085564,4,1,1,70,1,1
87220,164.385813504295,4,1,1,70,1,1
87384,163.936665801445,4,1,1,70,1,1
87548,163.489965803349,4,1,1,70,1,1
87711,163.045693555619,4,1,1,70,1,1
87874,162.60382932018,4,1,1,70,1,1
88037,162.164353572346,4,1,1,70,1,1
88199,161.727246997938,4,1,1,70,1,1
88361,161.292490490464,4,1,1,70,1,1
88522,160.860065148326,4,1,1,70,1,1
88683,160.429952272089,4,1,1,70,1,1
88843,160.002133361778,4,1,1,70,1,1
89003,159.57659011423,4,1,1,70,1,1
89163,159.153304420483,4,1,1,70,1,1
89322,158.732258363206,4,1,1,70,1,1
89481,158.313434214172,4,1,1,70,1,1
89639,157.896814431769,4,1,1,70,1,1
89797,157.482381658552,4,1,1,70,1,1
89954,157.070118718831,4,1,1,70,1,1
90111,156.6600086163,4,1,1,70,1,1
90268,156.2520345317,4,1,1,70,1,1
90424,155.846179820517,4,1,1,70,1,1
90580,155.442428010726,4,1,1,70,1,1
90735,155.040762800553,4,1,1,70,1,1
90890,154.641168056289,4,1,1,70,1,1
91045,154.243627810126,4,1,1,70,1,1
91199,153.848126258029,4,1,1,70,1,1
91353,153.454647757644,4,1,1,70,1,1
91506,153.063176826235,4,1,1,70,1,1
91659,152.673698138653,4,1,1,70,1,1
91812,152.286196525337,4,1,1,70,1,1
91964,151.900656970341,4,1,1,70,1,1
92116,151.517064609402,4,1,1,70,1,1
92268,151.135404728019,4,1,1,70,1,1
92419,150.755662759582,4,1,1,70,1,1
92570,150.377824283512,4,1,1,70,1,1
92720,150.001875023438,4,1,1,70,1,1
92870,149.627800845397,4,1,1,70,1,1
93020,149.255587756067,4,1,1,70,1,1
93169,148.885221901016,4,1,1,70,1,1
93318,148.51668956299,4,1,1,70,1,1
93467,148.149977160212,4,1,1,70,1,1
93615,147.78507124472,4,1,1,70,1,1
93763,147.421958500719,4,1,1,70,1,1
93910,147.060625742963,4,1,1,70,1,1
94057,146.701059915158,4,1,1,70,1,1
94204,146.343248088391,4,1,1,70,1,1
94350,145.98717745958,4,1,1,70,1,1
94496,145.632835349944,4,1,1,70,1,1
94642,145.280209203501,4,1,1,70,1,1
94787,144.929286585587,4,1,1,70,1,1
94932,144.580055181388,4,1,1,70,1,1
95077,144.232502794505,4,1,1,70,1,1
95221,143.886617345532,4,1,1,70,1,1
95365,143.542386870656,4,1,1,70,1,1
95509,143.199799520281,4,1,1,70,1,1
95652,142.858843557661,4,1,1,70,1,1
95795,142.51950735757,4,1,1,75,1,1
95938,142.181779404969,4,1,1,75,1,1
96080,141.845648293715,4,1,1,75,1,1
96222,141.511102725268,4,1,1,75,1,1
96364,141.178131507429,4,1,1,75,1,1
96505,140.846723553093,4,1,1,75,1,1
96646,140.516867879015,4,1,1,75,1,1
96787,140.188553604598,4,1,1,75,1,1
96927,139.861769950699,4,1,1,75,1,1
97067,139.536506238445,4,1,1,75,1,1
97207,139.212751888073,4,1,1,75,1,1
97346,138.890496417783,4,1,1,75,1,1
97485,138.569729442603,4,1,1,75,1,1
97624,138.25044067328,4,1,1,75,1,1
97762,137.932619915171,4,1,1,75,1,1
97900,137.616257067168,4,1,1,75,1,1
98038,137.301342120619,4,1,1,75,1,1
98175,136.987865158278,4,1,1,75,1,1
98312,136.675816353261,4,1,1,75,1,1
98449,136.365185968022,4,1,1,75,1,1
98585,136.055964353337,4,1,1,75,1,1
98721,135.748141947307,4,1,1,75,1,1
98857,135.441709274371,4,1,1,75,1,1
98992,135.136656944335,4,1,1,75,1,1
99127,134.832975651412,4,1,1,75,1,1
99262,134.530656173275,4,1,1,75,1,1
99397,134.229689370127,4,1,1,75,1,1
99531,133.930066183774,4,1,1,75,1,1
99665,133.631777636722,4,1,1,75,1,1
99799,133.334814831276,4,1,1,75,1,1
99932,133.039168948658,4,1,1,75,1,1
100065,132.744831248133,4,1,1,75,1,1
100198,132.451793066149,4,1,1,75,1,1
100330,132.160045815483,4,1,1,75,1,1
100462,131.869580984406,4,1,1,75,1,1
100594,131.580390135857,4,1,1,75,1,1
100726,131.292464906618,4,1,1,75,1,1
100857,131.005797006518,4,1,1,75,1,1
100988,130.720378217628,4,1,1,75,1,1
101119,130.436200393483,4,1,1,75,1,1
101249,130.153255458302,4,1,1,75,1,1
101379,129.871535406227,4,1,1,75,1,1
101509,129.591032300565,4,1,1,75,1,1
101639,129.311738273042,4,1,1,75,1,1
101768,129.03364552307,4,1,1,75,1,1
101897,128.756746317021,4,1,1,75,1,1
102026,128.481032987505,4,1,1,75,1,1
102154,128.20649793267,4,1,1,75,1,1
102282,127.933133615497,4,1,1,75,1,1
102410,127.660932563112,4,1,1,75,1,1
102538,127.389887366108,4,1,1,75,1,1
102665,127.119990677867,4,1,1,75,1,1
102792,126.851235213903,4,1,1,75,1,1
102919,126.5836137512,4,1,1,75,1,1
103046,126.31711912757,4,1,1,75,1,1
103172,126.051744241011,4,1,1,75,1,1
103298,125.787482049078,4,1,1,75,1,1
103424,125.524325568259,4,1,1,75,1,1
103550,125.26226787336,4,1,1,75,1,1
103675,125.001302096897,4,1,1,75,1,1
103800,124.741421428497,4,1,1,75,1,1
103925,124.482619114306,4,1,1,75,1,1
104049,124.224888456402,4,1,1,75,1,1
104173,123.968222812219,4,1,1,75,1,1
104297,123.712615593975,4,1,1,80,1,1
104421,123.45806026811,4,1,1,80,1,1
104544,123.204550354726,4,1,1,80,1,1
104667,122.952079427043,4,1,1,80,1,1
104790,122.70064111085,4,1,1,80,1,1
104913,122.45022908397,4,1,1,80,1,1
105035,122.200837075734,4,1,1,80,1,1
105157,121.952458866452,4,1,1,80,1,1
105279,121.705088286899,4,1,1,80,1,1
105401,121.458719217806,4,1,1,80,1,1
105522,121.213345589349,4,1,1,80,1,1
105643,120.968961380659,4,1,1,80,1,1
105764,120.725560619322,4,1,1,80,1,1
105885,120.483137380897,4,1,1,80,1,1
106005,120.241685788435,4,1,1,80,1,1
106125,120.001200012,4,1,1,80,1,1
106245,119.761674268206,4,1,1,80,1,1
106365,119.523102819749,4,1,1,80,1,1
106485,119.28547997495,4,1,1,80,1,1
106604,119.048800087302,4,1,1,80,1,1
106723,118.813057555025,4,1,1,80,1,1
106842,118.578246820621,4,1,1,80,1,1
106961,118.344362370438,4,1,1,80,1,1
107079,118.11139873424,4,1,1,80,1,1
107197,117.879350484779,4,1,1,80,1,1
107315,117.648212237375,4,1,1,80,1,1
107433,117.417978649498,4,1,1,80,1,1
107550,117.188644420356,4,1,1,80,1,1
107667,116.96020429049,4,1,1,80,1,1
107784,116.732653041372,4,1,1,80,1,1
107901,116.505985495005,4,1,1,80,1,1
108018,116.280196513532,4,1,1,80,1,1
108134,116.055280998849,4,1,1,80,1,1
108250,115.831233892219,4,1,1,80,1,1
108366,115.608050173894,4,1,1,80,1,1
108482,115.385724862739,4,1,1,80,1,1
108597,115.164253015864,4,1,1,80,1,1
108712,114.943629728254,4,1,1,80,1,1
108827,114.72385013241,4,1,1,80,1,1
108942,114.50490939799,4,1,1,80,1,1
109057,114.286802731455,4,1,1,80,1,1
109171,114.069525375716,4,1,1,80,1,1
109285,113.853072609797,4,1,1,80,1,1
109399,113.637439748482,4,1,1,80,1,1
109513,113.422622141986,4,1,1,80,1,1
109626,113.208615175615,4,1,1,80,1,1
109739,112.995414269438,4,1,1,80,1,1
109852,112.783014877959,4,1,1,80,1,1
109965,112.571412489798,4,1,1,80,1,1
110078,112.360602627365,4,1,1,80,1,1
110190,112.15058084655,4,1,1,80,1,1
110302,111.941342736406,4,1,1,80,1,1
110414,111.732883918845,4,1,1,80,1,1
110526,111.525200048328,4,1,1,80,1,1
110638,111.318286811566,4,1,1,80,1,1
110749,111.112139927222,4,1,1,80,1,1
110860,110.906755145611,4,1,1,80,1,1
110971,110.702128248416,4,1,1,80,1,1
111082,110.498255048389,4,1,1,80,1,1
111192,110.295131389075,4,1,1,80,1,1
111302,110.092753144524,4,1,1,80,1,1
111412,109.891116219013,4,1,1,80,1,1
111522,109.690216546769,4,1,1,80,1,1
111632,109.490050091698,4,1,1,80,1,1
111741,109.290612847112,4,1,1,90,1,1
111850,109.091900835462,4,1,1,90,1,1
111959,108.893910108077,4,1,1,90,1,1
112068,108.696636744898,4,1,1,90,1,1
112177,108.500076854221,4,1,1,90,1,1
112286,108.304226572442,4,1,1,90,1,1
112394,108.109082063802,4,1,1,90,1,1
112502,107.91463952014,4,1,1,90,1,1
112610,107.720895160639,4,1,1,90,1,1
112718,107.527845231588,4,1,1,90,1,1
112826,107.335486006136,4,1,1,90,1,1
112933,107.143813784052,4,1,1,90,1,1
113040,106.952824891487,4,1,1,90,1,1
113147,106.762515680744,4,1,1,90,1,1
113254,106.57288253004,4,1,1,90,1,1
113361,106.383921843279,4,1,1,90,1,1
113467,106.195630049823,4,1,1,90,1,1
113573,106.008003604272,4,1,1,90,1,1
113679,105.821038986234,4,1,1,90,1,1
113785,105.634732700112,4,1,1,90,1,1
113891,105.449081274879,4,1,1,90,1,1
113996,105.264081263871,4,1,1,90,1,1
114101,105.079729244564,4,1,1,90,1,1
114206,104.896021818373,4,1,1,90,1,1
114311,104.712041884817,4,1,0,100,1,1
114337,-100,4,1,1,100,0,0

[Colours]
Combo1 : 0,255,0
Combo2 : 244,0,6
Combo3 : 129,69,252
Combo4 : 255,255,255

[HitObjects]
415,196,9915,5,0,0:0:0:0:
414,201,10063,1,0,0:0:0:0:
414,206,10212,1,0,0:0:0:0:
413,211,10360,1,0,0:0:0:0:
413,216,10509,1,0,0:0:0:0:
412,221,10656,1,0,0:0:0:0:
411,226,10803,1,0,0:0:0:0:
410,231,10950,1,0,0:0:0:0:
408,236,11097,1,0,0:0:0:0:
407,241,11242,1,0,0:0:0:0:
405,245,11388,1,0,0:0:0:0:
403,250,11533,1,0,0:0:0:0:
402,255,11680,1,0,0:0:0:0:
400,259,11824,1,0,0:0:0:0:
397,264,11968,1,0,0:0:0:0:
395,268,12112,1,0,0:0:0:0:
392,273,12257,1,0,0:0:0:0:
390,277,12399,1,0,0:0:0:0:
387,281,12542,1,0,0:0:0:0:
384,285,12685,1,0,0:0:0:0:
381,289,12828,1,0,0:0:0:0:
378,293,12969,1,0,0:0:0:0:
375,297,13111,1,0,0:0:0:0:
372,300,13252,1,0,0:0:0:0:
368,304,13394,1,0,0:0:0:0:
364,308,13534,1,0,0:0:0:0:
361,311,13674,1,0,0:0:0:0:
357,314,13814,1,0,0:0:0:0:
353,317,13955,1,0,0:0:0:0:
349,320,14093,1,0,0:0:0:0:
345,323,14232,1,0,0:0:0:0:
341,326,14371,1,0,0:0:0:0:
337,328,14511,1,0,0:0:0:0:
332,331,14648,1,0,0:0:0:0:
328,333,14786,1,0,0:0:0:0:
323,336,14923,1,0,0:0:0:0:
319,338,15061,1,0,0:0:0:0:
314,339,15197,1,0,0:0:0:0:
309,341,15333,1,0,0:0:0:0:
305,343,15470,1,0,0:0:0:0:
300,344,15606,1,0,0:0:0:0:
295,346,15741,1,0,0:0:0:0:
290,347,15876,1,0,0:0:0:0:
285,348,16011,1,0,0:0:0:0:
280,349,16147,1,0,0:0:0:0:
275,349,16280,1,0,0:0:0:0:
270,350,16414,1,0,0:0:0:0:
265,350,16548,1,0,0:0:0:0:
260,351,16683,1,0,0:0:0:0:
255,351,16815,1,0,0:0:0:0:
251,351,16948,1,0,0:0:0:0:
246,350,17081,1,0,0:0:0:0:
241,350,17214,1,0,0:0:0:0:
236,349,17345,1,0,0:0:0:0:
231,349,17477,1,0,0:0:0:0:
226,348,17608,1,0,0:0:0:0:
221,347,17740,1,0,0:0:0:0:
216,346,17870,1,0,0:0:0:0:
211,344,18000,1,0,0:0:0:0:
206,343,18131,1,0,0:0:0:0:
202,341,18262,1,0,0:0:0:0:
197,339,18391,1,0,0:0:0:0:
192,338,18520,1,0,0:0:0:0:
188,336,18649,1,0,0:0:0:0:
183,333,18779,1,0,0:0:0:0:
179,331,18907,1,0,0:0:0:0:
174,328,19035,1,0,0:0:0:0:
170,326,19163,1,0,0:0:0:0:
166,323,19292,1,0,0:0:0:0:
162,320,19419,1,0,0:0:0:0:
158,317,19546,1,0,0:0:0:0:
154,314,19673,1,0,0:0:0:0:
150,311,19800,1,0,0:0:0:0:
147,308,19926,1,0,0:0:0:0:
143,304,20052,1,0,0:0:0:0:
139,300,20178,1,0,0:0:0:0:
136,297,20304,1,0,0:0:0:0:
133,293,20429,1,0,0:0:0:0:
130,289,20554,1,0,0:0:0:0:
127,285,20679,1,0,0:0:0:0:
124,281,20804,1,0,0:0:0:0:
121,277,20927,1,0,0:0:0:0:
119,273,21051,1,0,0:0:0:0:
116,268,21175,1,0,0:0:0:0:
114,264,21300,1,0,0:0:0:0:
111,259,21422,1,0,0:0:0:0:
109,255,21545,1,0,0:0:0:0:
108,250,21668,1,0,0:0:0:0:
106,245,21792,1,0,0:0:0:0:
104,241,21913,1,0,0:0:0:0:
103,236,22035,1,0,0:0:0:0:
101,231,22157,1,0,0:0:0:0:
100,226,22280,1,0,0:0:0:0:
99,221,22400,1,0,0:0:0:0:
98,216,22521,1,0,0:0:0:0:
98,211,22642,1,0,0:0:0:0:
97,206,22764,1,0,0:0:0:0:
97,201,22884,1,0,0:0:0:0:
96,196,23004,1,0,0:0:0:0:
96,191,23124,1,0,0:0:0:0:
96,187,23244,1,0,0:0:0:0:
97,182,23363,1,0,0:0:0:0:
97,177,23482,1,0,0:0:0:0:
98,172,23601,1,0,0:0:0:0:
98,167,23720,1,0,0:0:0:0:
99,162,23838,1,0,0:0:0:0:
100,157,23956,1,0,0:0:0:0:
101,152,24074,1,0,0:0:0:0:
103,147,24192,1,0,0:0:0:0:
104,142,24309,1,0,0:0:0:0:
106,138,24426,1,0,0:0:0:0:
108,133,24543,1,0,0:0:0:0:
109,128,24661,1,0,0:0:0:0:
111,124,24777,1,0,0:0:0:0:
114,119,24893,1,0,0:0:0:0:
116,115,25009,1,0,0:0:0:0:
119,110,25126,1,0,0:0:0:0:
121,106,25241,1,0,0:0:0:0:
124,102,25356,1,0,0:0:0:0:
127,98,25472,1,0,0:0:0:0:
130,94,25588,1,0,0:0:0:0:
133,90,25702,1,0,0:0:0:0:
136,86,25817,1,0,0:0:0:0:
139,83,25931,1,0,0:0:0:0:
143,79,26046,1,0,0:0:0:0:
147,75,26159,1,0,0:0:0:0:
150,72,26273,1,0,0:0:0:0:
154,69,26386,1,0,0:0:0:0:
158,66,26501,1,0,0:0:0:0:
162,63,26613,1,0,0:0:0:0:
166,60,26726,1,0,0:0:0:0:
170,57,26839,1,0,0:0:0:0:
174,55,26952,1,0,0:0:0:0:
179,52,27063,1,0,0:0:0:0:
183,50,27175,1,0,0:0:0:0:
188,47,27287,1,0,0:0:0:0:
192,45,27400,1,0,0:0:0:0:
197,44,27511,1,0,0:0:0:0:
202,42,27622,1,0,0:0:0:0:
206,40,27733,1,0,0:0:0:0:
211,39,27844,1,0,0:0:0:0:
216,37,27954,1,0,0:0:0:0:
221,36,28064,1,0,0:0:0:0:
226,35,28174,1,0,0:0:0:0:
231,34,28285,1,0,0:0:0:0:
236,34,28394,1,0,0:0:0:0:
241,33,28503,1,0,0:0:0:0:
246,33,28613,1,0,0:0:0:0:
251,32,28723,1,0,0:0:0:0:
256,32,28831,1,0,0:0:0:0:
260,32,28940,1,0,0:0:0:0:
265,33,29049,1,0,0:0:0:0:
270,33,29158,1,0,0:0:0:0:
275,34,29265,1,0,0:0:0:0:
280,34,29373,1,0,0:0:0:0:
285,35,29481,1,0,0:0:0:0:
290,36,29590,1,0,0:0:0:0:
295,37,29697,1,0,0:0:0:0:
300,39,29804,1,0,0:0:0:0:
305,40,29911,1,0,0:0:0:0:
309,42,30019,1,0,0:0:0:0:
314,44,30125,1,0,0:0:0:0:
319,45,30231,1,0,0:0:0:0:
323,47,30338,1,0,0:0:0:0:
328,50,30445,1,0,0:0:0:0:
332,52,30550,1,0,0:0:0:0:
337,55,30656,1,0,0:0:0:0:
341,57,30761,1,0,0:0:0:0:
345,60,30868,1,0,0:0:0:0:
349,63,30972,1,0,0:0:0:0:
353,66,31077,1,0,0:0:0:0:
357,69,31182,1,0,0:0:0:0:
361,72,31288,1,0,0:0:0:0:
364,75,31392,1,0,0:0:0:0:
368,79,31496,1,0,0:0:0:0:
372,83,31600,1,0,0:0:0:0:
375,86,31705,1,0,0:0:0:0:
378,90,31808,1,0,0:0:0:0:
381,94,31911,1,0,0:0:0:0:
384,98,32015,1,0,0:0:0:0:
387,102,32119,1,0,0:0:0:0:
390,106,32221,1,0,0:0:0:0:
392,110,32324,1,0,0:0:0:0:
395,115,32427,1,0,0:0:0:0:
397,119,32530,1,0,0:0:0:0:
400,124,32632,1,0,0:0:0:0:
402,128,32734,1,0,0:0:0:0:
403,133,32836,1,0,0:0:0:0:
405,138,32938,1,0,0:0:0:0:
407,142,33039,1,0,0:0:0:0:
408,147,33140,1,0,0:0:0:0:
410,152,33242,1,0,0:0:0:0:
411,157,33343,1,0,0:0:0:0:
412,162,33443,1,0,0:0:0:0:
413,167,33544,1,0,0:0:0:0:
413,172,33645,1,0,0:0:0:0:
414,177,33746,1,0,0:0:0:0:
414,182,33846,1,0,0:0:0:0:
415,187,33946,1,0,0:0:0:0:
415,192,34046,1,0,0:0:0:0:
415,196,34146,1,0,0:0:0:0:
414,201,34245,1,0,0:0:0:0:
414,206,34344,1,0,0:0:0:0:
413,211,34444,1,0,0:0:0:0:
413,216,34543,1,0,0:0:0:0:
412,221,34641,1,0,0:0:0:0:
411,226,34740,1,0,0:0:0:0:
410,231,34839,1,0,0:0:0:0:
408,236,34938,1,0,0:0:0:0:
407,241,35036,1,0,0:0:0:0:
405,245,35134,1,0,0:0:0:0:
403,250,35232,1,0,0:0:0:0:
402,255,35330,1,0,0:0:0:0:
400,259,35427,1,0,0:0:0:0:
397,264,35524,1,0,0:0:0:0:
395,268,35622,1,0,0:0:0:0:
392,273,35720,1,0,0:0:0:0:
390,277,35816,1,0,0:0:0:0:
387,281,35913,1,0,0:0:0:0:
384,285,36010,1,0,0:0:0:0:
381,289,36107,1,0,0:0:0:0:
378,293,36203,1,0,0:0:0:0:
375,297,36299,1,0,0:0:0:0:
372,300,36395,1,0,0:0:0:0:
368,304,36492,1,0,0:0:0:0:
364,308,36587,1,0,0:0:0:0:
361,311,36683,1,0,0:0:0:0:
357,314,36778,1,0,0:0:0:0:
353,317,36874,1,0,0:0:0:0:
349,320,36968,1,0,0:0:0:0:
345,323,37063,1,0,0:0:0:0:
341,326,37158,1,0,0:0:0:0:
337,328,37254,1,0,0:0:0:0:
332,331,37348,1,0,0:0:0:0:
328,333,37442,1,0,0:0:0:0:
323,336,37537,1,0,0:0:0:0:
319,338,37631,1,0,0:0:0:0:
314,339,37724,1,0,0:0:0:0:
309,341,37818,1,0,0:0:0:0:
305,343,37912,1,0,0:0:0:0:
300,344,38006,1,0,0:0:0:0:
295,346,38099,1,0,0:0:0:0:
290,347,38192,1,0,0:0:0:0:
285,348,38285,1,0,0:0:0:0:
280,349,38379,1,0,0:0:0:0:
275,349,38471,1,0,0:0:0:0:
270,350,38564,1,0,0:0:0:0:
265,350,38656,1,0,0:0:0:0:
260,351,38749,1,0,0:0:0:0:
255,351,38841,1,0,0:0:0:0:
251,351,38933,1,0,0:0:0:0:
246,350,39025,1,0,0:0:0:0:
241,350,39117,1,0,0:0:0:0:
236,349,39208,1,0,0:0:0:0:
231,349,39299,1,0,0:0:0:0:
226,348,39391,1,0,0:0:0:0:
221,347,39483,1,0,0:0:0:0:
216,346,39573,1,0,0:0:0:0:
211,344,39664,1,0,0:0:0:0:
206,343,39755,1,0,0:0:0:0:
202,341,39847,1,0,0:0:0:0:
197,339,39937,1,0,0:0:0:0:
192,338,40027,1,0,0:0:0:0:
188,336,40118,1,0,0:0:0:0:
183,333,40208,1,0,0:0:0:0:
179,331,40297,1,0,0:0:0:0:
174,328,40387,1,0,0:0:0:0:
170,326,40477,1,0,0:0:0:0:
166,323,40567,1,0,0:0:0:0:
162,320,40656,1,0,0:0:0:0:
158,317,40745,1,0,0:0:0:0:
154,314,40834,1,0,0:0:0:0:
150,311,40924,1,0,0:0:0:0:
147,308,41012,1,0,0:0:0:0:
143,304,41101,1,0,0:0:0:0:
139,300,41190,1,0,0:0:0:0:
136,297,41279,1,0,0:0:0:0:
133,293,41367,1,0,0:0:0:0:
130,289,41455,1,0,0:0:0:0:
127,285,41543,1,0,0:0:0:0:
124,281,41632,1,0,0:0:0:0:
121,277,41719,1,0,0:0:0:0:
119,273,41807,1,0,0:0:0:0:
116,268,41895,1,0,0:0:0:0:
114,264,41983,1,0,0:0:0:0:
111,259,42070,1,0,0:0:0:0:
109,255,42157,1,0,0:0:0:0:
108,250,42244,1,0,0:0:0:0:
106,245,42332,1,0,0:0:0:0:
104,241,42418,1,0,0:0:0:0:
103,236,42505,1,0,0:0:0:0:
101,231,42592,1,0,0:0:0:0:
100,226,42679,1,0,0:0:0:0:
99,221,42765,1,0,0:0:0:0:
98,216,42851,1,0,0:0:0:0:
98,211,42937,1,0,0:0:0:0:
97,206,43024,1,0,0:0:0:0:
97,201,43109,1,0,0:0:0:0:
96,196,43195,1,0,0:0:0:0:
96,191,43281,1,0,0:0:0:0:
96,187,43367,1,0,0:0:0:0:
97,182,43452,1,0,0:0:0:0:
97,177,43537,1,0,0:0:0:0:
98,172,43622,1,0,0:0:0:0:
98,167,43708,1,0,0:0:0:0:
99,162,43792,1,0,0:0:0:0:
100,157,43877,1,0,0:0:0:0:
101,152,43962,1,0,0:0:0:0:
103,147,44047,1,0,0:0:0:0:
104,142,44131,1,0,0:0:0:0:
106,138,44215,1,0,0:0:0:0:
108,133,44299,1,0,0:0:0:0:
109,128,44384,1,0,0:0:0:0:
111,124,44467,1,0,0:0:0:0:
114,119,44551,1,0,0:0:0:0:
116,115,44635,1,0,0:0:0:0:
119,110,44719,1,0,0:0:0:0:
121,106,44802,1,0,0:0:0:0:
124,102,44885,1,0,0:0:0:0:
127,98,44969,1,0,0:0:0:0:
130,94,45052,1,0,0:0:0:0:
133,90,45134,1,0,0:0:0:0:
136,86,45217,1,0,0:0:0:0:
139,83,45300,1,0,0:0:0:0:
143,79,45384,1,0,0:0:0:0:
147,75,45466,1,0,0:0:0:0:
150,72,45548,1,0,0:0:0:0:
154,69,45631,1,0,0:0:0:0:
158,66,45714,1,0,0:0:0:0:
162,63,45795,1,0,0:0:0:0:
166,60,45877,1,0,0:0:0:0:
170,57,45959,1,0,0:0:0:0:
174,55,46042,1,0,0:0:0:0:
179,52,46123,1,0,0:0:0:0:
183,50,46205,1,0,0:0:0:0:
188,47,46286,1,0,0:0:0:0:
192,45,46368,1,0,0:0:0:0:
197,44,46449,1,0,0:0:0:0:
202,42,46530,1,0,0:0:0:0:
206,40,46611,1,0,0:0:0:0:
211,39,46692,1,0,0:0:0:0:
216,37,46772,1,0,0:0:0:0:
221,36,46853,1,0,0:0:0:0:
226,35,46933,1,0,0:0:0:0:
231,34,47015,1,0,0:0:0:0:
236,34,47095,1,0,0:0:0:0:
241,33,47175,1,0,0:0:0:0:
246,33,47255,1,0,0:0:0:0:
251,32,47336,1,0,0:0:0:0:
256,32,47415,1,0,0:0:0:0:
260,32,47495,1,0,0:0:0:0:
265,33,47575,1,0,0:0:0:0:
270,33,47655,1,0,0:0:0:0:
275,34,47734,1,0,0:0:0:0:
280,34,47813,1,0,0:0:0:0:
285,35,47893,1,0,0:0:0:0:
290,36,47972,1,0,0:0:0:0:
295,37,48050,1,0,0:0:0:0:
300,39,48129,1,0,0:0:0:0:
305,40,48208,1,0,0:0:0:0:
309,42,48288,1,0,0:0:0:0:
314,44,48366,1,0,0:0:0:0:
319,45,48445,1,0,0:0:0:0:
323,47,48523,1,0,0:0:0:0:
328,50,48602,1,0,0:0:0:0:
332,52,48680,1,0,0:0:0:0:
337,55,48758,1,0,0:0:0:0:
341,57,48836,1,0,0:0:0:0:
345,60,48915,1,0,0:0:0:0:
349,63,48992,1,0,0:0:0:0:
353,66,49070,1,0,0:0:0:0:
357,69,49148,1,0,0:0:0:0:
361,72,49226,1,0,0:0:0:0:
364,75,49303,1,0,0:0:0:0:
368,79,49380,1,0,0:0:0:0:
372,83,49457,1,0,0:0:0:0:
375,86,49535,1,0,0:0:0:0:
378,90,49611,1,0,0:0:0:0:
381,94,49688,1,0,0:0:0:0:
384,98,49765,1,0,0:0:0:0:
387,102,49843,1,0,0:0:0:0:
390,106,49919,1,0,0:0:0:0:
392,110,49996,1,0,0:0:0:0:
395,115,50072,1,0,0:0:0:0:
397,119,50149,1,0,0:0:0:0:
400,124,50225,1,0,0:0:0:0:
402,128,50301,1,0,0:0:0:0:
403,133,50377,1,0,0:0:0:0:
405,138,50454,1,0,0:0:0:0:
407,142,50529,1,0,0:0:0:0:
408,147,50605,1,0,0:0:0:0:
410,152,50681,1,0,0:0:0:0:
411,157,50757,1,0,0:0:0:0:
412,162,50832,1,0,0:0:0:0:
413,167,50907,1,0,0:0:0:0:
413,172,50983,1,0,0:0:0:0:
414,177,51059,1,0,0:0:0:0:
414,182,51134,1,0,0:0:0:0:
415,187,51209,1,0,0:0:0:0:
415,192,51284,1,0,0:0:0:0:
415,196,51359,5,0,0:0:0:0:
414,201,51433,1,0,0:0:0:0:
414,206,51508,1,0,0:0:0:0:
413,211,51582,1,0,0:0:0:0:
413,216,51657,1,0,0:0:0:0:
412,221,51732,1,0,0:0:0:0:
411,226,51806,1,0,0:0:0:0:
410,231,51880,1,0,0:0:0:0:
408,236,51955,1,0,0:0:0:0:
407,241,52028,1,0,0:0:0:0:
405,245,52102,1,0,0:0:0:0:
403,250,52176,1,0,0:0:0:0:
402,255,52250,1,0,0:0:0:0:
400,259,52324,1,0,0:0:0:0:
397,264,52398,1,0,0:0:0:0:
395,268,52471,1,0,0:0:0:0:
392,273,52545,1,0,0:0:0:0:
390,277,52618,1,0,0:0:0:0:
387,281,52691,1,0,0:0:0:0:
384,285,52764,1,0,0:0:0:0:
381,289,52838,1,0,0:0:0:0:
378,293,52910,1,0,0:0:0:0:
375,297,52983,1,0,0:0:0:0:
372,300,53056,1,0,0:0:0:0:
368,304,53129,1,0,0:0:0:0:
364,308,53201,1,0,0:0:0:0:
361,311,53273,1,0,0:0:0:0:
357,314,53346,1,0,0:0:0:0:
353,317,53419,1,0,0:0:0:0:
349,320,53491,1,0,0:0:0:0:
345,323,53563,1,0,0:0:0:0:
341,326,53635,1,0,0:0:0:0:
337,328,53707,1,0,0:0:0:0:
332,331,53778,1,0,0:0:0:0:
328,333,53850,1,0,0:0:0:0:
323,336,53922,1,0,0:0:0:0:
319,338,53994,1,0,0:0:0:0:
314,339,54065,1,0,0:0:0:0:
309,341,54136,1,0,0:0:0:0:
305,343,54208,1,0,0:0:0:0:
300,344,54280,1,0,0:0:0:0:
295,346,54351,1,0,0:0:0:0:
290,347,54422,1,0,0:0:0:0:
285,348,54493,1,0,0:0:0:0:
280,349,54564,1,0,0:0:0:0:
275,349,54634,1,0,0:0:0:0:
270,350,54705,1,0,0:0:0:0:
265,350,54776,1,0,0:0:0:0:
260,351,54847,1,0,0:0:0:0:
255,351,54917,1,0,0:0:0:0:
251,351,54987,1,0,0:0:0:0:
246,350,55058,1,0,0:0:0:0:
241,350,55129,1,0,0:0:0:0:
236,349,55199,1,0,0:0:0:0:
231,349,55269,1,0,0:0:0:0:
226,348,55339,1,0,0:0:0:0:
221,347,55409,1,0,0:0:0:0:
216,346,55478,1,0,0:0:0:0:
211,344,55548,1,0,0:0:0:0:
206,343,55618,1,0,0:0:0:0:
202,341,55688,1,0,0:0:0:0:
197,339,55757,1,0,0:0:0:0:
192,338,55826,1,0,0:0:0:0:
188,336,55896,1,0,0:0:0:0:
183,333,55966,1,0,0:0:0:0:
179,331,56035,1,0,0:0:0:0:
174,328,56104,1,0,0:0:0:0:
170,326,56173,1,0,0:0:0:0:
166,323,56243,1,0,0:0:0:0:
162,320,56311,1,0,0:0:0:0:
158,317,56380,1,0,0:0:0:0:
154,314,56449,1,0,0:0:0:0:
150,311,56518,1,0,0:0:0:0:
147,308,56586,1,0,0:0:0:0:
143,304,56654,1,0,0:0:0:0:
139,300,56723,1,0,0:0:0:0:
136,297,56792,1,0,0:0:0:0:
133,293,56860,1,0,0:0:0:0:
130,289,56928,1,0,0:0:0:0:
127,285,56996,1,0,0:0:0:0:
124,281,57065,1,0,0:0:0:0:
121,277,57132,1,0,0:0:0:0:
119,273,57200,1,0,0:0:0:0:
116,268,57268,1,0,0:0:0:0:
114,264,57336,1,0,0:0:0:0:
111,259,57403,1,0,0:0:0:0:
109,255,57471,1,0,0:0:0:0:
108,250,57538,1,0,0:0:0:0:
106,245,57606,1,0,0:0:0:0:
104,241,57673,1,0,0:0:0:0:
103,236,57740,1,0,0:0:0:0:
101,231,57807,1,0,0:0:0:0:
100,226,57875,1,0,0:0:0:0:
99,221,57941,1,0,0:0:0:0:
98,216,58008,1,0,0:0:0:0:
98,211,58075,1,0,0:0:0:0:
97,206,58143,1,0,0:0:0:0:
97,201,58209,1,0,0:0:0:0:
96,196,58276,1,0,0:0:0:0:
96,191,58343,1,0,0:0:0:0:
96,187,58410,1,0,0:0:0:0:
97,182,58476,1,0,0:0:0:0:
97,177,58542,1,0,0:0:0:0:
98,172,58609,1,0,0:0:0:0:
98,167,58675,1,0,0:0:0:0:
99,162,58741,1,0,0:0:0:0:
100,157,58807,1,0,0:0:0:0:
101,152,58873,1,0,0:0:0:0:
103,147,58939,1,0,0:0:0:0:
104,142,59004,1,0,0:0:0:0:
106,138,59070,1,0,0:0:0:0:
108,133,59136,1,0,0:0:0:0:
109,128,59202,1,0,0:0:0:0:
111,124,59267,1,0,0:0:0:0:
114,119,59333,1,0,0:0:0:0:
116,115,59398,1,0,0:0:0:0:
119,110,59464,1,0,0:0:0:0:
121,106,59529,1,0,0:0:0:0:
124,102,59594,1,0,0:0:0:0:
127,98,59659,1,0,0:0:0:0:
130,94,59725,1,0,0:0:0:0:
133,90,59789,1,0,0:0:0:0:
136,86,59854,1,0,0:0:0:0:
139,83,59919,1,0,0:0:0:0:
143,79,59985,1,0,0:0:0:0:
147,75,60049,1,0,0:0:0:0:
150,72,60114,1,0,0:0:0:0:
154,69,60178,1,0,0:0:0:0:
158,66,60244,1,0,0:0:0:0:
162,63,60308,1,0,0:0:0:0:
166,60,60372,1,0,0:0:0:0:
170,57,60437,1,0,0:0:0:0:
174,55,60502,1,0,0:0:0:0:
179,52,60566,1,0,0:0:0:0:
183,50,60630,1,0,0:0:0:0:
188,47,60694,1,0,0:0:0:0:
192,45,60758,1,0,0:0:0:0:
197,44,60821,1,0,0:0:0:0:
202,42,60885,1,0,0:0:0:0:
206,40,60949,1,0,0:0:0:0:
211,39,61013,1,0,0:0:0:0:
216,37,61076,1,0,0:0:0:0:
221,36,61140,1,0,0:0:0:0:
226,35,61203,1,0,0:0:0:0:
231,34,61267,1,0,0:0:0:0:
236,34,61330,1,0,0:0:0:0:
241,33,61393,1,0,0:0:0:0:
246,33,61456,1,0,0:0:0:0:
251,32,61520,1,0,0:0:0:0:
256,32,61583,1,0,0:0:0:0:
260,32,61646,1,0,0:0:0:0:
265,33,61709,1,0,0:0:0:0:
270,33,61772,1,0,0:0:0:0:
275,34,61834,1,0,0:0:0:0:
280,34,61897,1,0,0:0:0:0:
285,35,61960,1,0,0:0:0:0:
290,36,62023,1,0,0:0:0:0:
295,37,62085,1,0,0:0:0:0:
300,39,62148,1,0,0:0:0:0:
305,40,62210,1,0,0:0:0:0:
309,42,62273,1,0,0:0:0:0:
314,44,62335,1,0,0:0:0:0:
319,45,62397,1,0,0:0:0:0:
323,47,62459,1,0,0:0:0:0:
328,50,62522,1,0,0:0:0:0:
332,52,62583,1,0,0:0:0:0:
337,55,62645,1,0,0:0:0:0:
341,57,62707,1,0,0:0:0:0:
345,60,62770,1,0,0:0:0:0:
349,63,62831,1,0,0:0:0:0:
353,66,62893,1,0,0:0:0:0:
357,69,62955,1,0,0:0:0:0:
361,72,63017,1,0,0:0:0:0:
364,75,63078,1,0,0:0:0:0:
368,79,63139,1,0,0:0:0:0:
372,83,63201,1,0,0:0:0:0:
375,86,63262,1,0,0:0:0:0:
378,90,63323,1,0,0:0:0:0:
381,94,63384,1,0,0:0:0:0:
384,98,63445,1,0,0:0:0:0:
387,102,63508,1,0,0:0:0:0:
390,106,63568,1,0,0:0:0:0:
392,110,63629,1,0,0:0:0:0:
395,115,63690,1,0,0:0:0:0:
397,119,63752,1,0,0:0:0:0:
400,124,63812,1,0,0:0:0:0:
402,128,63873,1,0,0:0:0:0:
403,133,63934,1,0,0:0:0:0:
405,138,63995,1,0,0:0:0:0:
407,142,64055,1,0,0:0:0:0:
408,147,64115,1,0,0:0:0:0:
410,152,64176,1,0,0:0:0:0:
411,157,64237,1,0,0:0:0:0:
412,162,64297,1,0,0:0:0:0:
413,167,64357,1,0,0:0:0:0:
413,172,64417,1,0,0:0:0:0:
414,177,64478,1,0,0:0:0:0:
414,182,64538,1,0,0:0:0:0:
415,187,64598,1,0,0:0:0:0:
415,192,64658,1,0,0:0:0:0:
415,196,64718,1,0,0:0:0:0:
414,201,64777,1,0,0:0:0:0:
414,206,64837,1,0,0:0:0:0:
413,211,64897,1,0,0:0:0:0:
413,216,64957,1,0,0:0:0:0:
412,221,65016,1,0,0:0:0:0:
411,226,65076,1,0,0:0:0:0:
410,231,65135,1,0,0:0:0:0:
408,236,65195,1,0,0:0:0:0:
407,241,65254,1,0,0:0:0:0:
405,245,65313,1,0,0:0:0:0:
403,250,65372,1,0,0:0:0:0:
402,255,65432,1,0,0:0:0:0:
400,259,65491,1,0,0:0:0:0:
397,264,65550,1,0,0:0:0:0:
395,268,65609,1,0,0:0:0:0:
392,273,65668,1,0,0:0:0:0:
390,277,65726,1,0,0:0:0:0:
387,281,65785,1,0,0:0:0:0:
384,285,65844,1,0,0:0:0:0:
381,289,65903,1,0,0:0:0:0:
378,293,65961,1,0,0:0:0:0:
375,297,66020,1,0,0:0:0:0:
372,300,66078,1,0,0:0:0:0:
368,304,66137,1,0,0:0:0:0:
364,308,66195,1,0,0:0:0:0:
361,311,66253,1,0,0:0:0:0:
357,314,66312,1,0,0:0:0:0:
353,317,66370,1,0,0:0:0:0:
349,320,66428,1,0,0:0:0:0:
345,323,66486,1,0,0:0:0:0:
341,326,66544,1,0,0:0:0:0:
337,328,66603,1,0,0:0:0:0:
332,331,66660,1,0,0:0:0:0:
328,333,66718,1,0,0:0:0:0:
323,336,66776,1,0,0:0:0:0:
319,338,66835,1,0,0:0:0:0:
314,339,66892,1,0,0:0:0:0:
309,341,66950,1,0,0:0:0:0:
305,343,67008,1,0,0:0:0:0:
300,344,67066,1,0,0:0:0:0:
295,346,67123,1,0,0:0:0:0:
290,347,67180,1,0,0:0:0:0:
285,348,67238,1,0,0:0:0:0:
280,349,67296,1,0,0:0:0:0:
275,349,67353,1,0,0:0:0:0:
270,350,67410,1,0,0:0:0:0:
265,350,67467,1,0,0:0:0:0:
260,351,67525,1,0,0:0:0:0:
255,351,67582,1,0,0:0:0:0:
251,351,67639,1,0,0:0:0:0:
246,350,67696,1,0,0:0:0:0:
241,350,67753,1,0,0:0:0:0:
236,349,67809,1,0,0:0:0:0:
231,349,67866,1,0,0:0:0:0:
226,348,67923,1,0,0:0:0:0:
221,347,67980,1,0,0:0:0:0:
216,346,68036,1,0,0:0:0:0:
211,344,68093,1,0,0:0:0:0:
206,343,68149,1,0,0:0:0:0:
202,341,68206,1,0,0:0:0:0:
197,339,68262,1,0,0:0:0:0:
192,338,68318,1,0,0:0:0:0:
188,336,68375,1,0,0:0:0:0:
183,333,68432,1,0,0:0:0:0:
179,331,68488,1,0,0:0:0:0:
174,328,68544,1,0,0:0:0:0:
170,326,68600,1,0,0:0:0:0:
166,323,68657,1,0,0:0:0:0:
162,320,68712,1,0,0:0:0:0:
158,317,68768,1,0,0:0:0:0:
154,314,68824,1,0,0:0:0:0:
150,311,68881,1,0,0:0:0:0:
147,308,68936,1,0,0:0:0:0:
143,304,68992,1,0,0:0:0:0:
139,300,69048,1,0,0:0:0:0:
136,297,69104,1,0,0:0:0:0:
133,293,69159,1,0,0:0:0:0:
130,289,69215,1,0,0:0:0:0:
127,285,69270,1,0,0:0:0:0:
124,281,69326,1,0,0:0:0:0:
121,277,69381,1,0,0:0:0:0:
119,273,69436,1,0,0:0:0:0:
116,268,69492,1,0,0:0:0:0:
114,264,69547,1,0,0:0:0:0:
111,259,69602,1,0,0:0:0:0:
109,255,69657,1,0,0:0:0:0:
108,250,69712,1,0,0:0:0:0:
106,245,69768,1,0,0:0:0:0:
104,241,69822,1,0,0:0:0:0:
103,236,69877,1,0,0:0:0:0:
101,231,69932,1,0,0:0:0:0:
100,226,69988,1,0,0:0:0:0:
99,221,70042,1,0,0:0:0:0:
98,216,70097,1,0,0:0:0:0:
98,211,70152,1,0,0:0:0:0:
97,206,70207,1,0,0:0:0:0:
97,201,70261,1,0,0:0:0:0:
96,196,70316,1,0,0:0:0:0:
96,191,70370,1,0,0:0:0:0:
96,187,70425,1,0,0:0:0:0:
97,182,70479,1,0,0:0:0:0:
97,177,70533,1,0,0:0:0:0:
98,172,70588,1,0,0:0:0:0:
98,167,70642,1,0,0:0:0:0:
99,162,70696,1,0,0:0:0:0:
100,157,70750,1,0,0:0:0:0:
101,152,70804,1,0,0:0:0:0:
103,147,70859,1,0,0:0:0:0:
104,142,70912,1,0,0:0:0:0:
106,138,70966,1,0,0:0:0:0:
108,133,71020,1,0,0:0:0:0:
109,128,71075,1,0,0:0:0:0:
111,124,71128,1,0,0:0:0:0:
114,119,71182,1,0,0:0:0:0:
116,115,71236,1,0,0:0:0:0:
119,110,71290,1,0,0:0:0:0:
121,106,71343,1,0,0:0:0:0:
124,102,71397,1,0,0:0:0:0:
127,98,71450,1,0,0:0:0:0:
130,94,71504,1,0,0:0:0:0:
133,90,71557,1,0,0:0:0:0:
136,86,71610,1,0,0:0:0:0:
139,83,71664,1,0,0:0:0:0:
143,79,71718,1,0,0:0:0:0:
147,75,71771,1,0,0:0:0:0:
150,72,71824,1,0,0:0:0:0:
154,69,71877,1,0,0:0:0:0:
158,66,71931,1,0,0:0:0:0:
162,63,71984,1,0,0:0:0:0:
166,60,72037,1,0,0:0:0:0:
170,57,72090,1,0,0:0:0:0:
174,55,72143,1,0,0:0:0:0:
179,52,72195,1,0,0:0:0:0:
183,50,72248,1,0,0:0:0:0:
188,47,72301,1,0,0:0:0:0:
192,45,72354,1,0,0:0:0:0:
197,44,72406,1,0,0:0:0:0:
202,42,72459,1,0,0:0:0:0:
206,40,72511,1,0,0:0:0:0:
211,39,72565,1,0,0:0:0:0:
216,37,72617,1,0,0:0:0:0:
221,36,72669,1,0,0:0:0:0:
226,35,72722,1,0,0:0:0:0:
231,34,72775,1,0,0:0:0:0:
236,34,72827,1,0,0:0:0:0:
241,33,72879,1,0,0:0:0:0:
246,33,72931,1,0,0:0:0:0:
251,32,72984,1,0,0:0:0:0:
256,32,73036,1,0,0:0:0:0:
260,32,73088,1,0,0:0:0:0:
265,33,73140,1,0,0:0:0:0:
270,33,73192,1,0,0:0:0:0:
275,34,73243,1,0,0:0:0:0:
280,34,73295,1,0,0:0:0:0:
285,35,73347,1,0,0:0:0:0:
290,36,73400,1,0,0:0:0:0:
295,37,73451,1,0,0:0:0:0:
300,39,73503,1,0,0:0:0:0:
305,40,73555,1,0,0:0:0:0:
309,42,73607,1,0,0:0:0:0:
314,44,73658,1,0,0:0:0:0:
319,45,73710,1,0,0:0:0:0:
323,47,73761,1,0,0:0:0:0:
328,50,73813,1,0,0:0:0:0:
332,52,73864,1,0,0:0:0:0:
337,55,73915,1,0,0:0:0:0:
341,57,73967,1,0,0:0:0:0:
345,60,74018,1,0,0:0:0:0:
349,63,74069,1,0,0:0:0:0:
353,66,74120,1,0,0:0:0:0:
357,69,74171,1,0,0:0:0:0:
361,72,74223,1,0,0:0:0:0:
364,75,74274,1,0,0:0:0:0:
368,79,74325,1,0,0:0:0:0:
372,83,74376,1,0,0:0:0:0:
375,86,74427,1,0,0:0:0:0:
378,90,74477,1,0,0:0:0:0:
381,94,74528,1,0,0:0:0:0:
384,98,74579,1,0,0:0:0:0:
387,102,74630,1,0,0:0:0:0:
390,106,74680,1,0,0:0:0:0:
392,110,74731,1,0,0:0:0:0:
395,115,74782,1,0,0:0:0:0:
397,119,74833,1,0,0:0:0:0:
400,124,74883,1,0,0:0:0:0:
402,128,74934,1,0,0:0:0:0:
403,133,74984,1,0,0:0:0:0:
405,138,75035,1,0,0:0:0:0:
407,142,75085,1,0,0:0:0:0:
408,147,75135,1,0,0:0:0:0:
410,152,75186,1,0,0:0:0:0:
411,157,75236,1,0,0:0:0:0:
412,162,75286,1,0,0:0:0:0:
413,167,75336,1,0,0:0:0:0:
413,172,75386,1,0,0:0:0:0:
414,177,75437,1,0,0:0:0:0:
414,182,75487,1,0,0:0:0:0:
415,187,75537,1,0,0:0:0:0:
415,192,75587,1,0,0:0:0:0:
415,196,75637,5,0,0:0:0:0:
414,201,75686,1,0,0:0:0:0:
414,206,75736,1,0,0:0:0:0:
413,211,75786,1,0,0:0:0:0:
413,216,75836,1,0,0:0:0:0:
412,221,75885,1,0,0:0:0:0:
411,226,75935,1,0,0:0:0:0:
410,231,75985,1,0,0:0:0:0:
408,236,76034,1,0,0:0:0:0:
407,241,76084,1,0,0:0:0:0:
405,245,76134,1,0,0:0:0:0:
403,250,76183,1,0,0:0:0:0:
402,255,76233,1,0,0:0:0:0:
400,259,76282,1,0,0:0:0:0:
397,264,76331,1,0,0:0:0:0:
395,268,76381,1,0,0:0:0:0:
392,273,76430,1,0,0:0:0:0:
390,277,76479,1,0,0:0:0:0:
387,281,76528,1,0,0:0:0:0:
384,285,76577,1,0,0:0:0:0:
381,289,76626,1,0,0:0:0:0:
378,293,76676,1,0,0:0:0:0:
375,297,76725,1,0,0:0:0:0:
372,300,76774,1,0,0:0:0:0:
368,304,76823,1,0,0:0:0:0:
364,308,76871,1,0,0:0:0:0:
361,311,76920,1,0,0:0:0:0:
357,314,76969,1,0,0:0:0:0:
353,317,77018,1,0,0:0:0:0:
349,320,77066,1,0,0:0:0:0:
345,323,77115,1,0,0:0:0:0:
341,326,77164,1,0,0:0:0:0:
337,328,77213,1,0,0:0:0:0:
332,331,77261,1,0,0:0:0:0:
328,333,77310,1,0,0:0:0:0:
323,336,77358,1,0,0:0:0:0:
319,338,77407,1,0,0:0:0:0:
314,339,77455,1,0,0:0:0:0:
309,341,77503,1,0,0:0:0:0:
305,343,77552,1,0,0:0:0:0:
300,344,77601,1,0,0:0:0:0:
295,346,77649,1,0,0:0:0:0:
290,347,77697,1,0,0:0:0:0:
285,348,77745,1,0,0:0:0:0:
280,349,77794,1,0,0:0:0:0:
275,349,77842,1,0,0:0:0:0:
270,350,77890,1,0,0:0:0:0:
265,350,77938,1,0,0:0:0:0:
260,351,77986,1,0,0:0:0:0:
255,351,78033,1,0,0:0:0:0:
251,351,78081,1,0,0:0:0:0:
246,350,78129,1,0,0:0:0:0:
241,350,78178,1,0,0:0:0:0:
236,349,78225,1,0,0:0:0:0:
231,349,78273,1,0,0:0:0:0:
226,348,78321,1,0,0:0:0:0:
221,347,78369,1,0,0:0:0:0:
216,346,78416,1,0,0:0:0:0:
211,344,78464,1,0,0:0:0:0:
206,343,78511,1,0,0:0:0:0:
202,341,78559,1,0,0:0:0:0:
197,339,78606,1,0,0:0:0:0:
192,338,78653,1,0,0:0:0:0:
188,336,78701,1,0,0:0:0:0:
183,333,78749,1,0,0:0:0:0:
179,331,78796,1,0,0:0:0:0:
174,328,78843,1,0,0:0:0:0:
170,326,78890,1,0,0:0:0:0:
166,323,78938,1,0,0:0:0:0:
162,320,78985,1,0,0:0:0:0:
158,317,79032,1,0,0:0:0:0:
154,314,79079,1,0,0:0:0:0:
150,311,79127,1,0,0:0:0:0:
147,308,79174,1,0,0:0:0:0:
143,304,79221,1,0,0:0:0:0:
139,300,79268,1,0,0:0:0:0:
136,297,79315,1,0,0:0:0:0:
133,293,79361,1,0,0:0:0:0:
130,289,79408,1,0,0:0:0:0:
127,285,79455,1,0,0:0:0:0:
124,281,79503,1,0,0:0:0:0:
121,277,79549,1,0,0:0:0:0:
119,273,79596,1,0,0:0:0:0:
116,268,79643,1,0,0:0:0:0:
114,264,79690,1,0,0:0:0:0:
111,259,79736,1,0,0:0:0:0:
109,255,79783,1,0,0:0:0:0:
108,250,79829,1,0,0:0:0:0:
106,245,79876,1,0,0:0:0:0:
104,241,79922,1,0,0:0:0:0:
103,236,79968,1,0,0:0:0:0:
101,231,80015,1,0,0:0:0:0:
100,226,80062,1,0,0:0:0:0:
99,221,80108,1,0,0:0:0:0:
98,216,80154,1,0,0:0:0:0:
98,211,80200,1,0,0:0:0:0:
97,206,80247,1,0,0:0:0:0:
97,201,80293,1,0,0:0:0:0:
96,196,80339,1,0,0:0:0:0:
96,191,80385,1,0,0:0:0:0:
96,187,80432,1,0,0:0:0:0:
97,182,80478,1,0,0:0:0:0:
97,177,80524,1,0,0:0:0:0:
98,172,80570,1,0,0:0:0:0:
98,167,80616,1,0,0:0:0:0:
99,162,80661,1,0,0:0:0:0:
100,157,80707,1,0,0:0:0:0:
101,152,80753,1,0,0:0:0:0:
103,147,80799,1,0,0:0:0:0:
104,142,80844,1,0,0:0:0:0:
106,138,80890,1,0,0:0:0:0:
108,133,80936,1,0,0:0:0:0:
109,128,80982,1,0,0:0:0:0:
111,124,81027,1,0,0:0:0:0:
114,119,81073,1,0,0:0:0:0:
116,115,81118,1,0,0:0:0:0:
119,110,81164,1,0,0:0:0:0:
121,106,81209,1,0,0:0:0:0:
124,102,81254,1,0,0:0:0:0:
127,98,81300,1,0,0:0:0:0:
130,94,81346,1,0,0:0:0:0:
133,90,81391,1,0,0:0:0:0:
136,86,81436,1,0,0:0:0:0:
139,83,81481,1,0,0:0:0:0:
143,79,81527,1,0,0:0:0:0:
147,75,81572,1,0,0:0:0:0:
150,72,81617,1,0,0:0:0:0:
154,69,81662,1,0,0:0:0:0:
158,66,81708,1,0,0:0:0:0:
162,63,81753,1,0,0:0:0:0:
166,60,81798,1,0,0:0:0:0:
170,57,81843,1,0,0:0:0:0:
174,55,81888,1,0,0:0:0:0:
179,52,81932,1,0,0:0:0:0:
183,50,81977,1,0,0:0:0:0:
188,47,82022,1,0,0:0:0:0:
192,45,82068,1,0,0:0:0:0:
197,44,82112,1,0,0:0:0:0:
202,42,82157,1,0,0:0:0:0:
206,40,82202,1,0,0:0:0:0:
211,39,82247,1,0,0:0:0:0:
216,37,82291,1,0,0:0:0:0:
221,36,82336,1,0,0:0:0:0:
226,35,82380,1,0,0:0:0:0:
231,34,82426,1,0,0:0:0:0:
236,34,82470,1,0,0:0:0:0:
241,33,82515,1,0,0:0:0:0:
246,33,82559,1,0,0:0:0:0:
251,32,82604,1,0,0:0:0:0:
256,32,82648,1,0,0:0:0:0:
260,32,82692,1,0,0:0:0:0:
265,33,82737,1,0,0:0:0:0:
270,33,82782,1,0,0:0:0:0:
275,34,82826,1,0,0:0:0:0:
280,34,82870,1,0,0:0:0:0:
285,35,82914,1,0,0:0:0:0:
290,36,82959,1,0,0:0:0:0:
295,37,83003,1,0,0:0:0:0:
300,39,83047,1,0,0:0:0:0:
305,40,83091,1,0,0:0:0:0:
309,42,83135,1,0,0:0:0:0:
314,44,83178,1,0,0:0:0:0:
319,45,83222,1,0,0:0:0:0:
323,47,83266,1,0,0:0:0:0:
328,50,83311,1,0,0:0:0:0:
332,52,83354,1,0,0:0:0:0:
337,55,83398,1,0,0:0:0:0:
341,57,83442,1,0,0:0:0:0:
345,60,83486,1,0,0:0:0:0:
349,63,83529,1,0,0:0:0:0:
353,66,83573,1,0,0:0:0:0:
357,69,83617,1,0,0:0:0:0:
361,72,83661,1,0,0:0:0:0:
364,75,83704,1,0,0:0:0:0:
368,79,83748,1,0,0:0:0:0:
372,83,83791,1,0,0:0:0:0:
375,86,83835,1,0,0:0:0:0:
378,90,83878,1,0,0:0:0:0:
381,94,83921,1,0,0:0:0:0:
384,98,83965,1,0,0:0:0:0:
387,102,84009,1,0,0:0:0:0:
390,106,84052,1,0,0:0:0:0:
392,110,84095,1,0,0:0:0:0:
395,115,84139,1,0,0:0:0:0:
397,119,84182,1,0,0:0:0:0:
400,124,84225,1,0,0:0:0:0:
402,128,84268,1,0,0:0:0:0:
403,133,84311,1,0,0:0:0:0:
405,138,84355,1,0,0:0:0:0:
407,142,84398,1,0,0:0:0:0:
408,147,84441,1,0,0:0:0:0:
410,152,84484,1,0,0:0:0:0:
411,157,84527,1,0,0:0:0:0:
412,162,84569,1,0,0:0:0:0:
413,167,84612,1,0,0:0:0:0:
413,172,84655,1,0,0:0:0:0:
414,177,84699,1,0,0:0:0:0:
414,182,84741,1,0,0:0:0:0:
415,187,84784,1,0,0:0:0:0:
415,192,84827,1,0,0:0:0:0:
415,196,84870,1,0,0:0:0:0:
414,201,84912,1,0,0:0:0:0:
414,206,84955,1,0,0:0:0:0:
413,211,84998,1,0,0:0:0:0:
413,216,85040,1,0,0:0:0:0:
412,221,85083,1,0,0:0:0:0:
411,226,85126,1,0,0:0:0:0:
410,231,85168,1,0,0:0:0:0:
408,236,85211,1,0,0:0:0:0:
407,241,85253,1,0,0:0:0:0:
405,245,85295,1,0,0:0:0:0:
403,250,85338,1,0,0:0:0:0:
402,255,85380,1,0,0:0:0:0:
400,259,85423,1,0,0:0:0:0:
397,264,85465,1,0,0:0:0:0:
395,268,85508,1,0,0:0:0:0:
392,273,85550,1,0,0:0:0:0:
390,277,85592,1,0,0:0:0:0:
387,281,85634,1,0,0:0:0:0:
384,285,85676,1,0,0:0:0:0:
381,289,85719,1,0,0:0:0:0:
378,293,85761,1,0,0:0:0:0:
375,297,85803,1,0,0:0:0:0:
372,300,85845,1,0,0:0:0:0:
368,304,85887,1,0,0:0:0:0:
364,308,85930,1,0,0:0:0:0:
361,311,85972,1,0,0:0:0:0:
357,314,86014,1,0,0:0:0:0:
353,317,86056,1,0,0:0:0:0:
349,320,86097,1,0,0:0:0:0:
345,323,86139,1,0,0:0:0:0:
341,326,86181,1,0,0:0:0:0:
337,328,86223,1,0,0:0:0:0:
332,331,86265,1,0,0:0:0:0:
328,333,86307,1,0,0:0:0:0:
323,336,86349,1,0,0:0:0:0:
319,338,86391,1,0,0:0:0:0:
314,339,86432,1,0,0:0:0:0:
309,341,86474,1,0,0:0:0:0:
305,343,86516,1,0,0:0:0:0:
300,344,86558,1,0,0:0:0:0:
295,346,86599,1,0,0:0:0:0:
290,347,86641,1,0,0:0:0:0:
285,348,86682,1,0,0:0:0:0:
280,349,86724,1,0,0:0:0:0:
275,349,86765,1,0,0:0:0:0:
270,350,86806,1,0,0:0:0:0:
265,350,86848,1,0,0:0:0:0:
260,351,86890,1,0,0:0:0:0:
255,351,86931,1,0,0:0:0:0:
251,351,86972,1,0,0:0:0:0:
246,350,87013,1,0,0:0:0:0:
241,350,87055,1,0,0:0:0:0:
236,349,87096,1,0,0:0:0:0:
231,349,87137,1,0,0:0:0:0:
226,348,87178,1,0,0:0:0:0:
221,347,87220,1,0,0:0:0:0:
216,346,87261,1,0,0:0:0:0:
211,344,87302,1,0,0:0:0:0:
206,343,87343,1,0,0:0:0:0:
202,341,87384,1,0,0:0:0:0:
197,339,87424,1,0,0:0:0:0:
192,338,87465,1,0,0:0:0:0:
188,336,87506,1,0,0:0:0:0:
183,333,87548,1,0,0:0:0:0:
179,331,87588,1,0,0:0:0:0:
174,328,87629,1,0,0:0:0:0:
170,326,87670,1,0,0:0:0:0:
166,323,87711,1,0,0:0:0:0:
162,320,87751,1,0,0:0:0:0:
158,317,87792,1,0,0:0:0:0:
154,314,87833,1,0,0:0:0:0:
150,311,87874,1,0,0:0:0:0:
147,308,87914,1,0,0:0:0:0:
143,304,87955,1,0,0:0:0:0:
139,300,87995,1,0,0:0:0:0:
136,297,88037,1,0,0:0:0:0:
133,293,88077,1,0,0:0:0:0:
130,289,88118,1,0,0:0:0:0:
127,285,88158,1,0,0:0:0:0:
124,281,88199,1,0,0:0:0:0:
121,277,88239,1,0,0:0:0:0:
119,273,88279,1,0,0:0:0:0:
116,268,88320,1,0,0:0:0:0:
114,264,88361,1,0,0:0:0:0:
111,259,88401,1,0,0:0:0:0:
109,255,88441,1,0,0:0:0:0:
108,250,88481,1,0,0:0:0:0:
106,245,88522,1,0,0:0:0:0:
104,241,88562,1,0,0:0:0:0:
103,236,88602,1,0,0:0:0:0:
101,231,88642,1,0,0:0:0:0:
100,226,88683,1,0,0:0:0:0:
99,221,88723,1,0,0:0:0:0:
98,216,88763,1,0,0:0:0:0:
98,211,88803,1,0,0:0:0:0:
97,206,88843,1,0,0:0:0:0:
97,201,88883,1,0,0:0:0:0:
96,196,88923,1,0,0:0:0:0:
96,191,88963,1,0,0:0:0:0:
96,187,89003,1,0,0:0:0:0:
97,182,89042,1,0,0:0:0:0:
97,177,89082,1,0,0:0:0:0:
98,172,89122,1,0,0:0:0:0:
98,167,89163,1,0,0:0:0:0:
99,162,89202,1,0,0:0:0:0:
100,157,89242,1,0,0:0:0:0:
101,152,89282,1,0,0:0:0:0:
103,147,89322,1,0,0:0:0:0:
104,142,89361,1,0,0:0:0:0:
106,138,89401,1,0,0:0:0:0:
108,133,89441,1,0,0:0:0:0:
109,128,89481,1,0,0:0:0:0:
111,124,89520,1,0,0:0:0:0:
114,119,89560,1,0,0:0:0:0:
116,115,89599,1,0,0:0:0:0:
119,110,89639,1,0,0:0:0:0:
121,106,89678,1,0,0:0:0:0:
124,102,89717,1,0,0:0:0:0:
127,98,89757,1,0,0:0:0:0:
130,94,89797,1,0,0:0:0:0:
133,90,89836,1,0,0:0:0:0:
136,86,89875,1,0,0:0:0:0:
139,83,89915,1,0,0:0:0:0:
143,79,89954,1,0,0:0:0:0:
147,75,89993,1,0,0:0:0:0:
150,72,90032,1,0,0:0:0:0:
154,69,90071,1,0,0:0:0:0:
158,66,90111,1,0,0:0:0:0:
162,63,90150,1,0,0:0:0:0:
166,60,90189,1,0,0:0:0:0:
170,57,90228,1,0,0:0:0:0:
174,55,90268,1,0,0:0:0:0:
179,52,90307,1,0,0:0:0:0:
183,50,90346,1,0,0:0:0:0:
188,47,90385,1,0,0:0:0:0:
192,45,90424,1,0,0:0:0:0:
197,44,90462,1,0,0:0:0:0:
202,42,90501,1,0,0:0:0:0:
206,40,90540,1,0,0:0:0:0:
211,39,90580,1,0,0:0:0:0:
216,37,90618,1,0,0:0:0:0:
221,36,90657,1,0,0:0:0:0:
226,35,90696,1,0,0:0:0:0:
231,34,90735,1,0,0:0:0:0:
236,34,90773,1,0,0:0:0:0:
241,33,90812,1,0,0:0:0:0:
246,33,90851,1,0,0:0:0:0:
251,32,90890,1,0,0:0:0:0:
256,32,90928,1,0,0:0:0:0:
260,32,90967,1,0,0:0:0:0:
265,33,91005,1,0,0:0:0:0:
270,33,91045,1,0,0:0:0:0:
275,34,91083,1,0,0:0:0:0:
280,34,91122,1,0,0:0:0:0:
285,35,91160,1,0,0:0:0:0:
290,36,91199,1,0,0:0:0:0:
295,37,91237,1,0,0:0:0:0:
300,39,91275,1,0,0:0:0:0:
305,40,91314,1,0,0:0:0:0:
309,42,91353,1,0,0:0:0:0:
314,44,91391,1,0,0:0:0:0:
319,45,91429,1,0,0:0:0:0:
323,47,91468,1,0,0:0:0:0:
328,50,91506,1,0,0:0:0:0:
332,52,91544,1,0,0:0:0:0:
337,55,91582,1,0,0:0:0:0:
341,57,91620,1,0,0:0:0:0:
345,60,91659,1,0,0:0:0:0:
349,63,91697,1,0,0:0:0:0:
353,66,91735,1,0,0:0:0:0:
357,69,91773,1,0,0:0:0:0:
361,72,91812,1,0,0:0:0:0:
364,75,91850,1,0,0:0:0:0:
368,79,91888,1,0,0:0:0:0:
372,83,91926,1,0,0:0:0:0:
375,86,91964,1,0,0:0:0:0:
378,90,92001,1,0,0:0:0:0:
381,94,92039,1,0,0:0:0:0:
384,98,92077,1,0,0:0:0:0:
387,102,92116,1,0,0:0:0:0:
390,106,92153,1,0,0:0:0:0:
392,110,92191,1,0,0:0:0:0:
395,115,92229,1,0,0:0:0:0:
397,119,92268,1,0,0:0:0:0:
400,124,92305,1,0,0:0:0:0:
402,128,92343,1,0,0:0:0:0:
403,133,92381,1,0,0:0:0:0:
405,138,92419,1,0,0:0:0:0:
407,142,92456,1,0,0:0:0:0:
408,147,92494,1,0,0:0:0:0:
410,152,92532,1,0,0:0:0:0:
411,157,92570,1,0,0:0:0:0:
412,162,92607,1,0,0:0:0:0:
413,167,92645,1,0,0:0:0:0:
413,172,92682,1,0,0:0:0:0:
414,177,92720,1,0,0:0:0:0:
414,182,92757,1,0,0:0:0:0:
415,187,92795,1,0,0:0:0:0:
415,192,92832,1,0,0:0:0:0:
415,196,92870,5,0,0:0:0:0:
414,201,92907,1,0,0:0:0:0:
414,206,92944,1,0,0:0:0:0:
413,211,92982,1,0,0:0:0:0:
413,216,93019,1,0,0:0:0:0:
412,221,93057,1,0,0:0:0:0:
411,226,93094,1,0,0:0:0:0:
410,231,93131,1,0,0:0:0:0:
408,236,93169,1,0,0:0:0:0:
407,241,93206,1,0,0:0:0:0:
405,245,93243,1,0,0:0:0:0:
403,250,93280,1,0,0:0:0:0:
402,255,93317,1,0,0:0:0:0:
400,259,93355,1,0,0:0:0:0:
397,264,93392,1,0,0:0:0:0:
395,268,93429,1,0,0:0:0:0:
392,273,93466,1,0,0:0:0:0:
390,277,93504,1,0,0:0:0:0:
387,281,93541,1,0,0:0:0:0:
384,285,93578,1,0,0:0:0:0:
381,289,93615,1,0,0:0:0:0:
378,293,93651,1,0,0:0:0:0:
375,297,93688,1,0,0:0:0:0:
372,300,93725,1,0,0:0:0:0:
368,304,93762,1,0,0:0:0:0:
364,308,93799,1,0,0:0:0:0:
361,311,93836,1,0,0:0:0:0:
357,314,93873,1,0,0:0:0:0:
353,317,93910,1,0,0:0:0:0:
349,320,93946,1,0,0:0:0:0:
345,323,93983,1,0,0:0:0:0:
341,326,94020,1,0,0:0:0:0:
337,328,94057,1,0,0:0:0:0:
332,331,94093,1,0,0:0:0:0:
328,333,94130,1,0,0:0:0:0:
323,336,94167,1,0,0:0:0:0:
319,338,94204,1,0,0:0:0:0:
314,339,94240,1,0,0:0:0:0:
309,341,94277,1,0,0:0:0:0:
305,343,94313,1,0,0:0:0:0:
300,344,94350,1,0,0:0:0:0:
295,346,94386,1,0,0:0:0:0:
290,347,94422,1,0,0:0:0:0:
285,348,94459,1,0,0:0:0:0:
280,349,94496,1,0,0:0:0:0:
275,349,94532,1,0,0:0:0:0:
270,350,94568,1,0,0:0:0:0:
265,350,94605,1,0,0:0:0:0:
260,351,94642,1,0,0:0:0:0:
255,351,94678,1,0,0:0:0:0:
251,351,94714,1,0,0:0:0:0:
246,350,94750,1,0,0:0:0:0:
241,350,94787,1,0,0:0:0:0:
236,349,94823,1,0,0:0:0:0:
231,349,94859,1,0,0:0:0:0:
226,348,94895,1,0,0:0:0:0:
221,347,94932,1,0,0:0:0:0:
216,346,94968,1,0,0:0:0:0:
211,344,95004,1,0,0:0:0:0:
206,343,95040,1,0,0:0:0:0:
202,341,95077,1,0,0:0:0:0:
197,339,95113,1,0,0:0:0:0:
192,338,95149,1,0,0:0:0:0:
188,336,95185,1,0,0:0:0:0:
183,333,95221,1,0,0:0:0:0:
179,331,95256,1,0,0:0:0:0:
174,328,95292,1,0,0:0:0:0:
170,326,95328,1,0,0:0:0:0:
166,323,95365,1,0,0:0:0:0:
162,320,95400,1,0,0:0:0:0:
158,317,95436,1,0,0:0:0:0:
154,314,95472,1,0,0:0:0:0:
150,311,95509,1,0,0:0:0:0:
147,308,95544,1,0,0:0:0:0:
143,304,95580,1,0,0:0:0:0:
139,300,95616,1,0,0:0:0:0:
136,297,95652,1,0,0:0:0:0:
133,293,95687,1,0,0:0:0:0:
130,289,95723,1,0,0:0:0:0:
127,285,95759,1,0,0:0:0:0:
124,281,95795,1,0,0:0:0:0:
121,277,95830,1,0,0:0:0:0:
119,273,95866,1,0,0:0:0:0:
116,268,95901,1,0,0:0:0:0:
114,264,95938,1,0,0:0:0:0:
111,259,95973,1,0,0:0:0:0:
109,255,96009,1,0,0:0:0:0:
108,250,96044,1,0,0:0:0:0:
106,245,96080,1,0,0:0:0:0:
104,241,96115,1,0,0:0:0:0:
103,236,96150,1,0,0:0:0:0:
101,231,96186,1,0,0:0:0:0:
100,226,96222,1,0,0:0:0:0:
99,221,96257,1,0,0:0:0:0:
98,216,96292,1,0,0:0:0:0:
98,211,96328,1,0,0:0:0:0:
97,206,96364,1,0,0:0:0:0:
97,201,96399,1,0,0:0:0:0:
96,196,96434,1,0,0:0:0:0:
96,191,96469,1,0,0:0:0:0:
96,187,96505,1,0,0:0:0:0:
97,182,96540,1,0,0:0:0:0:
97,177,96575,1,0,0:0:0:0:
98,172,96610,1,0,0:0:0:0:
98,167,96646,1,0,0:0:0:0:
99,162,96681,1,0,0:0:0:0:
100,157,96716,1,0,0:0:0:0:
101,152,96751,1,0,0:0:0:0:
103,147,96787,1,0,0:0:0:0:
104,142,96822,1,0,0:0:0:0:
106,138,96857,1,0,0:0:0:0:
108,133,96892,1,0,0:0:0:0:
109,128,96927,1,0,0:0:0:0:
111,124,96961,1,0,0:0:0:0:
114,119,96996,1,0,0:0:0:0:
116,115,97031,1,0,0:0:0:0:
119,110,97067,1,0,0:0:0:0:
121,106,97101,1,0,0:0:0:0:
124,102,97136,1,0,0:0:0:0:
127,98,97171,1,0,0:0:0:0:
130,94,97207,1,0,0:0:0:0:
133,90,97241,1,0,0:0:0:0:
136,86,97276,1,0,0:0:0:0:
139,83,97311,1,0,0:0:0:0:
143,79,97346,1,0,0:0:0:0:
147,75,97380,1,0,0:0:0:0:
150,72,97415,1,0,0:0:0:0:
154,69,97450,1,0,0:0:0:0:
158,66,97485,1,0,0:0:0:0:
162,63,97519,1,0,0:0:0:0:
166,60,97554,1,0,0:0:0:0:
170,57,97588,1,0,0:0:0:0:
174,55,97624,1,0,0:0:0:0:
179,52,97658,1,0,0:0:0:0:
183,50,97693,1,0,0:0:0:0:
188,47,97727,1,0,0:0:0:0:
192,45,97762,1,0,0:0:0:0:
197,44,97796,1,0,0:0:0:0:
202,42,97830,1,0,0:0:0:0:
206,40,97865,1,0,0:0:0:0:
211,39,97900,1,0,0:0:0:0:
216,37,97934,1,0,0:0:0:0:
221,36,97968,1,0,0:0:0:0:
226,35,98003,1,0,0:0:0:0:
231,34,98038,1,0,0:0:0:0:
236,34,98072,1,0,0:0:0:0:
241,33,98106,1,0,0:0:0:0:
246,33,98140,1,0,0:0:0:0:
251,32,98175,1,0,0:0:0:0:
256,32,98209,1,0,0:0:0:0:
260,32,98243,1,0,0:0:0:0:
265,33,98277,1,0,0:0:0:0:
270,33,98312,1,0,0:0:0:0:
275,34,98346,1,0,0:0:0:0:
280,34,98380,1,0,0:0:0:0:
285,35,98414,1,0,0:0:0:0:
290,36,98449,1,0,0:0:0:0:
295,37,98483,1,0,0:0:0:0:
300,39,98517,1,0,0:0:0:0:
305,40,98551,1,0,0:0:0:0:
309,42,98585,1,0,0:0:0:0:
314,44,98619,1,0,0:0:0:0:
319,45,98653,1,0,0:0:0:0:
323,47,98687,1,0,0:0:0:0:
328,50,98721,1,0,0:0:0:0:
332,52,98754,1,0,0:0:0:0:
337,55,98788,1,0,0:0:0:0:
341,57,98822,1,0,0:0:0:0:
345,60,98857,1,0,0:0:0:0:
349,63,98890,1,0,0:0:0:0:
353,66,98924,1,0,0:0:0:0:
357,69,98958,1,0,0:0:0:0:
361,72,98992,1,0,0:0:0:0:
364,75,99025,1,0,0:0:0:0:
368,79,99059,1,0,0:0:0:0:
372,83,99093,1,0,0:0:0:0:
375,86,99127,1,0,0:0:0:0:
378,90,99160,1,0,0:0:0:0:
381,94,99194,1,0,0:0:0:0:
384,98,99228,1,0,0:0:0:0:
387,102,99262,1,0,0:0:0:0:
390,106,99295,1,0,0:0:0:0:
392,110,99329,1,0,0:0:0:0:
395,115,99362,1,0,0:0:0:0:
397,119,99397,1,0,0:0:0:0:
400,124,99430,1,0,0:0:0:0:
402,128,99464,1,0,0:0:0:0:
403,133,99497,1,0,0:0:0:0:
405,138,99531,1,0,0:0:0:0:
407,142,99564,1,0,0:0:0:0:
408,147,99597,1,0,0:0:0:0:
410,152,99631,1,0,0:0:0:0:
411,157,99665,1,0,0:0:0:0:
412,162,99698,1,0,0:0:0:0:
413,167,99731,1,0,0:0:0:0:
413,172,99765,1,0,0:0:0:0:
414,177,99799,1,0,0:0:0:0:
414,182,99832,1,0,0:0:0:0:
415,187,99865,1,0,0:0:0:0:
415,192,99899,1,0,0:0:0:0:
415,196,99932,1,0,0:0:0:0:
414,201,99965,1,0,0:0:0:0:
414,206,99998,1,0,0:0:0:0:
413,211,100031,1,0,0:0:0:0:
413,216,100065,1,0,0:0:0:0:
412,221,100098,1,0,0:0:0:0:
411,226,100131,1,0,0:0:0:0:
410,231,100164,1,0,0:0:0:0:
408,236,100197,1,0,0:0:0:0:
407,241,100231,1,0,0:0:0:0:
405,245,100264,1,0,0:0:0:0:
403,250,100297,1,0,0:0:0:0:
402,255,100330,1,0,0:0:0:0:
400,259,100363,1,0,0:0:0:0:
397,264,100396,1,0,0:0:0:0:
395,268,100429,1,0,0:0:0:0:
392,273,100462,1,0,0:0:0:0:
390,277,100494,1,0,0:0:0:0:
387,281,100527,1,0,0:0:0:0:
384,285,100560,1,0,0:0:0:0:
381,289,100593,1,0,0:0:0:0:
378,293,100626,1,0,0:0:0:0:
375,297,100659,1,0,0:0:0:0:
372,300,100692,1,0,0:0:0:0:
368,304,100725,1,0,0:0:0:0:
364,308,100758,1,0,0:0:0:0:
361,311,100791,1,0,0:0:0:0:
357,314,100824,1,0,0:0:0:0:
353,317,100857,1,0,0:0:0:0:
349,320,100889,1,0,0:0:0:0:
345,323,100922,1,0,0:0:0:0:
341,326,100955,1,0,0:0:0:0:
337,328,100988,1,0,0:0:0:0:
332,331,101020,1,0,0:0:0:0:
328,333,101053,1,0,0:0:0:0:
323,336,101086,1,0,0:0:0:0:
319,338,101119,1,0,0:0:0:0:
314,339,101151,1,0,0:0:0:0:
309,341,101184,1,0,0:0:0:0:
305,343,101216,1,0,0:0:0:0:
300,344,101249,1,0,0:0:0:0:
295,346,101281,1,0,0:0:0:0:
290,347,101314,1,0,0:0:0:0:
285,348,101346,1,0,0:0:0:0:
280,349,101379,1,0,0:0:0:0:
275,349,101411,1,0,0:0:0:0:
270,350,101443,1,0,0:0:0:0:
265,350,101476,1,0,0:0:0:0:
260,351,101509,1,0,0:0:0:0:
255,351,101541,1,0,0:0:0:0:
251,351,101573,1,0,0:0:0:0:
246,350,101606,1,0,0:0:0:0:
241,350,101639,1,0,0:0:0:0:
236,349,101671,1,0,0:0:0:0:
231,349,101703,1,0,0:0:0:0:
226,348,101735,1,0,0:0:0:0:
221,347,101768,1,0,0:0:0:0:
216,346,101800,1,0,0:0:0:0:
211,344,101832,1,0,0:0:0:0:
206,343,101864,1,0,0:0:0:0:
202,341,101897,1,0,0:0:0:0:
197,339,101929,1,0,0:0:0:0:
192,338,101961,1,0,0:0:0:0:
188,336,101993,1,0,0:0:0:0:
183,333,102026,1,0,0:0:0:0:
179,331,102058,1,0,0:0:0:0:
174,328,102090,1,0,0:0:0:0:
170,326,102122,1,0,0:0:0:0:
166,323,102154,1,0,0:0:0:0:
162,320,102186,1,0,0:0:0:0:
158,317,102218,1,0,0:0:0:0:
154,314,102250,1,0,0:0:0:0:
150,311,102282,1,0,0:0:0:0:
147,308,102313,1,0,0:0:0:0:
143,304,102345,1,0,0:0:0:0:
139,300,102377,1,0,0:0:0:0:
136,297,102410,1,0,0:0:0:0:
133,293,102441,1,0,0:0:0:0:
130,289,102473,1,0,0:0:0:0:
127,285,102505,1,0,0:0:0:0:
124,281,102538,1,0,0:0:0:0:
121,277,102569,1,0,0:0:0:0:
119,273,102601,1,0,0:0:0:0:
116,268,102633,1,0,0:0:0:0:
114,264,102665,1,0,0:0:0:0:
111,259,102696,1,0,0:0:0:0:
109,255,102728,1,0,0:0:0:0:
108,250,102760,1,0,0:0:0:0:
106,245,102792,1,0,0:0:0:0:
104,241,102823,1,0,0:0:0:0:
103,236,102855,1,0,0:0:0:0:
101,231,102887,1,0,0:0:0:0:
100,226,102919,1,0,0:0:0:0:
99,221,102950,1,0,0:0:0:0:
98,216,102982,1,0,0:0:0:0:
98,211,103013,1,0,0:0:0:0:
97,206,103046,1,0,0:0:0:0:
97,201,103077,1,0,0:0:0:0:
96,196,103109,1,0,0:0:0:0:
96,191,103140,1,0,0:0:0:0:
96,187,103172,1,0,0:0:0:0:
97,182,103203,1,0,0:0:0:0:
97,177,103235,1,0,0:0:0:0:
98,172,103266,1,0,0:0:0:0:
98,167,103298,1,0,0:0:0:0:
99,162,103329,1,0,0:0:0:0:
100,157,103360,1,0,0:0:0:0:
101,152,103392,1,0,0:0:0:0:
103,147,103424,1,0,0:0:0:0:
104,142,103455,1,0,0:0:0:0:
106,138,103486,1,0,0:0:0:0:
108,133,103518,1,0,0:0:0:0:
109,128,103550,1,0,0:0:0:0:
111,124,103581,1,0,0:0:0:0:
114,119,103612,1,0,0:0:0:0:
116,115,103643,1,0,0:0:0:0:
119,110,103675,1,0,0:0:0:0:
121,106,103706,1,0,0:0:0:0:
124,102,103737,1,0,0:0:0:0:
127,98,103768,1,0,0:0:0:0:
130,94,103800,1,0,0:0:0:0:
133,90,103831,1,0,0:0:0:0:
136,86,103862,1,0,0:0:0:0:
139,83,103893,1,0,0:0:0:0:
143,79,103925,1,0,0:0:0:0:
147,75,103956,1,0,0:0:0:0:
150,72,103987,1,0,0:0:0:0:
154,69,104018,1,0,0:0:0:0:
158,66,104049,1,0,0:0:0:0:
162,63,104080,1,0,0:0:0:0:
166,60,104111,1,0,0:0:0:0:
170,57,104142,1,0,0:0:0:0:
174,55,104173,1,0,0:0:0:0:
179,52,104203,1,0,0:0:0:0:
183,50,104234,1,0,0:0:0:0:
188,47,104265,1,0,0:0:0:0:
192,45,104297,1,0,0:0:0:0:
197,44,104327,1,0,0:0:0:0:
202,42,104358,1,0,0:0:0:0:
206,40,104389,1,0,0:0:0:0:
211,39,104421,1,0,0:0:0:0:
216,37,104451,1,0,0:0:0:0:
221,36,104482,1,0,0:0:0:0:
226,35,104513,1,0,0:0:0:0:
231,34,104544,1,0,0:0:0:0:
236,34,104574,1,0,0:0:0:0:
241,33,104605,1,0,0:0:0:0:
246,33,104636,1,0,0:0:0:0:
251,32,104667,1,0,0:0:0:0:
256,32,104697,1,0,0:0:0:0:
260,32,104728,1,0,0:0:0:0:
265,33,104759,1,0,0:0:0:0:
270,33,104790,1,0,0:0:0:0:
275,34,104820,1,0,0:0:0:0:
280,34,104851,1,0,0:0:0:0:
285,35,104882,1,0,0:0:0:0:
290,36,104913,1,0,0:0:0:0:
295,37,104943,1,0,0:0:0:0:
300,39,104974,1,0,0:0:0:0:
305,40,105004,1,0,0:0:0:0:
309,42,105035,1,0,0:0:0:0:
314,44,105065,1,0,0:0:0:0:
319,45,105096,1,0,0:0:0:0:
323,47,105126,1,0,0:0:0:0:
328,50,105157,1,0,0:0:0:0:
332,52,105187,1,0,0:0:0:0:
337,55,105217,1,0,0:0:0:0:
341,57,105248,1,0,0:0:0:0:
345,60,105279,1,0,0:0:0:0:
349,63,105309,1,0,0:0:0:0:
353,66,105339,1,0,0:0:0:0:
357,69,105370,1,0,0:0:0:0:
361,72,105401,1,0,0:0:0:0:
364,75,105431,1,0,0:0:0:0:
368,79,105461,1,0,0:0:0:0:
372,83,105492,1,0,0:0:0:0:
375,86,105522,1,0,0:0:0:0:
378,90,105552,1,0,0:0:0:0:
381,94,105582,1,0,0:0:0:0:
384,98,105612,1,0,0:0:0:0:
387,102,105643,1,0,0:0:0:0:
390,106,105673,1,0,0:0:0:0:
392,110,105703,1,0,0:0:0:0:
395,115,105733,1,0,0:0:0:0:
397,119,105764,1,0,0:0:0:0:
400,124,105794,1,0,0:0:0:0:
402,128,105824,1,0,0:0:0:0:
403,133,105854,1,0,0:0:0:0:
405,138,105885,1,0,0:0:0:0:
407,142,105915,1,0,0:0:0:0:
408,147,105945,1,0,0:0:0:0:
410,152,105975,1,0,0:0:0:0:
411,157,106005,1,0,0:0:0:0:
412,162,106035,1,0,0:0:0:0:
413,167,106065,1,0,0:0:0:0:
413,172,106095,1,0,0:0:0:0:
414,177,106125,1,0,0:0:0:0:
414,182,106155,1,0,0:0:0:0:
415,187,106185,1,0,0:0:0:0:
415,192,106215,1,0,0:0:0:0:
415,196,106245,5,0,0:0:0:0:
414,201,106274,1,0,0:0:0:0:
414,206,106304,1,0,0:0:0:0:
413,211,106334,1,0,0:0:0:0:
413,216,106364,1,0,0:0:0:0:
412,221,106394,1,0,0:0:0:0:
411,226,106424,1,0,0:0:0:0:
410,231,106454,1,0,0:0:0:0:
408,236,106484,1,0,0:0:0:0:
407,241,106514,1,0,0:0:0:0:
405,245,106544,1,0,0:0:0:0:
403,250,106574,1,0,0:0:0:0:
402,255,106604,1,0,0:0:0:0:
400,259,106633,1,0,0:0:0:0:
397,264,106663,1,0,0:0:0:0:
395,268,106693,1,0,0:0:0:0:
392,273,106723,1,0,0:0:0:0:
390,277,106752,1,0,0:0:0:0:
387,281,106782,1,0,0:0:0:0:
384,285,106812,1,0,0:0:0:0:
381,289,106841,1,0,0:0:0:0:
378,293,106871,1,0,0:0:0:0:
375,297,106901,1,0,0:0:0:0:
372,300,106930,1,0,0:0:0:0:
368,304,106960,1,0,0:0:0:0:
364,308,106990,1,0,0:0:0:0:
361,311,107020,1,0,0:0:0:0:
357,314,107049,1,0,0:0:0:0:
353,317,107079,1,0,0:0:0:0:
349,320,107108,1,0,0:0:0:0:
345,323,107138,1,0,0:0:0:0:
341,326,107167,1,0,0:0:0:0:
337,328,107197,1,0,0:0:0:0:
332,331,107226,1,0,0:0:0:0:
328,333,107255,1,0,0:0:0:0:
323,336,107285,1,0,0:0:0:0:
319,338,107314,1,0,0:0:0:0:
314,339,107344,1,0,0:0:0:0:
309,341,107373,1,0,0:0:0:0:
305,343,107403,1,0,0:0:0:0:
300,344,107432,1,0,0:0:0:0:
295,346,107462,1,0,0:0:0:0:
290,347,107491,1,0,0:0:0:0:
285,348,107521,1,0,0:0:0:0:
280,349,107550,1,0,0:0:0:0:
275,349,107579,1,0,0:0:0:0:
270,350,107608,1,0,0:0:0:0:
265,350,107637,1,0,0:0:0:0:
260,351,107667,1,0,0:0:0:0:
255,351,107696,1,0,0:0:0:0:
251,351,107725,1,0,0:0:0:0:
246,350,107754,1,0,0:0:0:0:
241,350,107783,1,0,0:0:0:0:
236,349,107813,1,0,0:0:0:0:
231,349,107842,1,0,0:0:0:0:
226,348,107871,1,0,0:0:0:0:
221,347,107900,1,0,0:0:0:0:
216,346,107930,1,0,0:0:0:0:
211,344,107959,1,0,0:0:0:0:
206,343,107988,1,0,0:0:0:0:
202,341,108017,1,0,0:0:0:0:
197,339,108047,1,0,0:0:0:0:
192,338,108076,1,0,0:0:0:0:
188,336,108105,1,0,0:0:0:0:
183,333,108134,1,0,0:0:0:0:
179,331,108163,1,0,0:0:0:0:
174,328,108192,1,0,0:0:0:0:
170,326,108221,1,0,0:0:0:0:
166,323,108250,1,0,0:0:0:0:
162,320,108278,1,0,0:0:0:0:
158,317,108307,1,0,0:0:0:0:
154,314,108336,1,0,0:0:0:0:
150,311,108365,1,0,0:0:0:0:
147,308,108394,1,0,0:0:0:0:
143,304,108423,1,0,0:0:0:0:
139,300,108452,1,0,0:0:0:0:
136,297,108481,1,0,0:0:0:0:
133,293,108510,1,0,0:0:0:0:
130,289,108539,1,0,0:0:0:0:
127,285,108568,1,0,0:0:0:0:
124,281,108597,1,0,0:0:0:0:
121,277,108625,1,0,0:0:0:0:
119,273,108654,1,0,0:0:0:0:
116,268,108683,1,0,0:0:0:0:
114,264,108712,1,0,0:0:0:0:
111,259,108740,1,0,0:0:0:0:
109,255,108769,1,0,0:0:0:0:
108,250,108798,1,0,0:0:0:0:
106,245,108827,1,0,0:0:0:0:
104,241,108855,1,0,0:0:0:0:
103,236,108884,1,0,0:0:0:0:
101,231,108913,1,0,0:0:0:0:
100,226,108942,1,0,0:0:0:0:
99,221,108970,1,0,0:0:0:0:
98,216,108999,1,0,0:0:0:0:
98,211,109027,1,0,0:0:0:0:
97,206,109056,1,0,0:0:0:0:
97,201,109085,1,0,0:0:0:0:
96,196,109114,1,0,0:0:0:0:
96,191,109142,1,0,0:0:0:0:
96,187,109171,1,0,0:0:0:0:
97,182,109199,1,0,0:0:0:0:
97,177,109228,1,0,0:0:0:0:
98,172,109256,1,0,0:0:0:0:
98,167,109285,1,0,0:0:0:0:
99,162,109313,1,0,0:0:0:0:
100,157,109341,1,0,0:0:0:0:
101,152,109370,1,0,0:0:0:0:
103,147,109399,1,0,0:0:0:0:
104,142,109427,1,0,0:0:0:0:
106,138,109455,1,0,0:0:0:0:
108,133,109484,1,0,0:0:0:0:
109,128,109513,1,0,0:0:0:0:
111,124,109541,1,0,0:0:0:0:
114,119,109569,1,0,0:0:0:0:
116,115,109598,1,0,0:0:0:0:
119,110,109626,1,0,0:0:0:0:
121,106,109654,1,0,0:0:0:0:
124,102,109682,1,0,0:0:0:0:
127,98,109710,1,0,0:0:0:0:
130,94,109739,1,0,0:0:0:0:
133,90,109767,1,0,0:0:0:0:
136,86,109795,1,0,0:0:0:0:
139,83,109823,1,0,0:0:0:0:
143,79,109852,1,0,0:0:0:0:
147,75,109880,1,0,0:0:0:0:
150,72,109908,1,0,0:0:0:0:
154,69,109936,1,0,0:0:0:0:
158,66,109965,1,0,0:0:0:0:
162,63,109993,1,0,0:0:0:0:
166,60,110021,1,0,0:0:0:0:
170,57,110049,1,0,0:0:0:0:
174,55,110078,1,0,0:0:0:0:
179,52,110106,1,0,0:0:0:0:
183,50,110134,1,0,0:0:0:0:
188,47,110162,1,0,0:0:0:0:
192,45,110190,1,0,0:0:0:0:
197,44,110218,1,0,0:0:0:0:
202,42,110246,1,0,0:0:0:0:
206,40,110274,1,0,0:0:0:0:
211,39,110302,1,0,0:0:0:0:
216,37,110329,1,0,0:0:0:0:
221,36,110357,1,0,0:0:0:0:
226,35,110385,1,0,0:0:0:0:
231,34,110414,1,0,0:0:0:0:
236,34,110441,1,0,0:0:0:0:
241,33,110469,1,0,0:0:0:0:
246,33,110497,1,0,0:0:0:0:
251,32,110526,1,0,0:0:0:0:
256,32,110553,1,0,0:0:0:0:
260,32,110581,1,0,0:0:0:0:
265,33,110609,1,0,0:0:0:0:
270,33,110638,1,0,0:0:0:0:
275,34,110665,1,0,0:0:0:0:
280,34,110693,1,0,0:0:0:0:
285,35,110721,1,0,0:0:0:0:
290,36,110749,1,0,0:0:0:0:
295,37,110776,1,0,0:0:0:0:
300,39,110804,1,0,0:0:0:0:
305,40,110832,1,0,0:0:0:0:
309,42,110860,1,0,0:0:0:0:
314,44,110887,1,0,0:0:0:0:
319,45,110915,1,0,0:0:0:0:
323,47,110943,1,0,0:0:0:0:
328,50,110971,1,0,0:0:0:0:
332,52,110998,1,0,0:0:0:0:
337,55,111026,1,0,0:0:0:0:
341,57,111054,1,0,0:0:0:0:
345,60,111082,1,0,0:0:0:0:
349,63,111109,1,0,0:0:0:0:
353,66,111137,1,0,0:0:0:0:
357,69,111164,1,0,0:0:0:0:
361,72,111192,1,0,0:0:0:0:
364,75,111219,1,0,0:0:0:0:
368,79,111247,1,0,0:0:0:0:
372,83,111274,1,0,0:0:0:0:
375,86,111302,1,0,0:0:0:0:
378,90,111329,1,0,0:0:0:0:
381,94,111357,1,0,0:0:0:0:
384,98,111384,1,0,0:0:0:0:
387,102,111412,1,0,0:0:0:0:
390,106,111439,1,0,0:0:0:0:
392,110,111466,1,0,0:0:0:0:
395,115,111494,1,0,0:0:0:0:
397,119,111522,1,0,0:0:0:0:
400,124,111549,1,0,0:0:0:0:
402,128,111576,1,0,0:0:0:0:
403,133,111604,1,0,0:0:0:0:
405,138,111632,1,0,0:0:0:0:
407,142,111659,1,0,0:0:0:0:
408,147,111686,1,0,0:0:0:0:
410,152,111714,1,0,0:0:0:0:
411,157,111741,5,0,0:0:0:0:
412,162,111768,5,0,0:0:0:0:
413,167,111795,5,0,0:0:0:0:
413,172,111822,5,0,0:0:0:0:
414,177,111850,5,0,0:0:0:0:
414,182,111877,5,0,0:0:0:0:
415,187,111904,5,0,0:0:0:0:
415,192,111931,5,0,0:0:0:0:
415,196,111959,5,0,0:0:0:0:
414,201,111986,5,0,0:0:0:0:
414,206,112013,5,0,0:0:0:0:
413,211,112040,5,0,0:0:0:0:
413,216,112067,5,0,0:0:0:0:
412,221,112095,5,0,0:0:0:0:
411,226,112122,5,0,0:0:0:0:
410,231,112149,5,0,0:0:0:0:
408,236,112176,5,0,0:0:0:0:
407,241,112204,5,0,0:0:0:0:
405,245,112231,5,0,0:0:0:0:
403,250,112258,5,0,0:0:0:0:
402,255,112285,5,0,0:0:0:0:
400,259,112313,5,0,0:0:0:0:
397,264,112340,5,0,0:0:0:0:
395,268,112367,5,0,0:0:0:0:
392,273,112394,5,0,0:0:0:0:
390,277,112421,5,0,0:0:0:0:
387,281,112448,5,0,0:0:0:0:
384,285,112475,5,0,0:0:0:0:
381,289,112502,5,0,0:0:0:0:
378,293,112528,5,0,0:0:0:0:
375,297,112555,5,0,0:0:0:0:
372,300,112582,5,0,0:0:0:0:
368,304,112609,5,0,0:0:0:0:
364,308,112636,5,0,0:0:0:0:
361,311,112663,5,0,0:0:0:0:
357,314,112690,5,0,0:0:0:0:
353,317,112717,5,0,0:0:0:0:
349,320,112744,5,0,0:0:0:0:
345,323,112771,5,0,0:0:0:0:
341,326,112798,5,0,0:0:0:0:
337,328,112825,5,0,0:0:0:0:
332,331,112852,5,0,0:0:0:0:
328,333,112879,5,0,0:0:0:0:
323,336,112906,5,0,0:0:0:0:
319,338,112933,5,0,0:0:0:0:
314,339,112959,5,0,0:0:0:0:
309,341,112986,5,0,0:0:0:0:
305,343,113013,5,0,0:0:0:0:
300,344,113040,5,0,0:0:0:0:
295,346,113066,5,0,0:0:0:0:
290,347,113093,5,0,0:0:0:0:
285,348,113120,5,0,0:0:0:0:
280,349,113147,5,0,0:0:0:0:
275,349,113173,5,0,0:0:0:0:
270,350,113200,5,0,0:0:0:0:
265,350,113227,5,0,0:0:0:0:
260,351,113254,5,0,0:0:0:0:
255,351,113280,5,0,0:0:0:0:
251,351,113307,5,0,0:0:0:0:
246,350,113333,5,0,0:0:0:0:
241,350,113360,5,0,0:0:0:0:
236,349,113387,5,0,0:0:0:0:
231,349,113414,5,0,0:0:0:0:
226,348,113440,5,0,0:0:0:0:
221,347,113467,5,0,0:0:0:0:
216,346,113493,5,0,0:0:0:0:
211,344,113520,5,0,0:0:0:0:
206,343,113546,5,0,0:0:0:0:
202,341,113573,5,0,0:0:0:0:
197,339,113599,5,0,0:0:0:0:
192,338,113626,5,0,0:0:0:0:
188,336,113652,5,0,0:0:0:0:
183,333,113679,5,0,0:0:0:0:
179,331,113705,5,0,0:0:0:0:
174,328,113731,5,0,0:0:0:0:
170,326,113758,5,0,0:0:0:0:
166,323,113785,5,0,0:0:0:0:
162,320,113811,5,0,0:0:0:0:
158,317,113837,5,0,0:0:0:0:
154,314,113864,5,0,0:0:0:0:
150,311,113891,5,0,0:0:0:0:
147,308,113917,5,0,0:0:0:0:
143,304,113943,5,0,0:0:0:0:
139,300,113970,5,0,0:0:0:0:
136,297,113996,5,0,0:0:0:0:
133,293,114022,5,0,0:0:0:0:
130,289,114048,5,0,0:0:0:0:
127,285,114074,5,0,0:0:0:0:
124,281,114101,5,0,0:0:0:0:
121,277,114127,5,0,0:0:0:0:
119,273,114153,5,0,0:0:0:0:
116,268,114179,5,0,0:0:0:0:
114,264,114206,5,0,0:0:0:0:
111,259,114232,5,0,0:0:0:0:
109,255,114258,5,0,0:0:0:0:
108,250,114284,5,0,0:0:0:0:
106,245,114311,5,0,0:0:0:0:
