osu file format v14

[General]
AudioFilename: deltaMAX.mp3
AudioLeadIn: 1000
PreviewTime: 50149
Countdown: 1
SampleSet: None
StackLeniency: 0.2
Mode: 0
LetterboxInBreaks: 1
WidescreenStoryboard: 1

[Editor]
Bookmarks: 11850,28439,41420,52084,61137,75952,87824,97731,106231,113676,116246
DistanceSpacing: 0.5
BeatDivisor: 3
GridSize: 4
TimelineZoom: 4.499998

[Metadata]
Title:deltaMAX
TitleUnicode:deltaMAX
Artist:DM Ashura
ArtistUnicode:DM Ashura
Creator:lsckjy
Version:deathstack 1/3
Source:DDR Forever
Tags:Dance Dance Revolution Universe 3 stepmania ignorethis lzy Doomsday tsuka Frank7654321
BeatmapID:824334
BeatmapSetID:367807

[Difficulty]
HPDrainRate:5
CircleSize:3
OverallDifficulty:0
ApproachRate:0
SliderMultiplier:2
SliderTickRate:0.5

[Events]
//Background and Video events
0,0,"deltaMAX-bg.png",0,0
//Break Periods
//Storyboard Layer 0 (Background)
//Storyboard Layer 1 (Fail)
//Storyboard Layer 2 (Pass)
//Storyboard Layer 3 (Foreground)
Sprite,Foreground,Centre,"nothing.png",320,240 F,0,125410,,0
//Storyboard Sound Samples

[TimingPoints]
315,600,4,1,0,80,1,0
8715,-100,4,1,0,17,0,0
9915,594.088816278034,4,1,0,40,1,1
10509,588.264130594637,4,1,0,40,1,0
11097,582.552551094713,4,1,0,40,1,0
11680,576.950814943026,4,1,0,40,1,0
12257,571.455783608743,4,1,0,40,1,0
12828,566.064437001745,4,1,0,40,1,0
13394,560.773867937754,4,1,0,40,1,0
13955,555.581276910968,4,1,0,40,1,0
14511,550.483967154457,4,1,0,40,1,0
15061,545.479339969999,4,1,0,40,1,0
15606,540.564890310374,4,1,0,40,1,0
16147,535.73820259833,4,1,0,40,1,0
16683,530.996946767556,4,1,0,40,1,0
17214,526.33887451204,4,1,0,40,1,0
17740,521.761815731119,4,1,0,40,1,0
18262,517.263675158412,4,1,0,40,1,0
18779,512.84242916364,4,1,0,40,1,0
19292,508.496122717064,4,1,0,40,1,0
19800,504.222866506996,4,1,0,40,1,0
20304,500.020834201425,4,1,0,40,1,0
20804,495.888259845448,4,1,0,40,1,0
21300,491.823435386696,4,1,0,40,1,0
21792,487.824708321476,4,1,0,40,1,0
22280,483.890479454817,4,1,0,40,1,0
22764,480.019200768031,4,1,0,40,1,0
23244,476.209373387833,4,1,0,40,1,0
23720,472.459545651404,4,1,0,40,1,0
24192,468.768311262159,4,1,0,40,1,0
24661,465.1343075313,4,1,0,40,1,0
25126,461.556213700527,4,1,0,40,1,0
25588,458.032749341578,4,1,0,40,1,0
26046,454.562672828516,4,1,0,40,1,0
26501,451.144779878943,4,1,0,45,1,0
26952,447.777902160528,4,1,0,45,1,0
27400,444.46090595948,4,1,0,45,1,0
27844,441.192690907754,4,1,0,45,1,0
28285,437.972188766013,4,1,0,45,1,0
28723,434.798362259502,4,1,0,45,1,0
29158,431.670203964171,4,1,0,45,1,0
29590,428.586735240544,4,1,0,45,1,0
30019,425.547005212951,4,1,0,45,1,0
30445,422.550089791894,4,1,0,45,1,0
30868,419.595090737438,4,1,0,45,1,0
31288,416.681134761624,4,1,0,45,1,0
31705,413.807372668023,4,1,0,45,1,0
32119,410.972978526662,4,1,0,45,1,0
32530,408.177148882615,4,1,0,45,1,0
32938,405.419101996689,4,1,0,45,1,0
33343,402.698077116682,4,1,0,45,1,0
33746,400.013333777793,4,1,0,45,1,0
34146,397.364151130832,4,1,0,45,1,0
34543,394.749827296951,4,1,0,45,1,0
34938,392.169678747671,4,1,0,45,1,0
35330,389.623039709081,4,1,0,45,1,0
35720,387.109261589084,4,1,0,45,1,0
36107,384.62771242668,4,1,0,45,1,0
36492,382.177776362305,4,1,0,45,1,0
36874,379.758853128264,4,1,0,45,1,0
37254,377.370357558414,4,1,0,45,1,0
37631,375.011719116222,4,1,0,45,1,0
38006,372.682381440417,4,1,0,45,1,0
38379,370.381801907466,4,1,0,45,1,0
38749,368.10945121016,4,1,0,45,1,0
39117,365.864812951614,4,1,0,45,1,0
39483,363.647383254038,4,1,0,50,1,0
39847,361.456670381638,4,1,0,50,1,0
40208,359.292194377077,4,1,0,50,1,0
40567,357.153486710914,4,1,0,50,1,0
40924,355.040089943489,4,1,0,50,1,0
41279,352.951557398747,4,1,0,50,1,0
41632,350.887452849499,4,1,0,50,1,0
41983,348.847350213669,4,1,0,50,1,0
42332,346.830833261077,4,1,0,50,1,0
42679,344.837495330326,4,1,0,50,1,0
43024,342.866939055402,4,1,0,50,1,0
43367,340.918776101594,4,1,0,50,1,0
43708,338.992626910365,4,1,0,50,1,0
44047,337.088120452822,4,1,0,50,1,0
44384,335.204893991452,4,1,0,50,1,0
44719,333.342592849801,4,1,0,50,1,0
45052,331.500870189784,4,1,0,50,1,0
45384,329.679386796341,4,1,0,50,1,0
45714,327.877810869149,4,1,0,50,1,0
46042,326.095817821136,4,1,0,50,1,0
46368,324.333090083516,4,1,0,50,1,0
46692,322.589316917121,4,1,0,50,1,0
47015,320.864194229792,4,1,0,50,1,0
47336,319.157424399585,4,1,0,50,1,0
47655,317.468716103601,4,1,0,50,1,0
47972,315.797784152215,4,1,0,50,1,0
48288,314.144349328516,4,1,0,50,1,0
48602,312.508138232766,4,1,0,50,1,0
48915,310.888883131687,4,1,0,50,1,0
49226,309.286321812418,4,1,0,50,1,0
49535,307.70019744096,4,1,0,50,1,0
49843,306.13025842496,4,1,0,50,1,0
50149,304.576258280667,4,1,0,55,1,1
50454,303.037955503927,4,1,0,55,1,1
50757,301.515113445061,4,1,0,55,1,1
51059,300.007500187505,4,1,0,55,1,1
51359,298.51488843006,4,1,0,55,1,1
51658,297.037055372658,4,1,0,55,1,1
51955,295.573782605483,4,1,0,55,1,1
52251,294.124856001373,4,1,0,55,1,1
52545,292.690065611356,4,1,0,55,1,1
52838,291.269205563242,4,1,0,55,1,1
53129,289.862073963139,4,1,0,55,1,1
53419,288.468472799827,4,1,0,55,1,1
53707,287.088207851862,4,1,0,55,1,1
53994,285.721088597348,4,1,0,55,1,1
54280,284.366928126259,4,1,0,55,1,1
54564,283.025543055261,4,1,0,55,1,1
54847,281.696753444917,4,1,0,55,1,1
55129,280.380382719222,4,1,0,55,1,1
55409,279.076257587386,4,1,0,55,1,1
55688,277.784207967777,4,1,0,55,1,1
55966,276.504066913984,4,1,0,55,1,1
56243,275.235670542902,4,1,0,55,1,1
56518,273.978857964794,4,1,0,55,1,1
56792,272.733471215255,4,1,0,55,1,1
57065,271.499355189031,4,1,0,55,1,1
57336,270.276357575621,4,1,0,55,1,1
57606,269.06432879661,4,1,0,55,1,1
57875,267.863121944686,4,1,0,55,1,1
58143,266.672592724283,4,1,0,55,1,1
58410,265.492599393792,4,1,0,55,1,1
58675,264.323002709311,4,1,0,55,1,1
58939,263.163665869866,4,1,0,55,1,1
59202,262.014454464071,4,1,0,60,1,1
59202,-200,4,1,0,60,0,1
59464,260.875236418183,4,1,0,60,1,0
59725,259.745881945497,4,1,0,60,1,0
59985,258.626263497058,4,1,0,60,1,0
60244,257.516255713642,4,1,0,60,1,0
60502,256.415735378961,4,1,0,60,1,0
60758,255.324581374072,4,1,0,60,1,0
61013,254.242674632937,4,1,0,60,1,0
61267,253.169898099116,4,1,0,60,1,0
61267,-200,4,1,0,60,0,0
61520,252.106136683544,4,1,0,60,1,0
61772,251.051277223373,4,1,0,60,1,0
62023,250.005208441843,4,1,0,60,1,0
62273,248.967820909147,4,1,0,60,1,0
62522,247.939007004277,4,1,0,60,1,0
62770,246.918660877796,4,1,0,60,1,0
63017,245.906678415541,4,1,0,60,1,0
63262,244.902957203208,4,1,0,60,1,0
63262,-200,4,1,0,60,0,0
63508,243.907396491799,4,1,0,60,1,0
63752,242.91989716391,4,1,0,60,1,0
63995,241.940361700841,4,1,0,60,1,0
64237,240.968694150485,4,1,0,60,1,0
64478,240.004800096002,4,1,0,60,1,0
64718,239.048586625232,4,1,0,60,1,0
64957,238.099962300839,4,1,0,60,1,0
65195,237.158837131169,4,1,0,60,1,0
65195,-200,4,1,0,60,0,0
65432,236.225122541782,4,1,0,60,1,0
65668,235.298731347673,4,1,0,60,1,0
65903,234.379577726127,4,1,0,60,1,0
66137,233.467577190218,4,1,0,60,1,0
66370,232.562646562918,4,1,0,60,1,0
66603,231.664703951814,4,1,0,60,1,0
66835,230.773668724399,4,1,0,60,1,0
67066,229.889461483936,4,1,0,60,1,0
67066,-200,4,1,0,60,0,0
67296,229.012004045879,4,1,0,60,1,0
67525,228.141219414818,4,1,0,60,1,0
67753,227.277031761965,4,1,0,60,1,0
67980,226.41936640314,4,1,0,60,1,0
68206,225.568149777251,4,1,0,60,1,0
68432,224.72330942527,4,1,0,60,1,0
68657,223.884773969664,4,1,0,60,1,0
68881,223.052473094295,4,1,0,60,1,0
68881,-200,4,1,0,60,0,0
69104,222.226337524769,4,1,0,60,1,0
69326,221.406299009207,4,1,0,60,1,0
69547,220.592290299454,4,1,0,60,1,0
69768,219.784245132695,4,1,0,60,1,0
69988,218.982098213471,4,1,0,60,1,0
70207,218.185785196094,4,1,0,60,1,0
70425,217.39524266744,4,1,0,60,1,0
70642,216.610408130111,4,1,0,60,1,0
70642,-200,4,1,0,60,0,0
70859,215.831219985971,4,1,0,60,1,0
71075,215.057617520027,4,1,0,60,1,0
71290,214.289540884659,4,1,0,60,1,0
71504,213.526931084183,4,1,0,60,1,0
71718,212.769729959751,4,1,0,60,1,0
71931,212.017880174561,4,1,0,60,1,0
72143,211.271325199387,4,1,0,60,1,0
72354,210.530009298409,4,1,0,60,1,0
72354,-200,4,1,0,60,0,0
72565,209.793877515341,4,1,0,60,1,0
72775,209.062875659855,4,1,0,60,1,0
72984,208.336950294276,4,1,0,60,1,0
73192,207.616048720566,4,1,0,60,1,0
73400,206.900118967568,4,1,0,60,1,0
73607,206.189109778519,4,1,0,60,1,0
73813,205.482970598812,4,1,0,60,1,0
74018,204.78165156402,4,1,0,65,1,0
74223,204.085103488155,4,1,1,65,1,0
74427,203.393277852167,4,1,1,65,1,0
74630,202.706126792682,4,1,1,65,1,0
74833,202.023603090961,4,1,1,65,1,0
75035,201.345660162083,4,1,1,65,1,0
75236,200.672252044349,4,1,1,65,1,0
75437,200.00333338889,4,1,1,65,1,0
75637,199.338859449493,4,1,1,65,1,0
75836,198.678786072617,4,1,1,65,1,0
76035,198.023069687619,4,1,1,65,1,0
76233,197.371667297159,4,1,1,65,1,0
76430,196.724536467811,4,1,1,65,1,0
76627,196.081635320839,4,1,1,65,1,0
76823,195.442922523168,4,1,1,65,1,0
77018,194.808357278527,4,1,1,65,1,0
77213,194.177899318759,4,1,1,65,1,0
77407,193.551508895305,4,1,1,65,1,0
77601,192.929146770848,4,1,1,65,1,0
77794,192.310774211125,4,1,1,65,1,0
77986,191.696352976885,4,1,1,65,1,0
78178,191.085845316008,4,1,1,65,1,0
78369,190.479213955777,4,1,1,65,1,0
78559,189.876422095286,4,1,1,65,1,0
78749,189.277433398003,4,1,1,65,1,0
78938,188.682211984465,4,1,1,65,1,0
79127,188.090722425116,4,1,1,65,1,0
79315,187.502929733277,4,1,1,65,1,0
79503,186.918799358245,4,1,1,65,1,0
79690,186.338297178528,4,1,1,65,1,0
79876,185.761389495193,4,1,1,65,1,0
80062,185.188043025355,4,1,1,65,1,0
80247,184.618224895768,4,1,1,65,1,0
80432,184.051902636544,4,1,1,65,1,0
80616,183.489044174987,4,1,1,65,1,0
80799,182.92961782954,4,1,1,65,1,0
80982,182.373592303834,4,1,1,65,1,0
81164,181.820936680859,4,1,1,65,1,0
81346,181.271620417227,4,1,1,65,1,0
81527,180.72561333755,4,1,1,65,1,0
81708,180.182885628913,4,1,1,65,1,0
81888,179.643407835447,4,1,1,65,1,0
82068,179.107150852998,4,1,1,65,1,0
82247,178.574085923898,4,1,1,65,1,0
82426,178.044184631819,4,1,1,65,1,0
82604,177.517418896729,4,1,1,65,1,0
82782,176.993760969926,4,1,1,65,1,0
82959,176.473183429168,4,1,1,65,1,0
83135,175.955659173888,4,1,1,65,1,0
83311,175.441161420489,4,1,1,65,1,0
83486,174.929663697722,4,1,1,65,1,0
83661,174.421139842149,4,1,1,65,1,0
83835,173.915563993681,4,1,1,65,1,0
84009,173.412910591194,4,1,1,65,1,0
84182,172.913154368219,4,1,1,65,1,0
84355,172.416270348712,4,1,1,65,1,0
84527,171.922233842892,4,1,1,65,1,0
84699,171.431020443149,4,1,1,65,1,0
84870,170.942606020029,4,1,1,65,1,0
85041,170.456966718277,4,1,1,65,1,0
85211,169.97407895296,4,1,1,65,1,0
85381,169.493919405641,4,1,1,65,1,0
85550,169.016465020634,4,1,1,65,1,0
85719,168.541693001306,4,1,1,65,1,0
85888,168.069580806454,4,1,1,70,1,1
86056,167.600106146734,4,1,1,70,1,1
86224,167.133246981156,4,1,1,70,1,1
86391,166.668981513632,4,1,1,70,1,1
86558,166.207288189587,4,1,1,70,1,1
86724,165.74814569262,4,1,1,70,1,1
86890,165.291532941225,4,1,1,70,1,1
87055,164.837429085564,4,1,1,70,1,1
87220,164.385813504295,4,1,1,70,1,1
87384,163.936665801445,4,1,1,70,1,1
87548,163.489965803349,4,1,1,70,1,1
87711,163.045693555619,4,1,1,70,1,1
87874,162.60382932018,4,1,1,70,1,1
88037,162.164353572346,4,1,1,70,1,1
88199,161.727246997938,4,1,1,70,1,1
88361,161.292490490464,4,1,1,70,1,1
88522,160.860065148326,4,1,1,70,1,1
88683,160.429952272089,4,1,1,70,1,1
88843,160.002133361778,4,1,1,70,1,1
89003,159.57659011423,4,1,1,70,1,1
89163,159.153304420483,4,1,1,70,1,1
89322,158.732258363206,4,1,1,70,1,1
89481,158.313434214172,4,1,1,70,1,1
89639,157.896814431769,4,1,1,70,1,1
89797,157.482381658552,4,1,1,70,1,1
89954,157.070118718831,4,1,1,70,1,1
90111,156.6600086163,4,1,1,70,1,1
90268,156.2520345317,4,1,1,70,1,1
90424,155.846179820517,4,1,1,70,1,1
90580,155.442428010726,4,1,1,70,1,1
90735,155.040762800553,4,1,1,70,1,1
90890,154.641168056289,4,1,1,70,1,1
91045,154.243627810126,4,1,1,70,1,1
91199,153.848126258029,4,1,1,70,1,1
91353,153.454647757644,4,1,1,70,1,1
91506,153.063176826235,4,1,1,70,1,1
91659,152.673698138653,4,1,1,70,1,1
91812,152.286196525337,4,1,1,70,1,1
91964,151.900656970341,4,1,1,70,1,1
92116,151.517064609402,4,1,1,70,1,1
92268,151.135404728019,4,1,1,70,1,1
92419,150.755662759582,4,1,1,70,1,1
92570,150.377824283512,4,1,1,70,1,1
92720,150.001875023438,4,1,1,70,1,1
92870,149.627800845397,4,1,1,70,1,1
93020,149.255587756067,4,1,1,70,1,1
93169,148.885221901016,4,1,1,70,1,1
93318,148.51668956299,4,1,1,70,1,1
93467,148.149977160212,4,1,1,70,1,1
93615,147.78507124472,4,1,1,70,1,1
93763,147.421958500719,4,1,1,70,1,1
93910,147.060625742963,4,1,1,70,1,1
94057,146.701059915158,4,1,1,70,1,1
94204,146.343248088391,4,1,1,70,1,1
94350,145.98717745958,4,1,1,70,1,1
94496,145.632835349944,4,1,1,70,1,1
94642,145.280209203501,4,1,1,70,1,1
94787,144.929286585587,4,1,1,70,1,1
94932,144.580055181388,4,1,1,70,1,1
95077,144.232502794505,4,1,1,70,1,1
95221,143.886617345532,4,1,1,70,1,1
95365,143.542386870656,4,1,1,70,1,1
95509,143.199799520281,4,1,1,70,1,1
95652,142.858843557661,4,1,1,70,1,1
95795,142.51950735757,4,1,1,75,1,1
95938,142.181779404969,4,1,1,75,1,1
96080,141.845648293715,4,1,1,75,1,1
96222,141.511102725268,4,1,1,75,1,1
96364,141.178131507429,4,1,1,75,1,1
96505,140.846723553093,4,1,1,75,1,1
96646,140.516867879015,4,1,1,75,1,1
96787,140.188553604598,4,1,1,75,1,1
96927,139.861769950699,4,1,1,75,1,1
97067,139.536506238445,4,1,1,75,1,1
97207,139.212751888073,4,1,1,75,1,1
97346,138.890496417783,4,1,1,75,1,1
97485,138.569729442603,4,1,1,75,1,1
97624,138.25044067328,4,1,1,75,1,1
97762,137.932619915171,4,1,1,75,1,1
97900,137.616257067168,4,1,1,75,1,1
98038,137.301342120619,4,1,1,75,1,1
98175,136.987865158278,4,1,1,75,1,1
98312,136.675816353261,4,1,1,75,1,1
98449,136.365185968022,4,1,1,75,1,1
98585,136.055964353337,4,1,1,75,1,1
98721,135.748141947307,4,1,1,75,1,1
98857,135.441709274371,4,1,1,75,1,1
98992,135.136656944335,4,1,1,75,1,1
99127,134.832975651412,4,1,1,75,1,1
99262,134.530656173275,4,1,1,75,1,1
99397,134.229689370127,4,1,1,75,1,1
99531,133.930066183774,4,1,1,75,1,1
99665,133.631777636722,4,1,1,75,1,1
99799,133.334814831276,4,1,1,75,1,1
99932,133.039168948658,4,1,1,75,1,1
100065,132.744831248133,4,1,1,75,1,1
100198,132.451793066149,4,1,1,75,1,1
100330,132.160045815483,4,1,1,75,1,1
100462,131.869580984406,4,1,1,75,1,1
100594,131.580390135857,4,1,1,75,1,1
100726,131.292464906618,4,1,1,75,1,1
100857,131.005797006518,4,1,1,75,1,1
100988,130.720378217628,4,1,1,75,1,1
101119,130.436200393483,4,1,1,75,1,1
101249,130.153255458302,4,1,1,75,1,1
101379,129.871535406227,4,1,1,75,1,1
101509,129.591032300565,4,1,1,75,1,1
101639,129.311738273042,4,1,1,75,1,1
101768,129.03364552307,4,1,1,75,1,1
101897,128.756746317021,4,1,1,75,1,1
102026,128.481032987505,4,1,1,75,1,1
102154,128.20649793267,4,1,1,75,1,1
102282,127.933133615497,4,1,1,75,1,1
102410,127.660932563112,4,1,1,75,1,1
102538,127.389887366108,4,1,1,75,1,1
102665,127.119990677867,4,1,1,75,1,1
102792,126.851235213903,4,1,1,75,1,1
102919,126.5836137512,4,1,1,75,1,1
103046,126.31711912757,4,1,1,75,1,1
103172,126.051744241011,4,1,1,75,1,1
103298,125.787482049078,4,1,1,75,1,1
103424,125.524325568259,4,1,1,75,1,1
103550,125.26226787336,4,1,1,75,1,1
103675,125.001302096897,4,1,1,75,1,1
103800,124.741421428497,4,1,1,75,1,1
103925,124.482619114306,4,1,1,75,1,1
104049,124.224888456402,4,1,1,75,1,1
104173,123.968222812219,4,1,1,75,1,1
104297,123.712615593975,4,1,1,80,1,1
104421,123.45806026811,4,1,1,80,1,1
104544,123.204550354726,4,1,1,80,1,1
104667,122.952079427043,4,1,1,80,1,1
104790,122.70064111085,4,1,1,80,1,1
104913,122.45022908397,4,1,1,80,1,1
105035,122.200837075734,4,1,1,80,1,1
105157,121.952458866452,4,1,1,80,1,1
105279,121.705088286899,4,1,1,80,1,1
105401,121.458719217806,4,1,1,80,1,1
105522,121.213345589349,4,1,1,80,1,1
105643,120.968961380659,4,1,1,80,1,1
105764,120.725560619322,4,1,1,80,1,1
105885,120.483137380897,4,1,1,80,1,1
106005,120.241685788435,4,1,1,80,1,1
106125,120.001200012,4,1,1,80,1,1
106245,119.761674268206,4,1,1,80,1,1
106365,119.523102819749,4,1,1,80,1,1
106485,119.28547997495,4,1,1,80,1,1
106604,119.048800087302,4,1,1,80,1,1
106723,118.813057555025,4,1,1,80,1,1
106842,118.578246820621,4,1,1,80,1,1
106961,118.344362370438,4,1,1,80,1,1
107079,118.11139873424,4,1,1,80,1,1
107197,117.879350484779,4,1,1,80,1,1
107315,117.648212237375,4,1,1,80,1,1
107433,117.417978649498,4,1,1,80,1,1
107550,117.188644420356,4,1,1,80,1,1
107667,116.96020429049,4,1,1,80,1,1
107784,116.732653041372,4,1,1,80,1,1
107901,116.505985495005,4,1,1,80,1,1
108018,116.280196513532,4,1,1,80,1,1
108134,116.055280998849,4,1,1,80,1,1
108250,115.831233892219,4,1,1,80,1,1
108366,115.608050173894,4,1,1,80,1,1
108482,115.385724862739,4,1,1,80,1,1
108597,115.164253015864,4,1,1,80,1,1
108712,114.943629728254,4,1,1,80,1,1
108827,114.72385013241,4,1,1,80,1,1
108942,114.50490939799,4,1,1,80,1,1
109057,114.286802731455,4,1,1,80,1,1
109171,114.069525375716,4,1,1,80,1,1
109285,113.853072609797,4,1,1,80,1,1
109399,113.637439748482,4,1,1,80,1,1
109513,113.422622141986,4,1,1,80,1,1
109626,113.208615175615,4,1,1,80,1,1
109739,112.995414269438,4,1,1,80,1,1
109852,112.783014877959,4,1,1,80,1,1
109965,112.571412489798,4,1,1,80,1,1
110078,112.360602627365,4,1,1,80,1,1
110190,112.15058084655,4,1,1,80,1,1
110302,111.941342736406,4,1,1,80,1,1
110414,111.732883918845,4,1,1,80,1,1
110526,111.525200048328,4,1,1,80,1,1
110638,111.318286811566,4,1,1,80,1,1
110749,111.112139927222,4,1,1,80,1,1
110860,110.906755145611,4,1,1,80,1,1
110971,110.702128248416,4,1,1,80,1,1
111082,110.498255048389,4,1,1,80,1,1
111192,110.295131389075,4,1,1,80,1,1
111302,110.092753144524,4,1,1,80,1,1
111412,109.891116219013,4,1,1,80,1,1
111522,109.690216546769,4,1,1,80,1,1
111632,109.490050091698,4,1,1,80,1,1
111741,109.290612847112,4,1,1,90,1,1
111850,109.091900835462,4,1,1,90,1,1
111959,108.893910108077,4,1,1,90,1,1
112068,108.696636744898,4,1,1,90,1,1
112177,108.500076854221,4,1,1,90,1,1
112286,108.304226572442,4,1,1,90,1,1
112394,108.109082063802,4,1,1,90,1,1
112502,107.91463952014,4,1,1,90,1,1
112610,107.720895160639,4,1,1,90,1,1
112718,107.527845231588,4,1,1,90,1,1
112826,107.335486006136,4,1,1,90,1,1
112933,107.143813784052,4,1,1,90,1,1
113040,106.952824891487,4,1,1,90,1,1
113147,106.762515680744,4,1,1,90,1,1
113254,106.57288253004,4,1,1,90,1,1
113361,106.383921843279,4,1,1,90,1,1
113467,106.195630049823,4,1,1,90,1,1
113573,106.008003604272,4,1,1,90,1,1
113679,105.821038986234,4,1,1,90,1,1
113785,105.634732700112,4,1,1,90,1,1
113891,105.449081274879,4,1,1,90,1,1
113996,105.264081263871,4,1,1,90,1,1
114101,105.079729244564,4,1,1,90,1,1
114206,104.896021818373,4,1,1,90,1,1
114311,104.712041884817,4,1,0,100,1,1
114337,-100,4,1,1,100,0,0

[Colours]
Combo1 : 0,255,0
Combo2 : 244,0,6
Combo3 : 129,69,252
Combo4 : 255,255,255

[HitObjects]
415,198,9915,1,0,0:0:0:0:
414,205,10113,1,0,0:0:0:0:
413,211,10311,1,0,0:0:0:0:
412,218,10509,1,0,0:0:0:0:
411,225,10705,1,0,0:0:0:0:
410,231,10901,1,0,0:0:0:0:
408,238,11097,1,0,0:0:0:0:
406,244,11291,1,0,0:0:0:0:
403,250,11485,1,0,0:0:0:0:
401,256,11680,1,0,0:0:0:0:
398,262,11872,1,0,0:0:0:0:
395,268,12064,1,0,0:0:0:0:
392,274,12257,1,0,0:0:0:0:
388,280,12447,1,0,0:0:0:0:
384,285,12637,1,0,0:0:0:0:
380,290,12828,1,0,0:0:0:0:
376,296,13016,1,0,0:0:0:0:
372,300,13205,1,0,0:0:0:0:
367,305,13394,1,0,0:0:0:0:
362,310,13580,1,0,0:0:0:0:
357,314,13767,1,0,0:0:0:0:
352,318,13955,1,0,0:0:0:0:
346,322,14140,1,0,0:0:0:0:
341,326,14325,1,0,0:0:0:0:
335,329,14511,1,0,0:0:0:0:
329,333,14694,1,0,0:0:0:0:
323,336,14877,1,0,0:0:0:0:
317,338,15061,1,0,0:0:0:0:
311,341,15242,1,0,0:0:0:0:
305,343,15424,1,0,0:0:0:0:
298,345,15606,1,0,0:0:0:0:
292,346,15786,1,0,0:0:0:0:
285,348,15966,1,0,0:0:0:0:
279,349,16147,1,0,0:0:0:0:
272,350,16325,1,0,0:0:0:0:
265,350,16504,1,0,0:0:0:0:
259,351,16683,1,0,0:0:0:0:
252,351,16859,1,0,0:0:0:0:
246,350,17036,1,0,0:0:0:0:
239,350,17214,1,0,0:0:0:0:
232,349,17389,1,0,0:0:0:0:
226,348,17564,1,0,0:0:0:0:
219,346,17740,1,0,0:0:0:0:
213,345,17913,1,0,0:0:0:0:
206,343,18087,1,0,0:0:0:0:
200,341,18262,1,0,0:0:0:0:
194,338,18434,1,0,0:0:0:0:
188,336,18606,1,0,0:0:0:0:
182,333,18779,1,0,0:0:0:0:
176,329,18949,1,0,0:0:0:0:
170,326,19120,1,0,0:0:0:0:
165,322,19292,1,0,0:0:0:0:
159,318,19461,1,0,0:0:0:0:
154,314,19630,1,0,0:0:0:0:
149,310,19800,1,0,0:0:0:0:
144,305,19968,1,0,0:0:0:0:
139,300,20136,1,0,0:0:0:0:
135,296,20304,1,0,0:0:0:0:
131,290,20470,1,0,0:0:0:0:
127,285,20637,1,0,0:0:0:0:
123,280,20804,1,0,0:0:0:0:
119,274,20969,1,0,0:0:0:0:
116,268,21134,1,0,0:0:0:0:
113,262,21300,1,0,0:0:0:0:
110,256,21463,1,0,0:0:0:0:
108,250,21627,1,0,0:0:0:0:
105,244,21792,1,0,0:0:0:0:
103,238,21954,1,0,0:0:0:0:
101,231,22117,1,0,0:0:0:0:
100,225,22280,1,0,0:0:0:0:
99,218,22441,1,0,0:0:0:0:
98,211,22602,1,0,0:0:0:0:
97,205,22764,1,0,0:0:0:0:
96,198,22924,1,0,0:0:0:0:
96,191,23084,1,0,0:0:0:0:
96,185,23244,1,0,0:0:0:0:
97,178,23402,1,0,0:0:0:0:
98,172,23561,1,0,0:0:0:0:
99,165,23720,1,0,0:0:0:0:
100,158,23877,1,0,0:0:0:0:
101,152,24034,1,0,0:0:0:0:
103,145,24192,1,0,0:0:0:0:
105,139,24348,1,0,0:0:0:0:
108,133,24504,1,0,0:0:0:0:
110,127,24661,1,0,0:0:0:0:
113,121,24816,1,0,0:0:0:0:
116,115,24971,1,0,0:0:0:0:
119,109,25126,1,0,0:0:0:0:
123,103,25279,1,0,0:0:0:0:
127,98,25433,1,0,0:0:0:0:
131,93,25588,1,0,0:0:0:0:
135,87,25740,1,0,0:0:0:0:
139,83,25893,1,0,0:0:0:0:
144,78,26046,1,0,0:0:0:0:
149,73,26197,1,0,0:0:0:0:
154,69,26349,1,0,0:0:0:0:
159,65,26501,1,0,0:0:0:0:
165,61,26651,1,0,0:0:0:0:
170,57,26801,1,0,0:0:0:0:
176,54,26952,1,0,0:0:0:0:
182,50,27101,1,0,0:0:0:0:
188,47,27250,1,0,0:0:0:0:
194,45,27400,1,0,0:0:0:0:
200,42,27548,1,0,0:0:0:0:
206,40,27696,1,0,0:0:0:0:
213,38,27844,1,0,0:0:0:0:
219,37,27991,1,0,0:0:0:0:
226,35,28138,1,0,0:0:0:0:
232,34,28285,1,0,0:0:0:0:
239,33,28430,1,0,0:0:0:0:
246,33,28576,1,0,0:0:0:0:
252,32,28723,1,0,0:0:0:0:
259,32,28867,1,0,0:0:0:0:
265,33,29012,1,0,0:0:0:0:
272,33,29158,1,0,0:0:0:0:
279,34,29301,1,0,0:0:0:0:
285,35,29445,1,0,0:0:0:0:
292,37,29590,1,0,0:0:0:0:
298,38,29732,1,0,0:0:0:0:
305,40,29875,1,0,0:0:0:0:
311,42,30019,1,0,0:0:0:0:
317,45,30160,1,0,0:0:0:0:
323,47,30302,1,0,0:0:0:0:
329,50,30445,1,0,0:0:0:0:
335,54,30585,1,0,0:0:0:0:
341,57,30726,1,0,0:0:0:0:
346,61,30868,1,0,0:0:0:0:
352,65,31007,1,0,0:0:0:0:
357,69,31147,1,0,0:0:0:0:
362,73,31288,1,0,0:0:0:0:
367,78,31426,1,0,0:0:0:0:
372,83,31565,1,0,0:0:0:0:
376,87,31705,1,0,0:0:0:0:
380,93,31842,1,0,0:0:0:0:
384,98,31980,1,0,0:0:0:0:
388,103,32119,1,0,0:0:0:0:
392,109,32255,1,0,0:0:0:0:
395,115,32392,1,0,0:0:0:0:
398,121,32530,1,0,0:0:0:0:
401,127,32666,1,0,0:0:0:0:
403,133,32802,1,0,0:0:0:0:
406,139,32938,1,0,0:0:0:0:
408,145,33073,1,0,0:0:0:0:
410,152,33208,1,0,0:0:0:0:
411,158,33343,1,0,0:0:0:0:
412,165,33477,1,0,0:0:0:0:
413,172,33611,1,0,0:0:0:0:
414,178,33746,1,0,0:0:0:0:
415,185,33879,1,0,0:0:0:0:
415,192,34012,1,0,0:0:0:0:
413,198,34146,1,0,0:0:0:0:
413,205,34278,1,0,0:0:0:0:
412,211,34410,1,0,0:0:0:0:
411,218,34543,1,0,0:0:0:0:
410,224,34674,1,0,0:0:0:0:
409,231,34806,1,0,0:0:0:0:
407,237,34938,1,0,0:0:0:0:
405,243,35068,1,0,0:0:0:0:
403,250,35199,1,0,0:0:0:0:
400,256,35330,1,0,0:0:0:0:
397,262,35459,1,0,0:0:0:0:
394,268,35589,1,0,0:0:0:0:
391,273,35720,1,0,0:0:0:0:
387,279,35849,1,0,0:0:0:0:
383,284,35978,1,0,0:0:0:0:
379,290,36107,1,0,0:0:0:0:
375,295,36235,1,0,0:0:0:0:
371,300,36363,1,0,0:0:0:0:
366,304,36492,1,0,0:0:0:0:
361,309,36619,1,0,0:0:0:0:
356,313,36746,1,0,0:0:0:0:
351,317,36874,1,0,0:0:0:0:
346,321,37000,1,0,0:0:0:0:
340,325,37127,1,0,0:0:0:0:
335,328,37254,1,0,0:0:0:0:
329,332,37379,1,0,0:0:0:0:
323,335,37505,1,0,0:0:0:0:
317,337,37631,1,0,0:0:0:0:
311,340,37756,1,0,0:0:0:0:
304,342,37881,1,0,0:0:0:0:
298,344,38006,1,0,0:0:0:0:
292,345,38130,1,0,0:0:0:0:
285,347,38254,1,0,0:0:0:0:
279,348,38379,1,0,0:0:0:0:
272,349,38502,1,0,0:0:0:0:
265,349,38625,1,0,0:0:0:0:
259,350,38749,1,0,0:0:0:0:
252,350,38871,1,0,0:0:0:0:
246,349,38994,1,0,0:0:0:0:
239,349,39117,1,0,0:0:0:0:
232,348,39238,1,0,0:0:0:0:
226,347,39360,1,0,0:0:0:0:
219,345,39483,1,0,0:0:0:0:
213,344,39604,1,0,0:0:0:0:
207,342,39725,1,0,0:0:0:0:
200,340,39847,1,0,0:0:0:0:
194,337,39967,1,0,0:0:0:0:
188,335,40087,1,0,0:0:0:0:
182,332,40208,1,0,0:0:0:0:
176,328,40327,1,0,0:0:0:0:
171,325,40447,1,0,0:0:0:0:
165,321,40567,1,0,0:0:0:0:
160,317,40686,1,0,0:0:0:0:
155,313,40805,1,0,0:0:0:0:
150,309,40924,1,0,0:0:0:0:
145,304,41042,1,0,0:0:0:0:
140,300,41160,1,0,0:0:0:0:
136,295,41279,1,0,0:0:0:0:
132,290,41396,1,0,0:0:0:0:
128,284,41514,1,0,0:0:0:0:
124,279,41632,1,0,0:0:0:0:
120,273,41748,1,0,0:0:0:0:
117,268,41865,1,0,0:0:0:0:
114,262,41983,1,0,0:0:0:0:
111,256,42099,1,0,0:0:0:0:
108,250,42215,1,0,0:0:0:0:
106,243,42332,1,0,0:0:0:0:
104,237,42447,1,0,0:0:0:0:
102,231,42563,1,0,0:0:0:0:
101,224,42679,1,0,0:0:0:0:
100,218,42793,1,0,0:0:0:0:
99,211,42908,1,0,0:0:0:0:
98,205,43024,1,0,0:0:0:0:
98,198,43138,1,0,0:0:0:0:
97,191,43252,1,0,0:0:0:0:
98,185,43367,1,0,0:0:0:0:
98,178,43480,1,0,0:0:0:0:
99,172,43594,1,0,0:0:0:0:
100,165,43708,1,0,0:0:0:0:
101,159,43820,1,0,0:0:0:0:
102,152,43933,1,0,0:0:0:0:
104,146,44047,1,0,0:0:0:0:
106,140,44159,1,0,0:0:0:0:
108,133,44271,1,0,0:0:0:0:
111,127,44384,1,0,0:0:0:0:
114,121,44495,1,0,0:0:0:0:
117,115,44607,1,0,0:0:0:0:
120,110,44719,1,0,0:0:0:0:
124,104,44830,1,0,0:0:0:0:
128,99,44941,1,0,0:0:0:0:
132,93,45052,1,0,0:0:0:0:
136,88,45162,1,0,0:0:0:0:
140,83,45273,1,0,0:0:0:0:
145,79,45384,1,0,0:0:0:0:
150,74,45493,1,0,0:0:0:0:
155,70,45603,1,0,0:0:0:0:
160,66,45714,1,0,0:0:0:0:
165,62,45823,1,0,0:0:0:0:
171,58,45932,1,0,0:0:0:0:
176,55,46042,1,0,0:0:0:0:
182,51,46150,1,0,0:0:0:0:
188,48,46259,1,0,0:0:0:0:
194,46,46368,1,0,0:0:0:0:
200,43,46476,1,0,0:0:0:0:
207,41,46584,1,0,0:0:0:0:
213,39,46692,1,0,0:0:0:0:
219,38,46799,1,0,0:0:0:0:
226,36,46907,1,0,0:0:0:0:
232,35,47015,1,0,0:0:0:0:
239,34,47121,1,0,0:0:0:0:
246,34,47228,1,0,0:0:0:0:
252,33,47336,1,0,0:0:0:0:
259,33,47442,1,0,0:0:0:0:
265,34,47548,1,0,0:0:0:0:
272,34,47655,1,0,0:0:0:0:
279,35,47760,1,0,0:0:0:0:
285,36,47866,1,0,0:0:0:0:
292,38,47972,1,0,0:0:0:0:
298,39,48077,1,0,0:0:0:0:
304,41,48182,1,0,0:0:0:0:
311,43,48288,1,0,0:0:0:0:
317,46,48392,1,0,0:0:0:0:
323,48,48497,1,0,0:0:0:0:
329,51,48602,1,0,0:0:0:0:
335,55,48706,1,0,0:0:0:0:
340,58,48810,1,0,0:0:0:0:
346,62,48915,1,0,0:0:0:0:
351,66,49018,1,0,0:0:0:0:
356,70,49122,1,0,0:0:0:0:
361,74,49226,1,0,0:0:0:0:
366,79,49329,1,0,0:0:0:0:
371,83,49432,1,0,0:0:0:0:
375,88,49535,1,0,0:0:0:0:
379,93,49637,1,0,0:0:0:0:
383,99,49740,1,0,0:0:0:0:
387,104,49843,1,0,0:0:0:0:
391,110,49945,1,0,0:0:0:0:
394,115,50047,1,0,0:0:0:0:
397,121,50149,1,0,0:0:0:0:
400,127,50250,1,0,0:0:0:0:
403,133,50352,1,0,0:0:0:0:
405,140,50454,1,0,0:0:0:0:
407,146,50555,1,0,0:0:0:0:
409,152,50656,1,0,0:0:0:0:
410,159,50757,1,0,0:0:0:0:
411,165,50857,1,0,0:0:0:0:
412,172,50958,1,0,0:0:0:0:
413,178,51059,1,0,0:0:0:0:
413,185,51159,1,0,0:0:0:0:
414,192,51259,1,0,0:0:0:0:
415,198,51359,5,0,0:0:0:0:
414,205,51458,1,0,0:0:0:0:
413,211,51558,1,0,0:0:0:0:
412,218,51657,1,0,0:0:0:0:
411,225,51757,1,0,0:0:0:0:
410,231,51856,1,0,0:0:0:0:
408,238,51955,1,0,0:0:0:0:
406,244,52053,1,0,0:0:0:0:
403,250,52152,1,0,0:0:0:0:
401,256,52251,1,0,0:0:0:0:
398,262,52349,1,0,0:0:0:0:
395,268,52447,1,0,0:0:0:0:
392,274,52545,1,0,0:0:0:0:
388,280,52642,1,0,0:0:0:0:
384,285,52740,1,0,0:0:0:0:
380,290,52838,1,0,0:0:0:0:
376,296,52935,1,0,0:0:0:0:
372,300,53032,1,0,0:0:0:0:
367,305,53129,1,0,0:0:0:0:
362,310,53225,1,0,0:0:0:0:
357,314,53322,1,0,0:0:0:0:
352,318,53419,1,0,0:0:0:0:
346,322,53515,1,0,0:0:0:0:
341,326,53611,1,0,0:0:0:0:
335,329,53707,1,0,0:0:0:0:
329,333,53802,1,0,0:0:0:0:
323,336,53898,1,0,0:0:0:0:
317,338,53994,1,0,0:0:0:0:
311,341,54089,1,0,0:0:0:0:
305,343,54184,1,0,0:0:0:0:
298,345,54280,1,0,0:0:0:0:
292,346,54374,1,0,0:0:0:0:
285,348,54469,1,0,0:0:0:0:
279,349,54564,1,0,0:0:0:0:
272,350,54658,1,0,0:0:0:0:
265,350,54752,1,0,0:0:0:0:
259,351,54847,1,0,0:0:0:0:
252,351,54940,1,0,0:0:0:0:
246,350,55034,1,0,0:0:0:0:
239,350,55129,1,0,0:0:0:0:
232,349,55222,1,0,0:0:0:0:
226,348,55315,1,0,0:0:0:0:
219,346,55409,1,0,0:0:0:0:
213,345,55502,1,0,0:0:0:0:
206,343,55595,1,0,0:0:0:0:
200,341,55688,1,0,0:0:0:0:
194,338,55780,1,0,0:0:0:0:
188,336,55873,1,0,0:0:0:0:
182,333,55966,1,0,0:0:0:0:
176,329,56058,1,0,0:0:0:0:
170,326,56150,1,0,0:0:0:0:
165,322,56243,1,0,0:0:0:0:
159,318,56334,1,0,0:0:0:0:
154,314,56426,1,0,0:0:0:0:
149,310,56518,1,0,0:0:0:0:
144,305,56609,1,0,0:0:0:0:
139,300,56700,1,0,0:0:0:0:
135,296,56792,1,0,0:0:0:0:
131,290,56882,1,0,0:0:0:0:
127,285,56973,1,0,0:0:0:0:
123,280,57065,1,0,0:0:0:0:
119,274,57155,1,0,0:0:0:0:
116,268,57245,1,0,0:0:0:0:
113,262,57336,1,0,0:0:0:0:
110,256,57426,1,0,0:0:0:0:
108,250,57516,1,0,0:0:0:0:
105,244,57606,1,0,0:0:0:0:
103,238,57695,1,0,0:0:0:0:
101,231,57785,1,0,0:0:0:0:
100,225,57875,1,0,0:0:0:0:
99,218,57964,1,0,0:0:0:0:
98,211,58053,1,0,0:0:0:0:
97,205,58143,1,0,0:0:0:0:
96,198,58231,1,0,0:0:0:0:
96,191,58320,1,0,0:0:0:0:
96,185,58410,1,0,0:0:0:0:
97,178,58498,1,0,0:0:0:0:
98,172,58586,1,0,0:0:0:0:
99,165,58675,1,0,0:0:0:0:
100,158,58763,1,0,0:0:0:0:
101,152,58851,1,0,0:0:0:0:
103,145,58939,1,0,0:0:0:0:
105,139,59026,1,0,0:0:0:0:
108,133,59114,1,0,0:0:0:0:
110,127,59202,1,0,0:0:0:0:
113,121,59289,1,0,0:0:0:0:
116,115,59376,1,0,0:0:0:0:
119,109,59464,1,0,0:0:0:0:
123,103,59550,1,0,0:0:0:0:
127,98,59637,1,0,0:0:0:0:
131,93,59725,1,0,0:0:0:0:
135,87,59811,1,0,0:0:0:0:
139,83,59898,1,0,0:0:0:0:
144,78,59985,1,0,0:0:0:0:
149,73,60071,1,0,0:0:0:0:
154,69,60157,1,0,0:0:0:0:
159,65,60244,1,0,0:0:0:0:
165,61,60329,1,0,0:0:0:0:
170,57,60415,1,0,0:0:0:0:
176,54,60502,1,0,0:0:0:0:
182,50,60587,1,0,0:0:0:0:
188,47,60672,1,0,0:0:0:0:
194,45,60758,1,0,0:0:0:0:
200,42,60843,1,0,0:0:0:0:
206,40,60928,1,0,0:0:0:0:
213,38,61013,1,0,0:0:0:0:
219,37,61097,1,0,0:0:0:0:
226,35,61182,1,0,0:0:0:0:
232,34,61267,1,0,0:0:0:0:
239,33,61351,1,0,0:0:0:0:
246,33,61435,1,0,0:0:0:0:
252,32,61520,1,0,0:0:0:0:
259,32,61604,1,0,0:0:0:0:
265,33,61688,1,0,0:0:0:0:
272,33,61772,1,0,0:0:0:0:
279,34,61855,1,0,0:0:0:0:
285,35,61939,1,0,0:0:0:0:
292,37,62023,1,0,0:0:0:0:
298,38,62106,1,0,0:0:0:0:
305,40,62189,1,0,0:0:0:0:
311,42,62273,1,0,0:0:0:0:
317,45,62355,1,0,0:0:0:0:
323,47,62438,1,0,0:0:0:0:
329,50,62522,1,0,0:0:0:0:
335,54,62604,1,0,0:0:0:0:
341,57,62687,1,0,0:0:0:0:
346,61,62770,1,0,0:0:0:0:
352,65,62852,1,0,0:0:0:0:
357,69,62934,1,0,0:0:0:0:
362,73,63017,1,0,0:0:0:0:
367,78,63098,1,0,0:0:0:0:
372,83,63180,1,0,0:0:0:0:
376,87,63262,1,0,0:0:0:0:
380,93,63343,1,0,0:0:0:0:
384,98,63425,1,0,0:0:0:0:
388,103,63508,1,0,0:0:0:0:
392,109,63589,1,0,0:0:0:0:
395,115,63670,1,0,0:0:0:0:
398,121,63752,1,0,0:0:0:0:
401,127,63832,1,0,0:0:0:0:
403,133,63913,1,0,0:0:0:0:
406,139,63995,1,0,0:0:0:0:
408,145,64075,1,0,0:0:0:0:
410,152,64156,1,0,0:0:0:0:
411,158,64237,1,0,0:0:0:0:
412,165,64317,1,0,0:0:0:0:
413,172,64397,1,0,0:0:0:0:
414,178,64478,1,0,0:0:0:0:
415,185,64558,1,0,0:0:0:0:
415,192,64638,1,0,0:0:0:0:
415,198,64718,1,0,0:0:0:0:
414,205,64797,1,0,0:0:0:0:
413,211,64877,1,0,0:0:0:0:
412,218,64957,1,0,0:0:0:0:
411,225,65036,1,0,0:0:0:0:
410,231,65115,1,0,0:0:0:0:
408,238,65195,1,0,0:0:0:0:
406,244,65274,1,0,0:0:0:0:
403,250,65353,1,0,0:0:0:0:
401,256,65432,1,0,0:0:0:0:
398,262,65510,1,0,0:0:0:0:
395,268,65589,1,0,0:0:0:0:
392,274,65668,1,0,0:0:0:0:
388,280,65746,1,0,0:0:0:0:
384,285,65824,1,0,0:0:0:0:
380,290,65903,1,0,0:0:0:0:
376,296,65981,1,0,0:0:0:0:
372,300,66059,1,0,0:0:0:0:
367,305,66137,1,0,0:0:0:0:
362,310,66214,1,0,0:0:0:0:
357,314,66292,1,0,0:0:0:0:
352,318,66370,1,0,0:0:0:0:
346,322,66447,1,0,0:0:0:0:
341,326,66525,1,0,0:0:0:0:
335,329,66603,1,0,0:0:0:0:
329,333,66680,1,0,0:0:0:0:
323,336,66757,1,0,0:0:0:0:
317,338,66835,1,0,0:0:0:0:
311,341,66911,1,0,0:0:0:0:
305,343,66988,1,0,0:0:0:0:
298,345,67066,1,0,0:0:0:0:
292,346,67142,1,0,0:0:0:0:
285,348,67219,1,0,0:0:0:0:
279,349,67296,1,0,0:0:0:0:
272,350,67372,1,0,0:0:0:0:
265,350,67448,1,0,0:0:0:0:
259,351,67525,1,0,0:0:0:0:
252,351,67601,1,0,0:0:0:0:
246,350,67677,1,0,0:0:0:0:
239,350,67753,1,0,0:0:0:0:
232,349,67828,1,0,0:0:0:0:
226,348,67904,1,0,0:0:0:0:
219,346,67980,1,0,0:0:0:0:
213,345,68055,1,0,0:0:0:0:
206,343,68130,1,0,0:0:0:0:
200,341,68206,1,0,0:0:0:0:
194,338,68281,1,0,0:0:0:0:
188,336,68356,1,0,0:0:0:0:
182,333,68432,1,0,0:0:0:0:
176,329,68506,1,0,0:0:0:0:
170,326,68581,1,0,0:0:0:0:
165,322,68657,1,0,0:0:0:0:
159,318,68731,1,0,0:0:0:0:
154,314,68806,1,0,0:0:0:0:
149,310,68881,1,0,0:0:0:0:
144,305,68955,1,0,0:0:0:0:
139,300,69029,1,0,0:0:0:0:
135,296,69104,1,0,0:0:0:0:
131,290,69178,1,0,0:0:0:0:
127,285,69252,1,0,0:0:0:0:
123,280,69326,1,0,0:0:0:0:
119,274,69399,1,0,0:0:0:0:
116,268,69473,1,0,0:0:0:0:
113,262,69547,1,0,0:0:0:0:
110,256,69620,1,0,0:0:0:0:
108,250,69694,1,0,0:0:0:0:
105,244,69768,1,0,0:0:0:0:
103,238,69841,1,0,0:0:0:0:
101,231,69914,1,0,0:0:0:0:
100,225,69988,1,0,0:0:0:0:
99,218,70060,1,0,0:0:0:0:
98,211,70133,1,0,0:0:0:0:
97,205,70207,1,0,0:0:0:0:
96,198,70279,1,0,0:0:0:0:
96,191,70352,1,0,0:0:0:0:
96,185,70425,1,0,0:0:0:0:
97,178,70497,1,0,0:0:0:0:
98,172,70569,1,0,0:0:0:0:
99,165,70642,1,0,0:0:0:0:
100,158,70714,1,0,0:0:0:0:
101,152,70786,1,0,0:0:0:0:
103,145,70859,1,0,0:0:0:0:
105,139,70930,1,0,0:0:0:0:
108,133,71002,1,0,0:0:0:0:
110,127,71075,1,0,0:0:0:0:
113,121,71146,1,0,0:0:0:0:
116,115,71218,1,0,0:0:0:0:
119,109,71290,1,0,0:0:0:0:
123,103,71361,1,0,0:0:0:0:
127,98,71432,1,0,0:0:0:0:
131,93,71504,1,0,0:0:0:0:
135,87,71575,1,0,0:0:0:0:
139,83,71646,1,0,0:0:0:0:
144,78,71718,1,0,0:0:0:0:
149,73,71788,1,0,0:0:0:0:
154,69,71859,1,0,0:0:0:0:
159,65,71931,1,0,0:0:0:0:
165,61,72001,1,0,0:0:0:0:
170,57,72072,1,0,0:0:0:0:
176,54,72143,1,0,0:0:0:0:
182,50,72213,1,0,0:0:0:0:
188,47,72283,1,0,0:0:0:0:
194,45,72354,1,0,0:0:0:0:
200,42,72424,1,0,0:0:0:0:
206,40,72494,1,0,0:0:0:0:
213,38,72565,1,0,0:0:0:0:
219,37,72634,1,0,0:0:0:0:
226,35,72704,1,0,0:0:0:0:
232,34,72775,1,0,0:0:0:0:
239,33,72844,1,0,0:0:0:0:
246,33,72914,1,0,0:0:0:0:
252,32,72984,1,0,0:0:0:0:
259,32,73053,1,0,0:0:0:0:
265,33,73122,1,0,0:0:0:0:
272,33,73192,1,0,0:0:0:0:
279,34,73261,1,0,0:0:0:0:
285,35,73330,1,0,0:0:0:0:
292,37,73400,1,0,0:0:0:0:
298,38,73468,1,0,0:0:0:0:
305,40,73537,1,0,0:0:0:0:
311,42,73607,1,0,0:0:0:0:
317,45,73675,1,0,0:0:0:0:
323,47,73744,1,0,0:0:0:0:
329,50,73813,1,0,0:0:0:0:
335,54,73881,1,0,0:0:0:0:
341,57,73949,1,0,0:0:0:0:
346,61,74018,1,0,0:0:0:0:
352,65,74086,1,0,0:0:0:0:
357,69,74154,1,0,0:0:0:0:
362,73,74223,1,0,0:0:0:0:
367,78,74291,1,0,0:0:0:0:
372,83,74359,1,0,0:0:0:0:
376,87,74427,1,0,0:0:0:0:
380,93,74494,1,0,0:0:0:0:
384,98,74562,1,0,0:0:0:0:
388,103,74630,1,0,0:0:0:0:
392,109,74697,1,0,0:0:0:0:
395,115,74765,1,0,0:0:0:0:
398,121,74833,1,0,0:0:0:0:
401,127,74900,1,0,0:0:0:0:
403,133,74967,1,0,0:0:0:0:
406,139,75035,1,0,0:0:0:0:
408,145,75102,1,0,0:0:0:0:
410,152,75169,1,0,0:0:0:0:
411,158,75236,1,0,0:0:0:0:
412,165,75302,1,0,0:0:0:0:
413,172,75369,1,0,0:0:0:0:
414,178,75437,1,0,0:0:0:0:
415,185,75503,1,0,0:0:0:0:
415,192,75570,1,0,0:0:0:0:
415,198,75637,5,0,0:0:0:0:
414,205,75703,1,0,0:0:0:0:
413,211,75769,1,0,0:0:0:0:
412,218,75836,1,0,0:0:0:0:
411,225,75902,1,0,0:0:0:0:
410,231,75968,1,0,0:0:0:0:
408,238,76034,1,0,0:0:0:0:
406,244,76101,1,0,0:0:0:0:
403,250,76167,1,0,0:0:0:0:
401,256,76233,1,0,0:0:0:0:
398,262,76298,1,0,0:0:0:0:
395,268,76364,1,0,0:0:0:0:
392,274,76430,1,0,0:0:0:0:
388,280,76495,1,0,0:0:0:0:
384,285,76561,1,0,0:0:0:0:
380,290,76627,1,0,0:0:0:0:
376,296,76692,1,0,0:0:0:0:
372,300,76757,1,0,0:0:0:0:
367,305,76823,1,0,0:0:0:0:
362,310,76888,1,0,0:0:0:0:
357,314,76953,1,0,0:0:0:0:
352,318,77018,1,0,0:0:0:0:
346,322,77082,1,0,0:0:0:0:
341,326,77147,1,0,0:0:0:0:
335,329,77213,1,0,0:0:0:0:
329,333,77277,1,0,0:0:0:0:
323,336,77342,1,0,0:0:0:0:
317,338,77407,1,0,0:0:0:0:
311,341,77471,1,0,0:0:0:0:
305,343,77536,1,0,0:0:0:0:
298,345,77601,1,0,0:0:0:0:
292,346,77665,1,0,0:0:0:0:
285,348,77729,1,0,0:0:0:0:
279,349,77794,1,0,0:0:0:0:
272,350,77858,1,0,0:0:0:0:
265,350,77922,1,0,0:0:0:0:
259,351,77986,1,0,0:0:0:0:
252,351,78049,1,0,0:0:0:0:
246,350,78113,1,0,0:0:0:0:
239,350,78178,1,0,0:0:0:0:
232,349,78241,1,0,0:0:0:0:
226,348,78305,1,0,0:0:0:0:
219,346,78369,1,0,0:0:0:0:
213,345,78432,1,0,0:0:0:0:
206,343,78495,1,0,0:0:0:0:
200,341,78559,1,0,0:0:0:0:
194,338,78622,1,0,0:0:0:0:
188,336,78685,1,0,0:0:0:0:
182,333,78749,1,0,0:0:0:0:
176,329,78812,1,0,0:0:0:0:
170,326,78875,1,0,0:0:0:0:
165,322,78938,1,0,0:0:0:0:
159,318,79000,1,0,0:0:0:0:
154,314,79063,1,0,0:0:0:0:
149,310,79127,1,0,0:0:0:0:
144,305,79189,1,0,0:0:0:0:
139,300,79252,1,0,0:0:0:0:
135,296,79315,1,0,0:0:0:0:
131,290,79377,1,0,0:0:0:0:
127,285,79440,1,0,0:0:0:0:
123,280,79503,1,0,0:0:0:0:
119,274,79565,1,0,0:0:0:0:
116,268,79627,1,0,0:0:0:0:
113,262,79690,1,0,0:0:0:0:
110,256,79752,1,0,0:0:0:0:
108,250,79814,1,0,0:0:0:0:
105,244,79876,1,0,0:0:0:0:
103,238,79937,1,0,0:0:0:0:
101,231,79999,1,0,0:0:0:0:
100,225,80062,1,0,0:0:0:0:
99,218,80123,1,0,0:0:0:0:
98,211,80185,1,0,0:0:0:0:
97,205,80247,1,0,0:0:0:0:
96,198,80308,1,0,0:0:0:0:
96,191,80370,1,0,0:0:0:0:
96,185,80432,1,0,0:0:0:0:
97,178,80493,1,0,0:0:0:0:
98,172,80554,1,0,0:0:0:0:
99,165,80616,1,0,0:0:0:0:
100,158,80677,1,0,0:0:0:0:
101,152,80738,1,0,0:0:0:0:
103,145,80799,1,0,0:0:0:0:
105,139,80859,1,0,0:0:0:0:
108,133,80920,1,0,0:0:0:0:
110,127,80982,1,0,0:0:0:0:
113,121,81042,1,0,0:0:0:0:
116,115,81103,1,0,0:0:0:0:
119,109,81164,1,0,0:0:0:0:
123,103,81224,1,0,0:0:0:0:
127,98,81285,1,0,0:0:0:0:
131,93,81346,1,0,0:0:0:0:
135,87,81406,1,0,0:0:0:0:
139,83,81466,1,0,0:0:0:0:
144,78,81527,1,0,0:0:0:0:
149,73,81587,1,0,0:0:0:0:
154,69,81647,1,0,0:0:0:0:
159,65,81708,1,0,0:0:0:0:
165,61,81768,1,0,0:0:0:0:
170,57,81828,1,0,0:0:0:0:
176,54,81888,1,0,0:0:0:0:
182,50,81947,1,0,0:0:0:0:
188,47,82007,1,0,0:0:0:0:
194,45,82068,1,0,0:0:0:0:
200,42,82127,1,0,0:0:0:0:
206,40,82187,1,0,0:0:0:0:
213,38,82247,1,0,0:0:0:0:
219,37,82306,1,0,0:0:0:0:
226,35,82366,1,0,0:0:0:0:
232,34,82426,1,0,0:0:0:0:
239,33,82485,1,0,0:0:0:0:
246,33,82544,1,0,0:0:0:0:
252,32,82604,1,0,0:0:0:0:
259,32,82663,1,0,0:0:0:0:
265,33,82722,1,0,0:0:0:0:
272,33,82782,1,0,0:0:0:0:
279,34,82840,1,0,0:0:0:0:
285,35,82899,1,0,0:0:0:0:
292,37,82959,1,0,0:0:0:0:
298,38,83017,1,0,0:0:0:0:
305,40,83076,1,0,0:0:0:0:
311,42,83135,1,0,0:0:0:0:
317,45,83193,1,0,0:0:0:0:
323,47,83252,1,0,0:0:0:0:
329,50,83311,1,0,0:0:0:0:
335,54,83369,1,0,0:0:0:0:
341,57,83427,1,0,0:0:0:0:
346,61,83486,1,0,0:0:0:0:
352,65,83544,1,0,0:0:0:0:
357,69,83602,1,0,0:0:0:0:
362,73,83661,1,0,0:0:0:0:
367,78,83719,1,0,0:0:0:0:
372,83,83777,1,0,0:0:0:0:
376,87,83835,1,0,0:0:0:0:
380,93,83892,1,0,0:0:0:0:
384,98,83950,1,0,0:0:0:0:
388,103,84009,1,0,0:0:0:0:
392,109,84066,1,0,0:0:0:0:
395,115,84124,1,0,0:0:0:0:
398,121,84182,1,0,0:0:0:0:
401,127,84239,1,0,0:0:0:0:
403,133,84297,1,0,0:0:0:0:
406,139,84355,1,0,0:0:0:0:
408,145,84412,1,0,0:0:0:0:
410,152,84469,1,0,0:0:0:0:
411,158,84527,1,0,0:0:0:0:
412,165,84584,1,0,0:0:0:0:
413,172,84641,1,0,0:0:0:0:
414,178,84699,1,0,0:0:0:0:
415,185,84756,1,0,0:0:0:0:
415,192,84813,1,0,0:0:0:0:
415,198,84870,1,0,0:0:0:0:
414,205,84926,1,0,0:0:0:0:
413,211,84983,1,0,0:0:0:0:
412,218,85040,1,0,0:0:0:0:
411,225,85097,1,0,0:0:0:0:
410,231,85154,1,0,0:0:0:0:
408,238,85211,1,0,0:0:0:0:
406,244,85267,1,0,0:0:0:0:
403,250,85324,1,0,0:0:0:0:
401,256,85380,1,0,0:0:0:0:
398,262,85437,1,0,0:0:0:0:
395,268,85493,1,0,0:0:0:0:
392,274,85550,1,0,0:0:0:0:
388,280,85606,1,0,0:0:0:0:
384,285,85662,1,0,0:0:0:0:
380,290,85719,1,0,0:0:0:0:
376,296,85775,1,0,0:0:0:0:
372,300,85831,1,0,0:0:0:0:
367,305,85887,1,0,0:0:0:0:
362,310,85944,1,0,0:0:0:0:
357,314,86000,1,0,0:0:0:0:
352,318,86056,1,0,0:0:0:0:
346,322,86111,1,0,0:0:0:0:
341,326,86167,1,0,0:0:0:0:
335,329,86223,1,0,0:0:0:0:
329,333,86279,1,0,0:0:0:0:
323,336,86335,1,0,0:0:0:0:
317,338,86391,1,0,0:0:0:0:
311,341,86446,1,0,0:0:0:0:
305,343,86502,1,0,0:0:0:0:
298,345,86558,1,0,0:0:0:0:
292,346,86613,1,0,0:0:0:0:
285,348,86668,1,0,0:0:0:0:
279,349,86724,1,0,0:0:0:0:
272,350,86779,1,0,0:0:0:0:
265,350,86834,1,0,0:0:0:0:
259,351,86890,1,0,0:0:0:0:
252,351,86945,1,0,0:0:0:0:
246,350,87000,1,0,0:0:0:0:
239,350,87055,1,0,0:0:0:0:
232,349,87109,1,0,0:0:0:0:
226,348,87164,1,0,0:0:0:0:
219,346,87220,1,0,0:0:0:0:
213,345,87274,1,0,0:0:0:0:
206,343,87329,1,0,0:0:0:0:
200,341,87384,1,0,0:0:0:0:
194,338,87438,1,0,0:0:0:0:
188,336,87493,1,0,0:0:0:0:
182,333,87548,1,0,0:0:0:0:
176,329,87602,1,0,0:0:0:0:
170,326,87656,1,0,0:0:0:0:
165,322,87711,1,0,0:0:0:0:
159,318,87765,1,0,0:0:0:0:
154,314,87819,1,0,0:0:0:0:
149,310,87874,1,0,0:0:0:0:
144,305,87928,1,0,0:0:0:0:
139,300,87982,1,0,0:0:0:0:
135,296,88037,1,0,0:0:0:0:
131,290,88091,1,0,0:0:0:0:
127,285,88145,1,0,0:0:0:0:
123,280,88199,1,0,0:0:0:0:
119,274,88252,1,0,0:0:0:0:
116,268,88306,1,0,0:0:0:0:
113,262,88361,1,0,0:0:0:0:
110,256,88414,1,0,0:0:0:0:
108,250,88468,1,0,0:0:0:0:
105,244,88522,1,0,0:0:0:0:
103,238,88575,1,0,0:0:0:0:
101,231,88629,1,0,0:0:0:0:
100,225,88683,1,0,0:0:0:0:
99,218,88736,1,0,0:0:0:0:
98,211,88789,1,0,0:0:0:0:
97,205,88843,1,0,0:0:0:0:
96,198,88896,1,0,0:0:0:0:
96,191,88949,1,0,0:0:0:0:
96,185,89003,1,0,0:0:0:0:
97,178,89056,1,0,0:0:0:0:
98,172,89109,1,0,0:0:0:0:
99,165,89163,1,0,0:0:0:0:
100,158,89216,1,0,0:0:0:0:
101,152,89269,1,0,0:0:0:0:
103,145,89322,1,0,0:0:0:0:
105,139,89374,1,0,0:0:0:0:
108,133,89427,1,0,0:0:0:0:
110,127,89481,1,0,0:0:0:0:
113,121,89533,1,0,0:0:0:0:
116,115,89586,1,0,0:0:0:0:
119,109,89639,1,0,0:0:0:0:
123,103,89691,1,0,0:0:0:0:
127,98,89744,1,0,0:0:0:0:
131,93,89797,1,0,0:0:0:0:
135,87,89849,1,0,0:0:0:0:
139,83,89901,1,0,0:0:0:0:
144,78,89954,1,0,0:0:0:0:
149,73,90006,1,0,0:0:0:0:
154,69,90058,1,0,0:0:0:0:
159,65,90111,1,0,0:0:0:0:
165,61,90163,1,0,0:0:0:0:
170,57,90215,1,0,0:0:0:0:
176,54,90268,1,0,0:0:0:0:
182,50,90320,1,0,0:0:0:0:
188,47,90372,1,0,0:0:0:0:
194,45,90424,1,0,0:0:0:0:
200,42,90475,1,0,0:0:0:0:
206,40,90527,1,0,0:0:0:0:
213,38,90580,1,0,0:0:0:0:
219,37,90631,1,0,0:0:0:0:
226,35,90683,1,0,0:0:0:0:
232,34,90735,1,0,0:0:0:0:
239,33,90786,1,0,0:0:0:0:
246,33,90838,1,0,0:0:0:0:
252,32,90890,1,0,0:0:0:0:
259,32,90941,1,0,0:0:0:0:
265,33,90993,1,0,0:0:0:0:
272,33,91045,1,0,0:0:0:0:
279,34,91096,1,0,0:0:0:0:
285,35,91147,1,0,0:0:0:0:
292,37,91199,1,0,0:0:0:0:
298,38,91250,1,0,0:0:0:0:
305,40,91301,1,0,0:0:0:0:
311,42,91353,1,0,0:0:0:0:
317,45,91404,1,0,0:0:0:0:
323,47,91455,1,0,0:0:0:0:
329,50,91506,1,0,0:0:0:0:
335,54,91557,1,0,0:0:0:0:
341,57,91608,1,0,0:0:0:0:
346,61,91659,1,0,0:0:0:0:
352,65,91709,1,0,0:0:0:0:
357,69,91760,1,0,0:0:0:0:
362,73,91812,1,0,0:0:0:0:
367,78,91862,1,0,0:0:0:0:
372,83,91913,1,0,0:0:0:0:
376,87,91964,1,0,0:0:0:0:
380,93,92014,1,0,0:0:0:0:
384,98,92065,1,0,0:0:0:0:
388,103,92116,1,0,0:0:0:0:
392,109,92166,1,0,0:0:0:0:
395,115,92217,1,0,0:0:0:0:
398,121,92268,1,0,0:0:0:0:
401,127,92318,1,0,0:0:0:0:
403,133,92368,1,0,0:0:0:0:
406,139,92419,1,0,0:0:0:0:
408,145,92469,1,0,0:0:0:0:
410,152,92519,1,0,0:0:0:0:
411,158,92570,1,0,0:0:0:0:
412,165,92620,1,0,0:0:0:0:
413,172,92670,1,0,0:0:0:0:
414,178,92720,1,0,0:0:0:0:
415,185,92770,1,0,0:0:0:0:
415,192,92820,1,0,0:0:0:0:
415,198,92870,5,0,0:0:0:0:
414,205,92919,1,0,0:0:0:0:
413,211,92969,1,0,0:0:0:0:
412,218,93019,1,0,0:0:0:0:
411,225,93069,1,0,0:0:0:0:
410,231,93119,1,0,0:0:0:0:
408,238,93169,1,0,0:0:0:0:
406,244,93218,1,0,0:0:0:0:
403,250,93268,1,0,0:0:0:0:
401,256,93317,1,0,0:0:0:0:
398,262,93367,1,0,0:0:0:0:
395,268,93417,1,0,0:0:0:0:
392,274,93466,1,0,0:0:0:0:
388,280,93516,1,0,0:0:0:0:
384,285,93565,1,0,0:0:0:0:
380,290,93615,1,0,0:0:0:0:
376,296,93664,1,0,0:0:0:0:
372,300,93713,1,0,0:0:0:0:
367,305,93762,1,0,0:0:0:0:
362,310,93812,1,0,0:0:0:0:
357,314,93861,1,0,0:0:0:0:
352,318,93910,1,0,0:0:0:0:
346,322,93959,1,0,0:0:0:0:
341,326,94008,1,0,0:0:0:0:
335,329,94057,1,0,0:0:0:0:
329,333,94105,1,0,0:0:0:0:
323,336,94154,1,0,0:0:0:0:
317,338,94203,1,0,0:0:0:0:
311,341,94252,1,0,0:0:0:0:
305,343,94301,1,0,0:0:0:0:
298,345,94350,1,0,0:0:0:0:
292,346,94398,1,0,0:0:0:0:
285,348,94447,1,0,0:0:0:0:
279,349,94496,1,0,0:0:0:0:
272,350,94544,1,0,0:0:0:0:
265,350,94593,1,0,0:0:0:0:
259,351,94642,1,0,0:0:0:0:
252,351,94690,1,0,0:0:0:0:
246,350,94738,1,0,0:0:0:0:
239,350,94787,1,0,0:0:0:0:
232,349,94835,1,0,0:0:0:0:
226,348,94883,1,0,0:0:0:0:
219,346,94932,1,0,0:0:0:0:
213,345,94980,1,0,0:0:0:0:
206,343,95028,1,0,0:0:0:0:
200,341,95077,1,0,0:0:0:0:
194,338,95125,1,0,0:0:0:0:
188,336,95173,1,0,0:0:0:0:
182,333,95221,1,0,0:0:0:0:
176,329,95268,1,0,0:0:0:0:
170,326,95316,1,0,0:0:0:0:
165,322,95365,1,0,0:0:0:0:
159,318,95412,1,0,0:0:0:0:
154,314,95460,1,0,0:0:0:0:
149,310,95509,1,0,0:0:0:0:
144,305,95556,1,0,0:0:0:0:
139,300,95604,1,0,0:0:0:0:
135,296,95652,1,0,0:0:0:0:
131,290,95699,1,0,0:0:0:0:
127,285,95747,1,0,0:0:0:0:
123,280,95795,1,0,0:0:0:0:
119,274,95842,1,0,0:0:0:0:
116,268,95890,1,0,0:0:0:0:
113,262,95938,1,0,0:0:0:0:
110,256,95985,1,0,0:0:0:0:
108,250,96032,1,0,0:0:0:0:
105,244,96080,1,0,0:0:0:0:
103,238,96127,1,0,0:0:0:0:
101,231,96174,1,0,0:0:0:0:
100,225,96222,1,0,0:0:0:0:
99,218,96269,1,0,0:0:0:0:
98,211,96316,1,0,0:0:0:0:
97,205,96364,1,0,0:0:0:0:
96,198,96411,1,0,0:0:0:0:
96,191,96458,1,0,0:0:0:0:
96,185,96505,1,0,0:0:0:0:
97,178,96551,1,0,0:0:0:0:
98,172,96598,1,0,0:0:0:0:
99,165,96646,1,0,0:0:0:0:
100,158,96692,1,0,0:0:0:0:
101,152,96739,1,0,0:0:0:0:
103,145,96787,1,0,0:0:0:0:
105,139,96833,1,0,0:0:0:0:
108,133,96880,1,0,0:0:0:0:
110,127,96927,1,0,0:0:0:0:
113,121,96973,1,0,0:0:0:0:
116,115,97020,1,0,0:0:0:0:
119,109,97067,1,0,0:0:0:0:
123,103,97113,1,0,0:0:0:0:
127,98,97160,1,0,0:0:0:0:
131,93,97207,1,0,0:0:0:0:
135,87,97253,1,0,0:0:0:0:
139,83,97299,1,0,0:0:0:0:
144,78,97346,1,0,0:0:0:0:
149,73,97392,1,0,0:0:0:0:
154,69,97438,1,0,0:0:0:0:
159,65,97485,1,0,0:0:0:0:
165,61,97531,1,0,0:0:0:0:
170,57,97577,1,0,0:0:0:0:
176,54,97624,1,0,0:0:0:0:
182,50,97670,1,0,0:0:0:0:
188,47,97716,1,0,0:0:0:0:
194,45,97762,1,0,0:0:0:0:
200,42,97807,1,0,0:0:0:0:
206,40,97853,1,0,0:0:0:0:
213,38,97900,1,0,0:0:0:0:
219,37,97945,1,0,0:0:0:0:
226,35,97991,1,0,0:0:0:0:
232,34,98038,1,0,0:0:0:0:
239,33,98083,1,0,0:0:0:0:
246,33,98129,1,0,0:0:0:0:
252,32,98175,1,0,0:0:0:0:
259,32,98220,1,0,0:0:0:0:
265,33,98266,1,0,0:0:0:0:
272,33,98312,1,0,0:0:0:0:
279,34,98357,1,0,0:0:0:0:
285,35,98403,1,0,0:0:0:0:
292,37,98449,1,0,0:0:0:0:
298,38,98494,1,0,0:0:0:0:
305,40,98539,1,0,0:0:0:0:
311,42,98585,1,0,0:0:0:0:
317,45,98630,1,0,0:0:0:0:
323,47,98675,1,0,0:0:0:0:
329,50,98721,1,0,0:0:0:0:
335,54,98766,1,0,0:0:0:0:
341,57,98811,1,0,0:0:0:0:
346,61,98857,1,0,0:0:0:0:
352,65,98902,1,0,0:0:0:0:
357,69,98947,1,0,0:0:0:0:
362,73,98992,1,0,0:0:0:0:
367,78,99037,1,0,0:0:0:0:
372,83,99082,1,0,0:0:0:0:
376,87,99127,1,0,0:0:0:0:
380,93,99171,1,0,0:0:0:0:
384,98,99216,1,0,0:0:0:0:
388,103,99262,1,0,0:0:0:0:
392,109,99306,1,0,0:0:0:0:
395,115,99351,1,0,0:0:0:0:
398,121,99397,1,0,0:0:0:0:
401,127,99441,1,0,0:0:0:0:
403,133,99486,1,0,0:0:0:0:
406,139,99531,1,0,0:0:0:0:
408,145,99575,1,0,0:0:0:0:
410,152,99620,1,0,0:0:0:0:
411,158,99665,1,0,0:0:0:0:
412,165,99709,1,0,0:0:0:0:
413,172,99754,1,0,0:0:0:0:
414,178,99799,1,0,0:0:0:0:
415,185,99843,1,0,0:0:0:0:
415,192,99887,1,0,0:0:0:0:
415,198,99932,1,0,0:0:0:0:
414,205,99976,1,0,0:0:0:0:
413,211,100020,1,0,0:0:0:0:
412,218,100065,1,0,0:0:0:0:
411,225,100109,1,0,0:0:0:0:
410,231,100153,1,0,0:0:0:0:
408,238,100197,1,0,0:0:0:0:
406,244,100242,1,0,0:0:0:0:
403,250,100286,1,0,0:0:0:0:
401,256,100330,1,0,0:0:0:0:
398,262,100374,1,0,0:0:0:0:
395,268,100418,1,0,0:0:0:0:
392,274,100462,1,0,0:0:0:0:
388,280,100505,1,0,0:0:0:0:
384,285,100549,1,0,0:0:0:0:
380,290,100593,1,0,0:0:0:0:
376,296,100637,1,0,0:0:0:0:
372,300,100681,1,0,0:0:0:0:
367,305,100725,1,0,0:0:0:0:
362,310,100769,1,0,0:0:0:0:
357,314,100813,1,0,0:0:0:0:
352,318,100857,1,0,0:0:0:0:
346,322,100900,1,0,0:0:0:0:
341,326,100944,1,0,0:0:0:0:
335,329,100988,1,0,0:0:0:0:
329,333,101031,1,0,0:0:0:0:
323,336,101075,1,0,0:0:0:0:
317,338,101119,1,0,0:0:0:0:
311,341,101162,1,0,0:0:0:0:
305,343,101205,1,0,0:0:0:0:
298,345,101249,1,0,0:0:0:0:
292,346,101292,1,0,0:0:0:0:
285,348,101335,1,0,0:0:0:0:
279,349,101379,1,0,0:0:0:0:
272,350,101422,1,0,0:0:0:0:
265,350,101465,1,0,0:0:0:0:
259,351,101509,1,0,0:0:0:0:
252,351,101552,1,0,0:0:0:0:
246,350,101595,1,0,0:0:0:0:
239,350,101639,1,0,0:0:0:0:
232,349,101682,1,0,0:0:0:0:
226,348,101725,1,0,0:0:0:0:
219,346,101768,1,0,0:0:0:0:
213,345,101811,1,0,0:0:0:0:
206,343,101854,1,0,0:0:0:0:
200,341,101897,1,0,0:0:0:0:
194,338,101939,1,0,0:0:0:0:
188,336,101982,1,0,0:0:0:0:
182,333,102026,1,0,0:0:0:0:
176,329,102068,1,0,0:0:0:0:
170,326,102111,1,0,0:0:0:0:
165,322,102154,1,0,0:0:0:0:
159,318,102196,1,0,0:0:0:0:
154,314,102239,1,0,0:0:0:0:
149,310,102282,1,0,0:0:0:0:
144,305,102324,1,0,0:0:0:0:
139,300,102367,1,0,0:0:0:0:
135,296,102410,1,0,0:0:0:0:
131,290,102452,1,0,0:0:0:0:
127,285,102495,1,0,0:0:0:0:
123,280,102538,1,0,0:0:0:0:
119,274,102580,1,0,0:0:0:0:
116,268,102622,1,0,0:0:0:0:
113,262,102665,1,0,0:0:0:0:
110,256,102707,1,0,0:0:0:0:
108,250,102749,1,0,0:0:0:0:
105,244,102792,1,0,0:0:0:0:
103,238,102834,1,0,0:0:0:0:
101,231,102876,1,0,0:0:0:0:
100,225,102919,1,0,0:0:0:0:
99,218,102961,1,0,0:0:0:0:
98,211,103003,1,0,0:0:0:0:
97,205,103046,1,0,0:0:0:0:
96,198,103088,1,0,0:0:0:0:
96,191,103130,1,0,0:0:0:0:
96,185,103172,1,0,0:0:0:0:
97,178,103214,1,0,0:0:0:0:
98,172,103256,1,0,0:0:0:0:
99,165,103298,1,0,0:0:0:0:
100,158,103339,1,0,0:0:0:0:
101,152,103381,1,0,0:0:0:0:
103,145,103424,1,0,0:0:0:0:
105,139,103465,1,0,0:0:0:0:
108,133,103507,1,0,0:0:0:0:
110,127,103550,1,0,0:0:0:0:
113,121,103591,1,0,0:0:0:0:
116,115,103633,1,0,0:0:0:0:
119,109,103675,1,0,0:0:0:0:
123,103,103716,1,0,0:0:0:0:
127,98,103758,1,0,0:0:0:0:
131,93,103800,1,0,0:0:0:0:
135,87,103841,1,0,0:0:0:0:
139,83,103883,1,0,0:0:0:0:
144,78,103925,1,0,0:0:0:0:
149,73,103966,1,0,0:0:0:0:
154,69,104007,1,0,0:0:0:0:
159,65,104049,1,0,0:0:0:0:
165,61,104090,1,0,0:0:0:0:
170,57,104131,1,0,0:0:0:0:
176,54,104173,1,0,0:0:0:0:
182,50,104214,1,0,0:0:0:0:
188,47,104255,1,0,0:0:0:0:
194,45,104297,1,0,0:0:0:0:
200,42,104338,1,0,0:0:0:0:
206,40,104379,1,0,0:0:0:0:
213,38,104421,1,0,0:0:0:0:
219,37,104462,1,0,0:0:0:0:
226,35,104503,1,0,0:0:0:0:
232,34,104544,1,0,0:0:0:0:
239,33,104585,1,0,0:0:0:0:
246,33,104626,1,0,0:0:0:0:
252,32,104667,1,0,0:0:0:0:
259,32,104707,1,0,0:0:0:0:
265,33,104748,1,0,0:0:0:0:
272,33,104790,1,0,0:0:0:0:
279,34,104830,1,0,0:0:0:0:
285,35,104871,1,0,0:0:0:0:
292,37,104913,1,0,0:0:0:0:
298,38,104953,1,0,0:0:0:0:
305,40,104994,1,0,0:0:0:0:
311,42,105035,1,0,0:0:0:0:
317,45,105075,1,0,0:0:0:0:
323,47,105116,1,0,0:0:0:0:
329,50,105157,1,0,0:0:0:0:
335,54,105197,1,0,0:0:0:0:
341,57,105238,1,0,0:0:0:0:
346,61,105279,1,0,0:0:0:0:
352,65,105319,1,0,0:0:0:0:
357,69,105360,1,0,0:0:0:0:
362,73,105401,1,0,0:0:0:0:
367,78,105441,1,0,0:0:0:0:
372,83,105481,1,0,0:0:0:0:
376,87,105522,1,0,0:0:0:0:
380,93,105562,1,0,0:0:0:0:
384,98,105602,1,0,0:0:0:0:
388,103,105643,1,0,0:0:0:0:
392,109,105683,1,0,0:0:0:0:
395,115,105723,1,0,0:0:0:0:
398,121,105764,1,0,0:0:0:0:
401,127,105804,1,0,0:0:0:0:
403,133,105844,1,0,0:0:0:0:
406,139,105885,1,0,0:0:0:0:
408,145,105925,1,0,0:0:0:0:
410,152,105965,1,0,0:0:0:0:
411,158,106005,1,0,0:0:0:0:
412,165,106045,1,0,0:0:0:0:
413,172,106085,1,0,0:0:0:0:
414,178,106125,1,0,0:0:0:0:
415,185,106165,1,0,0:0:0:0:
415,192,106205,1,0,0:0:0:0:
415,198,106245,5,0,0:0:0:0:
414,205,106284,1,0,0:0:0:0:
413,211,106324,1,0,0:0:0:0:
412,218,106364,1,0,0:0:0:0:
411,225,106404,1,0,0:0:0:0:
410,231,106444,1,0,0:0:0:0:
408,238,106484,1,0,0:0:0:0:
406,244,106524,1,0,0:0:0:0:
403,250,106564,1,0,0:0:0:0:
401,256,106604,1,0,0:0:0:0:
398,262,106643,1,0,0:0:0:0:
395,268,106683,1,0,0:0:0:0:
392,274,106723,1,0,0:0:0:0:
388,280,106762,1,0,0:0:0:0:
384,285,106802,1,0,0:0:0:0:
380,290,106841,1,0,0:0:0:0:
376,296,106881,1,0,0:0:0:0:
372,300,106921,1,0,0:0:0:0:
367,305,106960,1,0,0:0:0:0:
362,310,107000,1,0,0:0:0:0:
357,314,107039,1,0,0:0:0:0:
352,318,107079,1,0,0:0:0:0:
346,322,107118,1,0,0:0:0:0:
341,326,107157,1,0,0:0:0:0:
335,329,107197,1,0,0:0:0:0:
329,333,107236,1,0,0:0:0:0:
323,336,107275,1,0,0:0:0:0:
317,338,107314,1,0,0:0:0:0:
311,341,107354,1,0,0:0:0:0:
305,343,107393,1,0,0:0:0:0:
298,345,107432,1,0,0:0:0:0:
292,346,107472,1,0,0:0:0:0:
285,348,107511,1,0,0:0:0:0:
279,349,107550,1,0,0:0:0:0:
272,350,107589,1,0,0:0:0:0:
265,350,107628,1,0,0:0:0:0:
259,351,107667,1,0,0:0:0:0:
252,351,107705,1,0,0:0:0:0:
246,350,107744,1,0,0:0:0:0:
239,350,107783,1,0,0:0:0:0:
232,349,107822,1,0,0:0:0:0:
226,348,107861,1,0,0:0:0:0:
219,346,107900,1,0,0:0:0:0:
213,345,107939,1,0,0:0:0:0:
206,343,107978,1,0,0:0:0:0:
200,341,108017,1,0,0:0:0:0:
194,338,108056,1,0,0:0:0:0:
188,336,108095,1,0,0:0:0:0:
182,333,108134,1,0,0:0:0:0:
176,329,108172,1,0,0:0:0:0:
170,326,108211,1,0,0:0:0:0:
165,322,108250,1,0,0:0:0:0:
159,318,108288,1,0,0:0:0:0:
154,314,108327,1,0,0:0:0:0:
149,310,108366,1,0,0:0:0:0:
144,305,108404,1,0,0:0:0:0:
139,300,108443,1,0,0:0:0:0:
135,296,108482,1,0,0:0:0:0:
131,290,108520,1,0,0:0:0:0:
127,285,108558,1,0,0:0:0:0:
123,280,108597,1,0,0:0:0:0:
119,274,108635,1,0,0:0:0:0:
116,268,108673,1,0,0:0:0:0:
113,262,108712,1,0,0:0:0:0:
110,256,108750,1,0,0:0:0:0:
108,250,108788,1,0,0:0:0:0:
105,244,108827,1,0,0:0:0:0:
103,238,108865,1,0,0:0:0:0:
101,231,108903,1,0,0:0:0:0:
100,225,108942,1,0,0:0:0:0:
99,218,108980,1,0,0:0:0:0:
98,211,109018,1,0,0:0:0:0:
97,205,109057,1,0,0:0:0:0:
96,198,109095,1,0,0:0:0:0:
96,191,109133,1,0,0:0:0:0:
96,185,109171,1,0,0:0:0:0:
97,178,109209,1,0,0:0:0:0:
98,172,109247,1,0,0:0:0:0:
99,165,109285,1,0,0:0:0:0:
100,158,109322,1,0,0:0:0:0:
101,152,109360,1,0,0:0:0:0:
103,145,109399,1,0,0:0:0:0:
105,139,109436,1,0,0:0:0:0:
108,133,109474,1,0,0:0:0:0:
110,127,109513,1,0,0:0:0:0:
113,121,109550,1,0,0:0:0:0:
116,115,109588,1,0,0:0:0:0:
119,109,109626,1,0,0:0:0:0:
123,103,109663,1,0,0:0:0:0:
127,98,109701,1,0,0:0:0:0:
131,93,109739,1,0,0:0:0:0:
135,87,109776,1,0,0:0:0:0:
139,83,109814,1,0,0:0:0:0:
144,78,109852,1,0,0:0:0:0:
149,73,109889,1,0,0:0:0:0:
154,69,109927,1,0,0:0:0:0:
159,65,109965,1,0,0:0:0:0:
165,61,110002,1,0,0:0:0:0:
170,57,110040,1,0,0:0:0:0:
176,54,110078,1,0,0:0:0:0:
182,50,110115,1,0,0:0:0:0:
188,47,110152,1,0,0:0:0:0:
194,45,110190,1,0,0:0:0:0:
200,42,110227,1,0,0:0:0:0:
206,40,110264,1,0,0:0:0:0:
213,38,110302,1,0,0:0:0:0:
219,37,110339,1,0,0:0:0:0:
226,35,110376,1,0,0:0:0:0:
232,34,110414,1,0,0:0:0:0:
239,33,110451,1,0,0:0:0:0:
246,33,110488,1,0,0:0:0:0:
252,32,110526,1,0,0:0:0:0:
259,32,110563,1,0,0:0:0:0:
265,33,110600,1,0,0:0:0:0:
272,33,110638,1,0,0:0:0:0:
279,34,110675,1,0,0:0:0:0:
285,35,110712,1,0,0:0:0:0:
292,37,110749,1,0,0:0:0:0:
298,38,110786,1,0,0:0:0:0:
305,40,110823,1,0,0:0:0:0:
311,42,110860,1,0,0:0:0:0:
317,45,110896,1,0,0:0:0:0:
323,47,110933,1,0,0:0:0:0:
329,50,110971,1,0,0:0:0:0:
335,54,111007,1,0,0:0:0:0:
341,57,111044,1,0,0:0:0:0:
346,61,111082,1,0,0:0:0:0:
352,65,111118,1,0,0:0:0:0:
357,69,111155,1,0,0:0:0:0:
362,73,111192,1,0,0:0:0:0:
367,78,111228,1,0,0:0:0:0:
372,83,111265,1,0,0:0:0:0:
376,87,111302,1,0,0:0:0:0:
380,93,111338,1,0,0:0:0:0:
384,98,111375,1,0,0:0:0:0:
388,103,111412,1,0,0:0:0:0:
392,109,111448,1,0,0:0:0:0:
395,115,111485,1,0,0:0:0:0:
398,121,111522,1,0,0:0:0:0:
401,127,111558,1,0,0:0:0:0:
403,133,111595,1,0,0:0:0:0:
406,139,111632,1,0,0:0:0:0:
408,145,111668,1,0,0:0:0:0:
410,152,111704,1,0,0:0:0:0:
411,158,111741,5,0,0:0:0:0:
412,165,111777,5,0,0:0:0:0:
413,172,111813,5,0,0:0:0:0:
414,178,111850,5,0,0:0:0:0:
415,185,111886,5,0,0:0:0:0:
415,192,111922,5,0,0:0:0:0:
415,198,111959,5,0,0:0:0:0:
414,205,111995,5,0,0:0:0:0:
413,211,112031,5,0,0:0:0:0:
412,218,112067,5,0,0:0:0:0:
411,225,112104,5,0,0:0:0:0:
410,231,112140,5,0,0:0:0:0:
408,238,112176,5,0,0:0:0:0:
406,244,112213,5,0,0:0:0:0:
403,250,112249,5,0,0:0:0:0:
401,256,112285,5,0,0:0:0:0:
398,262,112322,5,0,0:0:0:0:
395,268,112358,5,0,0:0:0:0:
392,274,112394,5,0,0:0:0:0:
388,280,112430,5,0,0:0:0:0:
384,285,112466,5,0,0:0:0:0:
380,290,112502,5,0,0:0:0:0:
376,296,112537,5,0,0:0:0:0:
372,300,112573,5,0,0:0:0:0:
367,305,112609,5,0,0:0:0:0:
362,310,112645,5,0,0:0:0:0:
357,314,112681,5,0,0:0:0:0:
352,318,112717,5,0,0:0:0:0:
346,322,112753,5,0,0:0:0:0:
341,326,112789,5,0,0:0:0:0:
335,329,112825,5,0,0:0:0:0:
329,333,112861,5,0,0:0:0:0:
323,336,112897,5,0,0:0:0:0:
317,338,112933,5,0,0:0:0:0:
311,341,112968,5,0,0:0:0:0:
305,343,113004,5,0,0:0:0:0:
298,345,113040,5,0,0:0:0:0:
292,346,113075,5,0,0:0:0:0:
285,348,113111,5,0,0:0:0:0:
279,349,113147,5,0,0:0:0:0:
272,350,113182,5,0,0:0:0:0:
265,350,113218,5,0,0:0:0:0:
259,351,113254,5,0,0:0:0:0:
252,351,113289,5,0,0:0:0:0:
246,350,113325,5,0,0:0:0:0:
239,350,113361,5,0,0:0:0:0:
232,349,113396,5,0,0:0:0:0:
226,348,113431,5,0,0:0:0:0:
219,346,113467,5,0,0:0:0:0:
213,345,113502,5,0,0:0:0:0:
206,343,113537,5,0,0:0:0:0:
200,341,113573,5,0,0:0:0:0:
194,338,113608,5,0,0:0:0:0:
188,336,113643,5,0,0:0:0:0:
182,333,113679,5,0,0:0:0:0:
176,329,113714,5,0,0:0:0:0:
170,326,113749,5,0,0:0:0:0:
165,322,113785,5,0,0:0:0:0:
159,318,113820,5,0,0:0:0:0:
154,314,113855,5,0,0:0:0:0:
149,310,113891,5,0,0:0:0:0:
144,305,113926,5,0,0:0:0:0:
139,300,113961,5,0,0:0:0:0:
135,296,113996,5,0,0:0:0:0:
131,290,114031,5,0,0:0:0:0:
127,285,114066,5,0,0:0:0:0:
123,280,114101,5,0,0:0:0:0:
119,274,114136,5,0,0:0:0:0:
116,268,114171,5,0,0:0:0:0:
113,262,114206,5,0,0:0:0:0:
110,256,114240,5,0,0:0:0:0:
108,250,114275,5,0,0:0:0:0:
105,244,114311,5,0,0:0:0:0:
