osu file format v14

[General]
AudioFilename: deltaMAX.mp3
AudioLeadIn: 1000
PreviewTime: 50149
Countdown: 1
SampleSet: None
StackLeniency: 0.2
Mode: 0
LetterboxInBreaks: 1
WidescreenStoryboard: 1

[Editor]
Bookmarks: 11850,28439,41420,52084,61137,75952,87824,97731,106231,113676,116246
DistanceSpacing: 1.44
BeatDivisor: 2
GridSize: 4
TimelineZoom: 2.5

[Metadata]
Title:deltaMAX
TitleUnicode:deltaMAX
Artist:DM Ashura
ArtistUnicode:DM Ashura
Creator:lsckjy
Version:deathstack 1/2
Source:DDR Forever
Tags:Dance Dance Revolution Universe 3 stepmania ignorethis lzy Doomsday tsuka Frank7654321
BeatmapID:824333
BeatmapSetID:367807

[Difficulty]
HPDrainRate:5
CircleSize:3
OverallDifficulty:0
ApproachRate:0
SliderMultiplier:2
SliderTickRate:0.5

[Events]
//Background and Video events
0,0,"deltaMAX-bg.png",0,0
//Break Periods
//Storyboard Layer 0 (Background)
//Storyboard Layer 1 (Fail)
//Storyboard Layer 2 (Pass)
//Storyboard Layer 3 (Foreground)
Sprite,Foreground,Centre,"nothing.png",320,240 F,0,125410,,0
//Storyboard Sound Samples

[TimingPoints]
315,600,4,1,0,80,1,0
8715,-100,4,1,0,17,0,0
9915,594.088816278034,4,1,0,40,1,1
10509,588.264130594637,4,1,0,40,1,0
11097,582.552551094713,4,1,0,40,1,0
11680,576.950814943026,4,1,0,40,1,0
12257,571.455783608743,4,1,0,40,1,0
12828,566.064437001745,4,1,0,40,1,0
13394,560.773867937754,4,1,0,40,1,0
13955,555.581276910968,4,1,0,40,1,0
14511,550.483967154457,4,1,0,40,1,0
15061,545.479339969999,4,1,0,40,1,0
15606,540.564890310374,4,1,0,40,1,0
16147,535.73820259833,4,1,0,40,1,0
16683,530.996946767556,4,1,0,40,1,0
17214,526.33887451204,4,1,0,40,1,0
17740,521.761815731119,4,1,0,40,1,0
18262,517.263675158412,4,1,0,40,1,0
18779,512.84242916364,4,1,0,40,1,0
19292,508.496122717064,4,1,0,40,1,0
19800,504.222866506996,4,1,0,40,1,0
20304,500.020834201425,4,1,0,40,1,0
20804,495.888259845448,4,1,0,40,1,0
21300,491.823435386696,4,1,0,40,1,0
21792,487.824708321476,4,1,0,40,1,0
22280,483.890479454817,4,1,0,40,1,0
22764,480.019200768031,4,1,0,40,1,0
23244,476.209373387833,4,1,0,40,1,0
23720,472.459545651404,4,1,0,40,1,0
24192,468.768311262159,4,1,0,40,1,0
24661,465.1343075313,4,1,0,40,1,0
25126,461.556213700527,4,1,0,40,1,0
25588,458.032749341578,4,1,0,40,1,0
26046,454.562672828516,4,1,0,40,1,0
26501,451.144779878943,4,1,0,45,1,0
26952,447.777902160528,4,1,0,45,1,0
27400,444.46090595948,4,1,0,45,1,0
27844,441.192690907754,4,1,0,45,1,0
28285,437.972188766013,4,1,0,45,1,0
28723,434.798362259502,4,1,0,45,1,0
29158,431.670203964171,4,1,0,45,1,0
29590,428.586735240544,4,1,0,45,1,0
30019,425.547005212951,4,1,0,45,1,0
30445,422.550089791894,4,1,0,45,1,0
30868,419.595090737438,4,1,0,45,1,0
31288,416.681134761624,4,1,0,45,1,0
31705,413.807372668023,4,1,0,45,1,0
32119,410.972978526662,4,1,0,45,1,0
32530,408.177148882615,4,1,0,45,1,0
32938,405.419101996689,4,1,0,45,1,0
33343,402.698077116682,4,1,0,45,1,0
33746,400.013333777793,4,1,0,45,1,0
34146,397.364151130832,4,1,0,45,1,0
34543,394.749827296951,4,1,0,45,1,0
34938,392.169678747671,4,1,0,45,1,0
35330,389.623039709081,4,1,0,45,1,0
35720,387.109261589084,4,1,0,45,1,0
36107,384.62771242668,4,1,0,45,1,0
36492,382.177776362305,4,1,0,45,1,0
36874,379.758853128264,4,1,0,45,1,0
37254,377.370357558414,4,1,0,45,1,0
37631,375.011719116222,4,1,0,45,1,0
38006,372.682381440417,4,1,0,45,1,0
38379,370.381801907466,4,1,0,45,1,0
38749,368.10945121016,4,1,0,45,1,0
39117,365.864812951614,4,1,0,45,1,0
39483,363.647383254038,4,1,0,50,1,0
39847,361.456670381638,4,1,0,50,1,0
40208,359.292194377077,4,1,0,50,1,0
40567,357.153486710914,4,1,0,50,1,0
40924,355.040089943489,4,1,0,50,1,0
41279,352.951557398747,4,1,0,50,1,0
41632,350.887452849499,4,1,0,50,1,0
41983,348.847350213669,4,1,0,50,1,0
42332,346.830833261077,4,1,0,50,1,0
42679,344.837495330326,4,1,0,50,1,0
43024,342.866939055402,4,1,0,50,1,0
43367,340.918776101594,4,1,0,50,1,0
43708,338.992626910365,4,1,0,50,1,0
44047,337.088120452822,4,1,0,50,1,0
44384,335.204893991452,4,1,0,50,1,0
44719,333.342592849801,4,1,0,50,1,0
45052,331.500870189784,4,1,0,50,1,0
45384,329.679386796341,4,1,0,50,1,0
45714,327.877810869149,4,1,0,50,1,0
46042,326.095817821136,4,1,0,50,1,0
46368,324.333090083516,4,1,0,50,1,0
46692,322.589316917121,4,1,0,50,1,0
47015,320.864194229792,4,1,0,50,1,0
47336,319.157424399585,4,1,0,50,1,0
47655,317.468716103601,4,1,0,50,1,0
47972,315.797784152215,4,1,0,50,1,0
48288,314.144349328516,4,1,0,50,1,0
48602,312.508138232766,4,1,0,50,1,0
48915,310.888883131687,4,1,0,50,1,0
49226,309.286321812418,4,1,0,50,1,0
49535,307.70019744096,4,1,0,50,1,0
49843,306.13025842496,4,1,0,50,1,0
50149,304.576258280667,4,1,0,55,1,1
50454,303.037955503927,4,1,0,55,1,1
50757,301.515113445061,4,1,0,55,1,1
51059,300.007500187505,4,1,0,55,1,1
51359,298.51488843006,4,1,0,55,1,1
51658,297.037055372658,4,1,0,55,1,1
51955,295.573782605483,4,1,0,55,1,1
52251,294.124856001373,4,1,0,55,1,1
52545,292.690065611356,4,1,0,55,1,1
52838,291.269205563242,4,1,0,55,1,1
53129,289.862073963139,4,1,0,55,1,1
53419,288.468472799827,4,1,0,55,1,1
53707,287.088207851862,4,1,0,55,1,1
53994,285.721088597348,4,1,0,55,1,1
54280,284.366928126259,4,1,0,55,1,1
54564,283.025543055261,4,1,0,55,1,1
54847,281.696753444917,4,1,0,55,1,1
55129,280.380382719222,4,1,0,55,1,1
55409,279.076257587386,4,1,0,55,1,1
55688,277.784207967777,4,1,0,55,1,1
55966,276.504066913984,4,1,0,55,1,1
56243,275.235670542902,4,1,0,55,1,1
56518,273.978857964794,4,1,0,55,1,1
56792,272.733471215255,4,1,0,55,1,1
57065,271.499355189031,4,1,0,55,1,1
57336,270.276357575621,4,1,0,55,1,1
57606,269.06432879661,4,1,0,55,1,1
57875,267.863121944686,4,1,0,55,1,1
58143,266.672592724283,4,1,0,55,1,1
58410,265.492599393792,4,1,0,55,1,1
58675,264.323002709311,4,1,0,55,1,1
58939,263.163665869866,4,1,0,55,1,1
59202,262.014454464071,4,1,0,60,1,1
59202,-200,4,1,0,60,0,1
59464,260.875236418183,4,1,0,60,1,0
59725,259.745881945497,4,1,0,60,1,0
59985,258.626263497058,4,1,0,60,1,0
60244,257.516255713642,4,1,0,60,1,0
60502,256.415735378961,4,1,0,60,1,0
60758,255.324581374072,4,1,0,60,1,0
61013,254.242674632937,4,1,0,60,1,0
61267,253.169898099116,4,1,0,60,1,0
61267,-200,4,1,0,60,0,0
61520,252.106136683544,4,1,0,60,1,0
61772,251.051277223373,4,1,0,60,1,0
62023,250.005208441843,4,1,0,60,1,0
62273,248.967820909147,4,1,0,60,1,0
62522,247.939007004277,4,1,0,60,1,0
62770,246.918660877796,4,1,0,60,1,0
63017,245.906678415541,4,1,0,60,1,0
63262,244.902957203208,4,1,0,60,1,0
63262,-200,4,1,0,60,0,0
63508,243.907396491799,4,1,0,60,1,0
63752,242.91989716391,4,1,0,60,1,0
63995,241.940361700841,4,1,0,60,1,0
64237,240.968694150485,4,1,0,60,1,0
64478,240.004800096002,4,1,0,60,1,0
64718,239.048586625232,4,1,0,60,1,0
64957,238.099962300839,4,1,0,60,1,0
65195,237.158837131169,4,1,0,60,1,0
65195,-200,4,1,0,60,0,0
65432,236.225122541782,4,1,0,60,1,0
65668,235.298731347673,4,1,0,60,1,0
65903,234.379577726127,4,1,0,60,1,0
66137,233.467577190218,4,1,0,60,1,0
66370,232.562646562918,4,1,0,60,1,0
66603,231.664703951814,4,1,0,60,1,0
66835,230.773668724399,4,1,0,60,1,0
67066,229.889461483936,4,1,0,60,1,0
67066,-200,4,1,0,60,0,0
67296,229.012004045879,4,1,0,60,1,0
67525,228.141219414818,4,1,0,60,1,0
67753,227.277031761965,4,1,0,60,1,0
67980,226.41936640314,4,1,0,60,1,0
68206,225.568149777251,4,1,0,60,1,0
68432,224.72330942527,4,1,0,60,1,0
68657,223.884773969664,4,1,0,60,1,0
68881,223.052473094295,4,1,0,60,1,0
68881,-200,4,1,0,60,0,0
69104,222.226337524769,4,1,0,60,1,0
69326,221.406299009207,4,1,0,60,1,0
69547,220.592290299454,4,1,0,60,1,0
69768,219.784245132695,4,1,0,60,1,0
69988,218.982098213471,4,1,0,60,1,0
70207,218.185785196094,4,1,0,60,1,0
70425,217.39524266744,4,1,0,60,1,0
70642,216.610408130111,4,1,0,60,1,0
70642,-200,4,1,0,60,0,0
70859,215.831219985971,4,1,0,60,1,0
71075,215.057617520027,4,1,0,60,1,0
71290,214.289540884659,4,1,0,60,1,0
71504,213.526931084183,4,1,0,60,1,0
71718,212.769729959751,4,1,0,60,1,0
71931,212.017880174561,4,1,0,60,1,0
72143,211.271325199387,4,1,0,60,1,0
72354,210.530009298409,4,1,0,60,1,0
72354,-200,4,1,0,60,0,0
72565,209.793877515341,4,1,0,60,1,0
72775,209.062875659855,4,1,0,60,1,0
72984,208.336950294276,4,1,0,60,1,0
73192,207.616048720566,4,1,0,60,1,0
73400,206.900118967568,4,1,0,60,1,0
73607,206.189109778519,4,1,0,60,1,0
73813,205.482970598812,4,1,0,60,1,0
74018,204.78165156402,4,1,0,65,1,0
74223,204.085103488155,4,1,1,65,1,0
74427,203.393277852167,4,1,1,65,1,0
74630,202.706126792682,4,1,1,65,1,0
74833,202.023603090961,4,1,1,65,1,0
75035,201.345660162083,4,1,1,65,1,0
75236,200.672252044349,4,1,1,65,1,0
75437,200.00333338889,4,1,1,65,1,0
75637,199.338859449493,4,1,1,65,1,0
75836,198.678786072617,4,1,1,65,1,0
76035,198.023069687619,4,1,1,65,1,0
76233,197.371667297159,4,1,1,65,1,0
76430,196.724536467811,4,1,1,65,1,0
76627,196.081635320839,4,1,1,65,1,0
76823,195.442922523168,4,1,1,65,1,0
77018,194.808357278527,4,1,1,65,1,0
77213,194.177899318759,4,1,1,65,1,0
77407,193.551508895305,4,1,1,65,1,0
77601,192.929146770848,4,1,1,65,1,0
77794,192.310774211125,4,1,1,65,1,0
77986,191.696352976885,4,1,1,65,1,0
78178,191.085845316008,4,1,1,65,1,0
78369,190.479213955777,4,1,1,65,1,0
78559,189.876422095286,4,1,1,65,1,0
78749,189.277433398003,4,1,1,65,1,0
78938,188.682211984465,4,1,1,65,1,0
79127,188.090722425116,4,1,1,65,1,0
79315,187.502929733277,4,1,1,65,1,0
79503,186.918799358245,4,1,1,65,1,0
79690,186.338297178528,4,1,1,65,1,0
79876,185.761389495193,4,1,1,65,1,0
80062,185.188043025355,4,1,1,65,1,0
80247,184.618224895768,4,1,1,65,1,0
80432,184.051902636544,4,1,1,65,1,0
80616,183.489044174987,4,1,1,65,1,0
80799,182.92961782954,4,1,1,65,1,0
80982,182.373592303834,4,1,1,65,1,0
81164,181.820936680859,4,1,1,65,1,0
81346,181.271620417227,4,1,1,65,1,0
81527,180.72561333755,4,1,1,65,1,0
81708,180.182885628913,4,1,1,65,1,0
81888,179.643407835447,4,1,1,65,1,0
82068,179.107150852998,4,1,1,65,1,0
82247,178.574085923898,4,1,1,65,1,0
82426,178.044184631819,4,1,1,65,1,0
82604,177.517418896729,4,1,1,65,1,0
82782,176.993760969926,4,1,1,65,1,0
82959,176.473183429168,4,1,1,65,1,0
83135,175.955659173888,4,1,1,65,1,0
83311,175.441161420489,4,1,1,65,1,0
83486,174.929663697722,4,1,1,65,1,0
83661,174.421139842149,4,1,1,65,1,0
83835,173.915563993681,4,1,1,65,1,0
84009,173.412910591194,4,1,1,65,1,0
84182,172.913154368219,4,1,1,65,1,0
84355,172.416270348712,4,1,1,65,1,0
84527,171.922233842892,4,1,1,65,1,0
84699,171.431020443149,4,1,1,65,1,0
84870,170.942606020029,4,1,1,65,1,0
85041,170.456966718277,4,1,1,65,1,0
85211,169.97407895296,4,1,1,65,1,0
85381,169.493919405641,4,1,1,65,1,0
85550,169.016465020634,4,1,1,65,1,0
85719,168.541693001306,4,1,1,65,1,0
85888,168.069580806454,4,1,1,70,1,1
86056,167.600106146734,4,1,1,70,1,1
86224,167.133246981156,4,1,1,70,1,1
86391,166.668981513632,4,1,1,70,1,1
86558,166.207288189587,4,1,1,70,1,1
86724,165.74814569262,4,1,1,70,1,1
86890,165.291532941225,4,1,1,70,1,1
87055,164.837429085564,4,1,1,70,1,1
87220,164.385813504295,4,1,1,70,1,1
87384,163.936665801445,4,1,1,70,1,1
87548,163.489965803349,4,1,1,70,1,1
87711,163.045693555619,4,1,1,70,1,1
87874,162.60382932018,4,1,1,70,1,1
88037,162.164353572346,4,1,1,70,1,1
88199,161.727246997938,4,1,1,70,1,1
88361,161.292490490464,4,1,1,70,1,1
88522,160.860065148326,4,1,1,70,1,1
88683,160.429952272089,4,1,1,70,1,1
88843,160.002133361778,4,1,1,70,1,1
89003,159.57659011423,4,1,1,70,1,1
89163,159.153304420483,4,1,1,70,1,1
89322,158.732258363206,4,1,1,70,1,1
89481,158.313434214172,4,1,1,70,1,1
89639,157.896814431769,4,1,1,70,1,1
89797,157.482381658552,4,1,1,70,1,1
89954,157.070118718831,4,1,1,70,1,1
90111,156.6600086163,4,1,1,70,1,1
90268,156.2520345317,4,1,1,70,1,1
90424,155.846179820517,4,1,1,70,1,1
90580,155.442428010726,4,1,1,70,1,1
90735,155.040762800553,4,1,1,70,1,1
90890,154.641168056289,4,1,1,70,1,1
91045,154.243627810126,4,1,1,70,1,1
91199,153.848126258029,4,1,1,70,1,1
91353,153.454647757644,4,1,1,70,1,1
91506,153.063176826235,4,1,1,70,1,1
91659,152.673698138653,4,1,1,70,1,1
91812,152.286196525337,4,1,1,70,1,1
91964,151.900656970341,4,1,1,70,1,1
92116,151.517064609402,4,1,1,70,1,1
92268,151.135404728019,4,1,1,70,1,1
92419,150.755662759582,4,1,1,70,1,1
92570,150.377824283512,4,1,1,70,1,1
92720,150.001875023438,4,1,1,70,1,1
92870,149.627800845397,4,1,1,70,1,1
93020,149.255587756067,4,1,1,70,1,1
93169,148.885221901016,4,1,1,70,1,1
93318,148.51668956299,4,1,1,70,1,1
93467,148.149977160212,4,1,1,70,1,1
93615,147.78507124472,4,1,1,70,1,1
93763,147.421958500719,4,1,1,70,1,1
93910,147.060625742963,4,1,1,70,1,1
94057,146.701059915158,4,1,1,70,1,1
94204,146.343248088391,4,1,1,70,1,1
94350,145.98717745958,4,1,1,70,1,1
94496,145.632835349944,4,1,1,70,1,1
94642,145.280209203501,4,1,1,70,1,1
94787,144.929286585587,4,1,1,70,1,1
94932,144.580055181388,4,1,1,70,1,1
95077,144.232502794505,4,1,1,70,1,1
95221,143.886617345532,4,1,1,70,1,1
95365,143.542386870656,4,1,1,70,1,1
95509,143.199799520281,4,1,1,70,1,1
95652,142.858843557661,4,1,1,70,1,1
95795,142.51950735757,4,1,1,75,1,1
95938,142.181779404969,4,1,1,75,1,1
96080,141.845648293715,4,1,1,75,1,1
96222,141.511102725268,4,1,1,75,1,1
96364,141.178131507429,4,1,1,75,1,1
96505,140.846723553093,4,1,1,75,1,1
96646,140.516867879015,4,1,1,75,1,1
96787,140.188553604598,4,1,1,75,1,1
96927,139.861769950699,4,1,1,75,1,1
97067,139.536506238445,4,1,1,75,1,1
97207,139.212751888073,4,1,1,75,1,1
97346,138.890496417783,4,1,1,75,1,1
97485,138.569729442603,4,1,1,75,1,1
97624,138.25044067328,4,1,1,75,1,1
97762,137.932619915171,4,1,1,75,1,1
97900,137.616257067168,4,1,1,75,1,1
98038,137.301342120619,4,1,1,75,1,1
98175,136.987865158278,4,1,1,75,1,1
98312,136.675816353261,4,1,1,75,1,1
98449,136.365185968022,4,1,1,75,1,1
98585,136.055964353337,4,1,1,75,1,1
98721,135.748141947307,4,1,1,75,1,1
98857,135.441709274371,4,1,1,75,1,1
98992,135.136656944335,4,1,1,75,1,1
99127,134.832975651412,4,1,1,75,1,1
99262,134.530656173275,4,1,1,75,1,1
99397,134.229689370127,4,1,1,75,1,1
99531,133.930066183774,4,1,1,75,1,1
99665,133.631777636722,4,1,1,75,1,1
99799,133.334814831276,4,1,1,75,1,1
99932,133.039168948658,4,1,1,75,1,1
100065,132.744831248133,4,1,1,75,1,1
100198,132.451793066149,4,1,1,75,1,1
100330,132.160045815483,4,1,1,75,1,1
100462,131.869580984406,4,1,1,75,1,1
100594,131.580390135857,4,1,1,75,1,1
100726,131.292464906618,4,1,1,75,1,1
100857,131.005797006518,4,1,1,75,1,1
100988,130.720378217628,4,1,1,75,1,1
101119,130.436200393483,4,1,1,75,1,1
101249,130.153255458302,4,1,1,75,1,1
101379,129.871535406227,4,1,1,75,1,1
101509,129.591032300565,4,1,1,75,1,1
101639,129.311738273042,4,1,1,75,1,1
101768,129.03364552307,4,1,1,75,1,1
101897,128.756746317021,4,1,1,75,1,1
102026,128.481032987505,4,1,1,75,1,1
102154,128.20649793267,4,1,1,75,1,1
102282,127.933133615497,4,1,1,75,1,1
102410,127.660932563112,4,1,1,75,1,1
102538,127.389887366108,4,1,1,75,1,1
102665,127.119990677867,4,1,1,75,1,1
102792,126.851235213903,4,1,1,75,1,1
102919,126.5836137512,4,1,1,75,1,1
103046,126.31711912757,4,1,1,75,1,1
103172,126.051744241011,4,1,1,75,1,1
103298,125.787482049078,4,1,1,75,1,1
103424,125.524325568259,4,1,1,75,1,1
103550,125.26226787336,4,1,1,75,1,1
103675,125.001302096897,4,1,1,75,1,1
103800,124.741421428497,4,1,1,75,1,1
103925,124.482619114306,4,1,1,75,1,1
104049,124.224888456402,4,1,1,75,1,1
104173,123.968222812219,4,1,1,75,1,1
104297,123.712615593975,4,1,1,80,1,1
104421,123.45806026811,4,1,1,80,1,1
104544,123.204550354726,4,1,1,80,1,1
104667,122.952079427043,4,1,1,80,1,1
104790,122.70064111085,4,1,1,80,1,1
104913,122.45022908397,4,1,1,80,1,1
105035,122.200837075734,4,1,1,80,1,1
105157,121.952458866452,4,1,1,80,1,1
105279,121.705088286899,4,1,1,80,1,1
105401,121.458719217806,4,1,1,80,1,1
105522,121.213345589349,4,1,1,80,1,1
105643,120.968961380659,4,1,1,80,1,1
105764,120.725560619322,4,1,1,80,1,1
105885,120.483137380897,4,1,1,80,1,1
106005,120.241685788435,4,1,1,80,1,1
106125,120.001200012,4,1,1,80,1,1
106245,119.761674268206,4,1,1,80,1,1
106365,119.523102819749,4,1,1,80,1,1
106485,119.28547997495,4,1,1,80,1,1
106604,119.048800087302,4,1,1,80,1,1
106723,118.813057555025,4,1,1,80,1,1
106842,118.578246820621,4,1,1,80,1,1
106961,118.344362370438,4,1,1,80,1,1
107079,118.11139873424,4,1,1,80,1,1
107197,117.879350484779,4,1,1,80,1,1
107315,117.648212237375,4,1,1,80,1,1
107433,117.417978649498,4,1,1,80,1,1
107550,117.188644420356,4,1,1,80,1,1
107667,116.96020429049,4,1,1,80,1,1
107784,116.732653041372,4,1,1,80,1,1
107901,116.505985495005,4,1,1,80,1,1
108018,116.280196513532,4,1,1,80,1,1
108134,116.055280998849,4,1,1,80,1,1
108250,115.831233892219,4,1,1,80,1,1
108366,115.608050173894,4,1,1,80,1,1
108482,115.385724862739,4,1,1,80,1,1
108597,115.164253015864,4,1,1,80,1,1
108712,114.943629728254,4,1,1,80,1,1
108827,114.72385013241,4,1,1,80,1,1
108942,114.50490939799,4,1,1,80,1,1
109057,114.286802731455,4,1,1,80,1,1
109171,114.069525375716,4,1,1,80,1,1
109285,113.853072609797,4,1,1,80,1,1
109399,113.637439748482,4,1,1,80,1,1
109513,113.422622141986,4,1,1,80,1,1
109626,113.208615175615,4,1,1,80,1,1
109739,112.995414269438,4,1,1,80,1,1
109852,112.783014877959,4,1,1,80,1,1
109965,112.571412489798,4,1,1,80,1,1
110078,112.360602627365,4,1,1,80,1,1
110190,112.15058084655,4,1,1,80,1,1
110302,111.941342736406,4,1,1,80,1,1
110414,111.732883918845,4,1,1,80,1,1
110526,111.525200048328,4,1,1,80,1,1
110638,111.318286811566,4,1,1,80,1,1
110749,111.112139927222,4,1,1,80,1,1
110860,110.906755145611,4,1,1,80,1,1
110971,110.702128248416,4,1,1,80,1,1
111082,110.498255048389,4,1,1,80,1,1
111192,110.295131389075,4,1,1,80,1,1
111302,110.092753144524,4,1,1,80,1,1
111412,109.891116219013,4,1,1,80,1,1
111522,109.690216546769,4,1,1,80,1,1
111632,109.490050091698,4,1,1,80,1,1
111741,109.290612847112,4,1,1,90,1,1
111850,109.091900835462,4,1,1,90,1,1
111959,108.893910108077,4,1,1,90,1,1
112068,108.696636744898,4,1,1,90,1,1
112177,108.500076854221,4,1,1,90,1,1
112286,108.304226572442,4,1,1,90,1,1
112394,108.109082063802,4,1,1,90,1,1
112502,107.91463952014,4,1,1,90,1,1
112610,107.720895160639,4,1,1,90,1,1
112718,107.527845231588,4,1,1,90,1,1
112826,107.335486006136,4,1,1,90,1,1
112933,107.143813784052,4,1,1,90,1,1
113040,106.952824891487,4,1,1,90,1,1
113147,106.762515680744,4,1,1,90,1,1
113254,106.57288253004,4,1,1,90,1,1
113361,106.383921843279,4,1,1,90,1,1
113467,106.195630049823,4,1,1,90,1,1
113573,106.008003604272,4,1,1,90,1,1
113679,105.821038986234,4,1,1,90,1,1
113785,105.634732700112,4,1,1,90,1,1
113891,105.449081274879,4,1,1,90,1,1
113996,105.264081263871,4,1,1,90,1,1
114101,105.079729244564,4,1,1,90,1,1
114206,104.896021818373,4,1,1,90,1,1
114311,104.712041884817,4,1,0,100,1,1
114337,-100,4,1,1,100,0,0

[Colours]
Combo1 : 0,255,0
Combo2 : 244,0,6
Combo3 : 129,69,252
Combo4 : 255,255,255

[HitObjects]
414,201,9915,1,0,0:0:0:0:
413,211,10212,1,0,0:0:0:0:
412,221,10509,1,0,0:0:0:0:
410,231,10803,1,0,0:0:0:0:
407,241,11097,1,0,0:0:0:0:
404,250,11388,1,0,0:0:0:0:
400,259,11680,1,0,0:0:0:0:
395,268,11968,1,0,0:0:0:0:
390,277,12257,1,0,0:0:0:0:
384,285,12542,1,0,0:0:0:0:
378,293,12828,1,0,0:0:0:0:
372,300,13111,1,0,0:0:0:0:
364,308,13394,1,0,0:0:0:0:
357,314,13674,1,0,0:0:0:0:
349,320,13955,1,0,0:0:0:0:
341,326,14232,1,0,0:0:0:0:
332,331,14511,1,0,0:0:0:0:
323,336,14786,1,0,0:0:0:0:
314,340,15061,1,0,0:0:0:0:
305,343,15333,1,0,0:0:0:0:
295,346,15606,1,0,0:0:0:0:
285,348,15876,1,0,0:0:0:0:
275,349,16147,1,0,0:0:0:0:
265,350,16414,1,0,0:0:0:0:
255,351,16683,1,0,0:0:0:0:
246,350,16948,1,0,0:0:0:0:
236,349,17214,1,0,0:0:0:0:
226,348,17477,1,0,0:0:0:0:
216,346,17740,1,0,0:0:0:0:
206,343,18000,1,0,0:0:0:0:
197,340,18262,1,0,0:0:0:0:
188,336,18520,1,0,0:0:0:0:
179,331,18779,1,0,0:0:0:0:
170,326,19035,1,0,0:0:0:0:
162,320,19292,1,0,0:0:0:0:
154,314,19546,1,0,0:0:0:0:
147,308,19800,1,0,0:0:0:0:
139,300,20052,1,0,0:0:0:0:
133,293,20304,1,0,0:0:0:0:
127,285,20554,1,0,0:0:0:0:
121,277,20804,1,0,0:0:0:0:
116,268,21051,1,0,0:0:0:0:
111,259,21300,1,0,0:0:0:0:
107,250,21545,1,0,0:0:0:0:
104,241,21792,1,0,0:0:0:0:
101,231,22035,1,0,0:0:0:0:
99,221,22280,1,0,0:0:0:0:
98,211,22521,1,0,0:0:0:0:
97,201,22764,1,0,0:0:0:0:
96,191,23004,1,0,0:0:0:0:
97,182,23244,1,0,0:0:0:0:
98,172,23482,1,0,0:0:0:0:
99,162,23720,1,0,0:0:0:0:
101,152,23956,1,0,0:0:0:0:
104,142,24192,1,0,0:0:0:0:
107,133,24426,1,0,0:0:0:0:
111,124,24661,1,0,0:0:0:0:
116,115,24893,1,0,0:0:0:0:
121,106,25126,1,0,0:0:0:0:
127,98,25356,1,0,0:0:0:0:
133,90,25588,1,0,0:0:0:0:
139,83,25817,1,0,0:0:0:0:
147,75,26046,1,0,0:0:0:0:
154,69,26273,1,0,0:0:0:0:
162,63,26501,1,0,0:0:0:0:
170,57,26726,1,0,0:0:0:0:
179,52,26952,1,0,0:0:0:0:
188,47,27175,1,0,0:0:0:0:
197,43,27400,1,0,0:0:0:0:
206,40,27622,1,0,0:0:0:0:
216,37,27844,1,0,0:0:0:0:
226,35,28064,1,0,0:0:0:0:
236,34,28285,1,0,0:0:0:0:
246,33,28503,1,0,0:0:0:0:
256,32,28723,1,0,0:0:0:0:
265,33,28940,1,0,0:0:0:0:
275,34,29158,1,0,0:0:0:0:
285,35,29373,1,0,0:0:0:0:
295,37,29590,1,0,0:0:0:0:
305,40,29804,1,0,0:0:0:0:
314,43,30019,1,0,0:0:0:0:
323,47,30231,1,0,0:0:0:0:
332,52,30445,1,0,0:0:0:0:
341,57,30656,1,0,0:0:0:0:
349,63,30868,1,0,0:0:0:0:
357,69,31077,1,0,0:0:0:0:
364,75,31288,1,0,0:0:0:0:
372,83,31496,1,0,0:0:0:0:
378,90,31705,1,0,0:0:0:0:
384,98,31911,1,0,0:0:0:0:
390,106,32119,1,0,0:0:0:0:
395,115,32324,1,0,0:0:0:0:
400,124,32530,1,0,0:0:0:0:
404,133,32734,1,0,0:0:0:0:
407,142,32938,1,0,0:0:0:0:
410,152,33140,1,0,0:0:0:0:
412,162,33343,1,0,0:0:0:0:
413,172,33544,1,0,0:0:0:0:
414,182,33746,1,0,0:0:0:0:
415,192,33946,1,0,0:0:0:0:
414,201,34146,1,0,0:0:0:0:
413,211,34344,1,0,0:0:0:0:
412,221,34543,1,0,0:0:0:0:
410,231,34740,1,0,0:0:0:0:
407,241,34938,1,0,0:0:0:0:
404,250,35134,1,0,0:0:0:0:
400,259,35330,1,0,0:0:0:0:
395,268,35524,1,0,0:0:0:0:
390,277,35720,1,0,0:0:0:0:
384,285,35913,1,0,0:0:0:0:
378,293,36107,1,0,0:0:0:0:
372,300,36299,1,0,0:0:0:0:
364,308,36492,1,0,0:0:0:0:
357,314,36683,1,0,0:0:0:0:
349,320,36874,1,0,0:0:0:0:
341,326,37063,1,0,0:0:0:0:
332,331,37254,1,0,0:0:0:0:
323,336,37442,1,0,0:0:0:0:
314,340,37631,1,0,0:0:0:0:
305,343,37818,1,0,0:0:0:0:
295,346,38006,1,0,0:0:0:0:
285,348,38192,1,0,0:0:0:0:
275,349,38379,1,0,0:0:0:0:
265,350,38564,1,0,0:0:0:0:
255,351,38749,1,0,0:0:0:0:
246,350,38933,1,0,0:0:0:0:
236,349,39117,1,0,0:0:0:0:
226,348,39299,1,0,0:0:0:0:
216,346,39483,1,0,0:0:0:0:
206,343,39664,1,0,0:0:0:0:
197,340,39847,1,0,0:0:0:0:
188,336,40027,1,0,0:0:0:0:
179,331,40208,1,0,0:0:0:0:
170,326,40387,1,0,0:0:0:0:
162,320,40567,1,0,0:0:0:0:
154,314,40745,1,0,0:0:0:0:
147,308,40924,1,0,0:0:0:0:
139,300,41101,1,0,0:0:0:0:
133,293,41279,1,0,0:0:0:0:
127,285,41455,1,0,0:0:0:0:
121,277,41632,1,0,0:0:0:0:
116,268,41807,1,0,0:0:0:0:
111,259,41983,1,0,0:0:0:0:
107,250,42157,1,0,0:0:0:0:
104,241,42332,1,0,0:0:0:0:
101,231,42505,1,0,0:0:0:0:
99,221,42679,1,0,0:0:0:0:
98,211,42851,1,0,0:0:0:0:
97,201,43024,1,0,0:0:0:0:
96,191,43195,1,0,0:0:0:0:
97,182,43367,1,0,0:0:0:0:
98,172,43537,1,0,0:0:0:0:
99,162,43708,1,0,0:0:0:0:
101,152,43877,1,0,0:0:0:0:
104,142,44047,1,0,0:0:0:0:
107,133,44215,1,0,0:0:0:0:
111,124,44384,1,0,0:0:0:0:
116,115,44551,1,0,0:0:0:0:
121,106,44719,1,0,0:0:0:0:
127,98,44885,1,0,0:0:0:0:
133,90,45052,1,0,0:0:0:0:
139,83,45217,1,0,0:0:0:0:
147,75,45384,1,0,0:0:0:0:
154,69,45548,1,0,0:0:0:0:
162,63,45714,1,0,0:0:0:0:
170,57,45877,1,0,0:0:0:0:
179,52,46042,1,0,0:0:0:0:
188,47,46205,1,0,0:0:0:0:
197,43,46368,1,0,0:0:0:0:
206,40,46530,1,0,0:0:0:0:
216,37,46692,1,0,0:0:0:0:
226,35,46853,1,0,0:0:0:0:
236,34,47015,1,0,0:0:0:0:
246,33,47175,1,0,0:0:0:0:
256,32,47336,1,0,0:0:0:0:
265,33,47495,1,0,0:0:0:0:
275,34,47655,1,0,0:0:0:0:
285,35,47813,1,0,0:0:0:0:
295,37,47972,1,0,0:0:0:0:
305,40,48129,1,0,0:0:0:0:
314,43,48288,1,0,0:0:0:0:
323,47,48445,1,0,0:0:0:0:
332,52,48602,1,0,0:0:0:0:
341,57,48758,1,0,0:0:0:0:
349,63,48915,1,0,0:0:0:0:
357,69,49070,1,0,0:0:0:0:
364,75,49226,1,0,0:0:0:0:
372,83,49380,1,0,0:0:0:0:
378,90,49535,1,0,0:0:0:0:
384,98,49688,1,0,0:0:0:0:
390,106,49843,1,0,0:0:0:0:
395,115,49996,1,0,0:0:0:0:
400,124,50149,1,0,0:0:0:0:
404,133,50301,1,0,0:0:0:0:
407,142,50454,1,0,0:0:0:0:
410,152,50605,1,0,0:0:0:0:
412,162,50757,1,0,0:0:0:0:
413,172,50907,1,0,0:0:0:0:
414,182,51059,1,0,0:0:0:0:
415,192,51209,1,0,0:0:0:0:
414,201,51359,5,0,0:0:0:0:
413,211,51508,1,0,0:0:0:0:
412,221,51657,1,0,0:0:0:0:
410,231,51806,1,0,0:0:0:0:
407,241,51955,1,0,0:0:0:0:
404,250,52102,1,0,0:0:0:0:
400,259,52251,1,0,0:0:0:0:
395,268,52398,1,0,0:0:0:0:
390,277,52545,1,0,0:0:0:0:
384,285,52691,1,0,0:0:0:0:
378,293,52838,1,0,0:0:0:0:
372,300,52983,1,0,0:0:0:0:
364,308,53129,1,0,0:0:0:0:
357,314,53273,1,0,0:0:0:0:
349,320,53419,1,0,0:0:0:0:
341,326,53563,1,0,0:0:0:0:
332,331,53707,1,0,0:0:0:0:
323,336,53850,1,0,0:0:0:0:
314,340,53994,1,0,0:0:0:0:
305,343,54136,1,0,0:0:0:0:
295,346,54280,1,0,0:0:0:0:
285,348,54422,1,0,0:0:0:0:
275,349,54564,1,0,0:0:0:0:
265,350,54705,1,0,0:0:0:0:
255,351,54847,1,0,0:0:0:0:
246,350,54987,1,0,0:0:0:0:
236,349,55129,1,0,0:0:0:0:
226,348,55269,1,0,0:0:0:0:
216,346,55409,1,0,0:0:0:0:
206,343,55548,1,0,0:0:0:0:
197,340,55688,1,0,0:0:0:0:
188,336,55826,1,0,0:0:0:0:
179,331,55966,1,0,0:0:0:0:
170,326,56104,1,0,0:0:0:0:
162,320,56243,1,0,0:0:0:0:
154,314,56380,1,0,0:0:0:0:
147,308,56518,1,0,0:0:0:0:
139,300,56654,1,0,0:0:0:0:
133,293,56792,1,0,0:0:0:0:
127,285,56928,1,0,0:0:0:0:
121,277,57065,1,0,0:0:0:0:
116,268,57200,1,0,0:0:0:0:
111,259,57336,1,0,0:0:0:0:
107,250,57471,1,0,0:0:0:0:
104,241,57606,1,0,0:0:0:0:
101,231,57740,1,0,0:0:0:0:
99,221,57875,1,0,0:0:0:0:
98,211,58008,1,0,0:0:0:0:
97,201,58143,1,0,0:0:0:0:
96,191,58276,1,0,0:0:0:0:
97,182,58410,1,0,0:0:0:0:
98,172,58542,1,0,0:0:0:0:
99,162,58675,1,0,0:0:0:0:
101,152,58807,1,0,0:0:0:0:
104,142,58939,1,0,0:0:0:0:
107,133,59070,1,0,0:0:0:0:
111,124,59202,1,0,0:0:0:0:
116,115,59333,1,0,0:0:0:0:
121,106,59464,1,0,0:0:0:0:
127,98,59594,1,0,0:0:0:0:
133,90,59725,1,0,0:0:0:0:
139,83,59854,1,0,0:0:0:0:
147,75,59985,1,0,0:0:0:0:
154,69,60114,1,0,0:0:0:0:
162,63,60244,1,0,0:0:0:0:
170,57,60372,1,0,0:0:0:0:
179,52,60502,1,0,0:0:0:0:
188,47,60630,1,0,0:0:0:0:
197,43,60758,1,0,0:0:0:0:
206,40,60885,1,0,0:0:0:0:
216,37,61013,1,0,0:0:0:0:
226,35,61140,1,0,0:0:0:0:
236,34,61267,1,0,0:0:0:0:
246,33,61393,1,0,0:0:0:0:
256,32,61520,1,0,0:0:0:0:
265,33,61646,1,0,0:0:0:0:
275,34,61772,1,0,0:0:0:0:
285,35,61897,1,0,0:0:0:0:
295,37,62023,1,0,0:0:0:0:
305,40,62148,1,0,0:0:0:0:
314,43,62273,1,0,0:0:0:0:
323,47,62397,1,0,0:0:0:0:
332,52,62522,1,0,0:0:0:0:
341,57,62645,1,0,0:0:0:0:
349,63,62770,1,0,0:0:0:0:
357,69,62893,1,0,0:0:0:0:
364,75,63017,1,0,0:0:0:0:
372,83,63139,1,0,0:0:0:0:
378,90,63262,1,0,0:0:0:0:
384,98,63384,1,0,0:0:0:0:
390,106,63508,1,0,0:0:0:0:
395,115,63629,1,0,0:0:0:0:
400,124,63752,1,0,0:0:0:0:
404,133,63873,1,0,0:0:0:0:
407,142,63995,1,0,0:0:0:0:
410,152,64115,1,0,0:0:0:0:
412,162,64237,1,0,0:0:0:0:
413,172,64357,1,0,0:0:0:0:
414,182,64478,1,0,0:0:0:0:
415,192,64598,1,0,0:0:0:0:
414,201,64718,1,0,0:0:0:0:
413,211,64837,1,0,0:0:0:0:
412,221,64957,1,0,0:0:0:0:
410,231,65076,1,0,0:0:0:0:
407,241,65195,1,0,0:0:0:0:
404,250,65313,1,0,0:0:0:0:
400,259,65432,1,0,0:0:0:0:
395,268,65550,1,0,0:0:0:0:
390,277,65668,1,0,0:0:0:0:
384,285,65785,1,0,0:0:0:0:
378,293,65903,1,0,0:0:0:0:
372,300,66020,1,0,0:0:0:0:
364,308,66137,1,0,0:0:0:0:
357,314,66253,1,0,0:0:0:0:
349,320,66370,1,0,0:0:0:0:
341,326,66486,1,0,0:0:0:0:
332,331,66603,1,0,0:0:0:0:
323,336,66718,1,0,0:0:0:0:
314,340,66835,1,0,0:0:0:0:
305,343,66950,1,0,0:0:0:0:
295,346,67066,1,0,0:0:0:0:
285,348,67180,1,0,0:0:0:0:
275,349,67296,1,0,0:0:0:0:
265,350,67410,1,0,0:0:0:0:
255,351,67525,1,0,0:0:0:0:
246,350,67639,1,0,0:0:0:0:
236,349,67753,1,0,0:0:0:0:
226,348,67866,1,0,0:0:0:0:
216,346,67980,1,0,0:0:0:0:
206,343,68093,1,0,0:0:0:0:
197,340,68206,1,0,0:0:0:0:
188,336,68318,1,0,0:0:0:0:
179,331,68432,1,0,0:0:0:0:
170,326,68544,1,0,0:0:0:0:
162,320,68657,1,0,0:0:0:0:
154,314,68768,1,0,0:0:0:0:
147,308,68881,1,0,0:0:0:0:
139,300,68992,1,0,0:0:0:0:
133,293,69104,1,0,0:0:0:0:
127,285,69215,1,0,0:0:0:0:
121,277,69326,1,0,0:0:0:0:
116,268,69436,1,0,0:0:0:0:
111,259,69547,1,0,0:0:0:0:
107,250,69657,1,0,0:0:0:0:
104,241,69768,1,0,0:0:0:0:
101,231,69877,1,0,0:0:0:0:
99,221,69988,1,0,0:0:0:0:
98,211,70097,1,0,0:0:0:0:
97,201,70207,1,0,0:0:0:0:
96,191,70316,1,0,0:0:0:0:
97,182,70425,1,0,0:0:0:0:
98,172,70533,1,0,0:0:0:0:
99,162,70642,1,0,0:0:0:0:
101,152,70750,1,0,0:0:0:0:
104,142,70859,1,0,0:0:0:0:
107,133,70966,1,0,0:0:0:0:
111,124,71075,1,0,0:0:0:0:
116,115,71182,1,0,0:0:0:0:
121,106,71290,1,0,0:0:0:0:
127,98,71397,1,0,0:0:0:0:
133,90,71504,1,0,0:0:0:0:
139,83,71610,1,0,0:0:0:0:
147,75,71718,1,0,0:0:0:0:
154,69,71824,1,0,0:0:0:0:
162,63,71931,1,0,0:0:0:0:
170,57,72037,1,0,0:0:0:0:
179,52,72143,1,0,0:0:0:0:
188,47,72248,1,0,0:0:0:0:
197,43,72354,1,0,0:0:0:0:
206,40,72459,1,0,0:0:0:0:
216,37,72565,1,0,0:0:0:0:
226,35,72669,1,0,0:0:0:0:
236,34,72775,1,0,0:0:0:0:
246,33,72879,1,0,0:0:0:0:
256,32,72984,1,0,0:0:0:0:
265,33,73088,1,0,0:0:0:0:
275,34,73192,1,0,0:0:0:0:
285,35,73295,1,0,0:0:0:0:
295,37,73400,1,0,0:0:0:0:
305,40,73503,1,0,0:0:0:0:
314,43,73607,1,0,0:0:0:0:
323,47,73710,1,0,0:0:0:0:
332,52,73813,1,0,0:0:0:0:
341,57,73915,1,0,0:0:0:0:
349,63,74018,1,0,0:0:0:0:
357,69,74120,1,0,0:0:0:0:
364,75,74223,1,0,0:0:0:0:
372,83,74325,1,0,0:0:0:0:
378,90,74427,1,0,0:0:0:0:
384,98,74528,1,0,0:0:0:0:
390,106,74630,1,0,0:0:0:0:
395,115,74731,1,0,0:0:0:0:
400,124,74833,1,0,0:0:0:0:
404,133,74934,1,0,0:0:0:0:
407,142,75035,1,0,0:0:0:0:
410,152,75135,1,0,0:0:0:0:
412,162,75236,1,0,0:0:0:0:
413,172,75336,1,0,0:0:0:0:
414,182,75437,1,0,0:0:0:0:
415,192,75537,1,0,0:0:0:0:
414,201,75637,5,0,0:0:0:0:
413,211,75736,1,0,0:0:0:0:
412,221,75836,1,0,0:0:0:0:
410,231,75935,1,0,0:0:0:0:
407,241,76034,1,0,0:0:0:0:
404,250,76134,1,0,0:0:0:0:
400,259,76233,1,0,0:0:0:0:
395,268,76331,1,0,0:0:0:0:
390,277,76430,1,0,0:0:0:0:
384,285,76528,1,0,0:0:0:0:
378,293,76627,1,0,0:0:0:0:
372,300,76725,1,0,0:0:0:0:
364,308,76823,1,0,0:0:0:0:
357,314,76920,1,0,0:0:0:0:
349,320,77018,1,0,0:0:0:0:
341,326,77115,1,0,0:0:0:0:
332,331,77213,1,0,0:0:0:0:
323,336,77310,1,0,0:0:0:0:
314,340,77407,1,0,0:0:0:0:
305,343,77503,1,0,0:0:0:0:
295,346,77601,1,0,0:0:0:0:
285,348,77697,1,0,0:0:0:0:
275,349,77794,1,0,0:0:0:0:
265,350,77890,1,0,0:0:0:0:
255,351,77986,1,0,0:0:0:0:
246,350,78081,1,0,0:0:0:0:
236,349,78178,1,0,0:0:0:0:
226,348,78273,1,0,0:0:0:0:
216,346,78369,1,0,0:0:0:0:
206,343,78464,1,0,0:0:0:0:
197,340,78559,1,0,0:0:0:0:
188,336,78653,1,0,0:0:0:0:
179,331,78749,1,0,0:0:0:0:
170,326,78843,1,0,0:0:0:0:
162,320,78938,1,0,0:0:0:0:
154,314,79032,1,0,0:0:0:0:
147,308,79127,1,0,0:0:0:0:
139,300,79221,1,0,0:0:0:0:
133,293,79315,1,0,0:0:0:0:
127,285,79408,1,0,0:0:0:0:
121,277,79503,1,0,0:0:0:0:
116,268,79596,1,0,0:0:0:0:
111,259,79690,1,0,0:0:0:0:
107,250,79783,1,0,0:0:0:0:
104,241,79876,1,0,0:0:0:0:
101,231,79968,1,0,0:0:0:0:
99,221,80062,1,0,0:0:0:0:
98,211,80154,1,0,0:0:0:0:
97,201,80247,1,0,0:0:0:0:
96,191,80339,1,0,0:0:0:0:
97,182,80432,1,0,0:0:0:0:
98,172,80524,1,0,0:0:0:0:
99,162,80616,1,0,0:0:0:0:
101,152,80707,1,0,0:0:0:0:
104,142,80799,1,0,0:0:0:0:
107,133,80890,1,0,0:0:0:0:
111,124,80982,1,0,0:0:0:0:
116,115,81073,1,0,0:0:0:0:
121,106,81164,1,0,0:0:0:0:
127,98,81254,1,0,0:0:0:0:
133,90,81346,1,0,0:0:0:0:
139,83,81436,1,0,0:0:0:0:
147,75,81527,1,0,0:0:0:0:
154,69,81617,1,0,0:0:0:0:
162,63,81708,1,0,0:0:0:0:
170,57,81798,1,0,0:0:0:0:
179,52,81888,1,0,0:0:0:0:
188,47,81977,1,0,0:0:0:0:
197,43,82068,1,0,0:0:0:0:
206,40,82157,1,0,0:0:0:0:
216,37,82247,1,0,0:0:0:0:
226,35,82336,1,0,0:0:0:0:
236,34,82426,1,0,0:0:0:0:
246,33,82515,1,0,0:0:0:0:
256,32,82604,1,0,0:0:0:0:
265,33,82692,1,0,0:0:0:0:
275,34,82782,1,0,0:0:0:0:
285,35,82870,1,0,0:0:0:0:
295,37,82959,1,0,0:0:0:0:
305,40,83047,1,0,0:0:0:0:
314,43,83135,1,0,0:0:0:0:
323,47,83222,1,0,0:0:0:0:
332,52,83311,1,0,0:0:0:0:
341,57,83398,1,0,0:0:0:0:
349,63,83486,1,0,0:0:0:0:
357,69,83573,1,0,0:0:0:0:
364,75,83661,1,0,0:0:0:0:
372,83,83748,1,0,0:0:0:0:
378,90,83835,1,0,0:0:0:0:
384,98,83921,1,0,0:0:0:0:
390,106,84009,1,0,0:0:0:0:
395,115,84095,1,0,0:0:0:0:
400,124,84182,1,0,0:0:0:0:
404,133,84268,1,0,0:0:0:0:
407,142,84355,1,0,0:0:0:0:
410,152,84441,1,0,0:0:0:0:
412,162,84527,1,0,0:0:0:0:
413,172,84612,1,0,0:0:0:0:
414,182,84699,1,0,0:0:0:0:
415,192,84784,1,0,0:0:0:0:
414,201,84870,1,0,0:0:0:0:
413,211,84955,1,0,0:0:0:0:
412,221,85040,1,0,0:0:0:0:
410,231,85126,1,0,0:0:0:0:
407,241,85211,1,0,0:0:0:0:
404,250,85295,1,0,0:0:0:0:
400,259,85380,1,0,0:0:0:0:
395,268,85465,1,0,0:0:0:0:
390,277,85550,1,0,0:0:0:0:
384,285,85634,1,0,0:0:0:0:
378,293,85719,1,0,0:0:0:0:
372,300,85803,1,0,0:0:0:0:
364,308,85888,1,0,0:0:0:0:
357,314,85972,1,0,0:0:0:0:
349,320,86056,1,0,0:0:0:0:
341,326,86139,1,0,0:0:0:0:
332,331,86224,1,0,0:0:0:0:
323,336,86307,1,0,0:0:0:0:
314,340,86391,1,0,0:0:0:0:
305,343,86474,1,0,0:0:0:0:
295,346,86558,1,0,0:0:0:0:
285,348,86641,1,0,0:0:0:0:
275,349,86724,1,0,0:0:0:0:
265,350,86806,1,0,0:0:0:0:
255,351,86890,1,0,0:0:0:0:
246,350,86972,1,0,0:0:0:0:
236,349,87055,1,0,0:0:0:0:
226,348,87137,1,0,0:0:0:0:
216,346,87220,1,0,0:0:0:0:
206,343,87302,1,0,0:0:0:0:
197,340,87384,1,0,0:0:0:0:
188,336,87465,1,0,0:0:0:0:
179,331,87548,1,0,0:0:0:0:
170,326,87629,1,0,0:0:0:0:
162,320,87711,1,0,0:0:0:0:
154,314,87792,1,0,0:0:0:0:
147,308,87874,1,0,0:0:0:0:
139,300,87955,1,0,0:0:0:0:
133,293,88037,1,0,0:0:0:0:
127,285,88118,1,0,0:0:0:0:
121,277,88199,1,0,0:0:0:0:
116,268,88279,1,0,0:0:0:0:
111,259,88361,1,0,0:0:0:0:
107,250,88441,1,0,0:0:0:0:
104,241,88522,1,0,0:0:0:0:
101,231,88602,1,0,0:0:0:0:
99,221,88683,1,0,0:0:0:0:
98,211,88763,1,0,0:0:0:0:
97,201,88843,1,0,0:0:0:0:
96,191,88923,1,0,0:0:0:0:
97,182,89003,1,0,0:0:0:0:
98,172,89082,1,0,0:0:0:0:
99,162,89163,1,0,0:0:0:0:
101,152,89242,1,0,0:0:0:0:
104,142,89322,1,0,0:0:0:0:
107,133,89401,1,0,0:0:0:0:
111,124,89481,1,0,0:0:0:0:
116,115,89560,1,0,0:0:0:0:
121,106,89639,1,0,0:0:0:0:
127,98,89717,1,0,0:0:0:0:
133,90,89797,1,0,0:0:0:0:
139,83,89875,1,0,0:0:0:0:
147,75,89954,1,0,0:0:0:0:
154,69,90032,1,0,0:0:0:0:
162,63,90111,1,0,0:0:0:0:
170,57,90189,1,0,0:0:0:0:
179,52,90268,1,0,0:0:0:0:
188,47,90346,1,0,0:0:0:0:
197,43,90424,1,0,0:0:0:0:
206,40,90501,1,0,0:0:0:0:
216,37,90580,1,0,0:0:0:0:
226,35,90657,1,0,0:0:0:0:
236,34,90735,1,0,0:0:0:0:
246,33,90812,1,0,0:0:0:0:
256,32,90890,1,0,0:0:0:0:
265,33,90967,1,0,0:0:0:0:
275,34,91045,1,0,0:0:0:0:
285,35,91122,1,0,0:0:0:0:
295,37,91199,1,0,0:0:0:0:
305,40,91275,1,0,0:0:0:0:
314,43,91353,1,0,0:0:0:0:
323,47,91429,1,0,0:0:0:0:
332,52,91506,1,0,0:0:0:0:
341,57,91582,1,0,0:0:0:0:
349,63,91659,1,0,0:0:0:0:
357,69,91735,1,0,0:0:0:0:
364,75,91812,1,0,0:0:0:0:
372,83,91888,1,0,0:0:0:0:
378,90,91964,1,0,0:0:0:0:
384,98,92039,1,0,0:0:0:0:
390,106,92116,1,0,0:0:0:0:
395,115,92191,1,0,0:0:0:0:
400,124,92268,1,0,0:0:0:0:
404,133,92343,1,0,0:0:0:0:
407,142,92419,1,0,0:0:0:0:
410,152,92494,1,0,0:0:0:0:
412,162,92570,1,0,0:0:0:0:
413,172,92645,1,0,0:0:0:0:
414,182,92720,1,0,0:0:0:0:
415,192,92795,1,0,0:0:0:0:
414,201,92870,5,0,0:0:0:0:
413,211,92944,1,0,0:0:0:0:
411,221,93019,1,0,0:0:0:0:
409,231,93094,1,0,0:0:0:0:
407,241,93169,1,0,0:0:0:0:
403,250,93243,1,0,0:0:0:0:
399,259,93317,1,0,0:0:0:0:
395,268,93392,1,0,0:0:0:0:
390,277,93466,1,0,0:0:0:0:
384,285,93541,1,0,0:0:0:0:
378,293,93615,1,0,0:0:0:0:
371,300,93688,1,0,0:0:0:0:
364,307,93762,1,0,0:0:0:0:
357,314,93836,1,0,0:0:0:0:
349,320,93910,1,0,0:0:0:0:
341,326,93983,1,0,0:0:0:0:
332,331,94057,1,0,0:0:0:0:
323,335,94130,1,0,0:0:0:0:
314,339,94204,1,0,0:0:0:0:
305,343,94277,1,0,0:0:0:0:
295,345,94350,1,0,0:0:0:0:
285,347,94422,1,0,0:0:0:0:
275,349,94496,1,0,0:0:0:0:
265,350,94568,1,0,0:0:0:0:
255,350,94642,1,0,0:0:0:0:
246,350,94714,1,0,0:0:0:0:
236,349,94787,1,0,0:0:0:0:
226,347,94859,1,0,0:0:0:0:
216,345,94932,1,0,0:0:0:0:
206,343,95004,1,0,0:0:0:0:
197,339,95077,1,0,0:0:0:0:
188,335,95149,1,0,0:0:0:0:
179,331,95221,1,0,0:0:0:0:
170,326,95292,1,0,0:0:0:0:
162,320,95365,1,0,0:0:0:0:
154,314,95436,1,0,0:0:0:0:
147,307,95509,1,0,0:0:0:0:
140,300,95580,1,0,0:0:0:0:
133,293,95652,1,0,0:0:0:0:
127,285,95723,1,0,0:0:0:0:
121,277,95795,1,0,0:0:0:0:
116,268,95866,1,0,0:0:0:0:
112,259,95938,1,0,0:0:0:0:
108,250,96009,1,0,0:0:0:0:
104,241,96080,1,0,0:0:0:0:
102,231,96150,1,0,0:0:0:0:
100,221,96222,1,0,0:0:0:0:
98,211,96292,1,0,0:0:0:0:
97,201,96364,1,0,0:0:0:0:
97,191,96434,1,0,0:0:0:0:
97,182,96505,1,0,0:0:0:0:
98,172,96575,1,0,0:0:0:0:
100,162,96646,1,0,0:0:0:0:
102,152,96716,1,0,0:0:0:0:
104,142,96787,1,0,0:0:0:0:
108,133,96857,1,0,0:0:0:0:
112,124,96927,1,0,0:0:0:0:
116,115,96996,1,0,0:0:0:0:
121,106,97067,1,0,0:0:0:0:
127,98,97136,1,0,0:0:0:0:
133,90,97207,1,0,0:0:0:0:
140,83,97276,1,0,0:0:0:0:
147,76,97346,1,0,0:0:0:0:
154,69,97415,1,0,0:0:0:0:
162,63,97485,1,0,0:0:0:0:
170,57,97554,1,0,0:0:0:0:
179,52,97624,1,0,0:0:0:0:
188,48,97693,1,0,0:0:0:0:
197,44,97762,1,0,0:0:0:0:
206,40,97830,1,0,0:0:0:0:
216,38,97900,1,0,0:0:0:0:
226,36,97968,1,0,0:0:0:0:
236,34,98038,1,0,0:0:0:0:
246,33,98106,1,0,0:0:0:0:
256,33,98175,1,0,0:0:0:0:
265,33,98243,1,0,0:0:0:0:
275,34,98312,1,0,0:0:0:0:
285,36,98380,1,0,0:0:0:0:
295,38,98449,1,0,0:0:0:0:
305,40,98517,1,0,0:0:0:0:
314,44,98585,1,0,0:0:0:0:
323,48,98653,1,0,0:0:0:0:
332,52,98721,1,0,0:0:0:0:
341,57,98788,1,0,0:0:0:0:
349,63,98857,1,0,0:0:0:0:
357,69,98924,1,0,0:0:0:0:
364,76,98992,1,0,0:0:0:0:
371,83,99059,1,0,0:0:0:0:
378,90,99127,1,0,0:0:0:0:
384,98,99194,1,0,0:0:0:0:
390,106,99262,1,0,0:0:0:0:
395,115,99329,1,0,0:0:0:0:
399,124,99397,1,0,0:0:0:0:
403,133,99464,1,0,0:0:0:0:
407,142,99531,1,0,0:0:0:0:
409,152,99597,1,0,0:0:0:0:
411,162,99665,1,0,0:0:0:0:
413,172,99731,1,0,0:0:0:0:
414,182,99799,1,0,0:0:0:0:
414,192,99865,1,0,0:0:0:0:
414,201,99932,1,0,0:0:0:0:
413,211,99998,1,0,0:0:0:0:
412,221,100065,1,0,0:0:0:0:
410,231,100131,1,0,0:0:0:0:
407,241,100197,1,0,0:0:0:0:
404,250,100264,1,0,0:0:0:0:
400,259,100330,1,0,0:0:0:0:
395,268,100396,1,0,0:0:0:0:
390,277,100462,1,0,0:0:0:0:
384,285,100527,1,0,0:0:0:0:
378,293,100593,1,0,0:0:0:0:
372,300,100659,1,0,0:0:0:0:
364,308,100725,1,0,0:0:0:0:
357,314,100791,1,0,0:0:0:0:
349,320,100857,1,0,0:0:0:0:
341,326,100922,1,0,0:0:0:0:
332,331,100988,1,0,0:0:0:0:
323,336,101053,1,0,0:0:0:0:
314,340,101119,1,0,0:0:0:0:
305,343,101184,1,0,0:0:0:0:
295,346,101249,1,0,0:0:0:0:
285,348,101314,1,0,0:0:0:0:
275,349,101379,1,0,0:0:0:0:
265,350,101443,1,0,0:0:0:0:
255,351,101509,1,0,0:0:0:0:
246,350,101573,1,0,0:0:0:0:
236,349,101639,1,0,0:0:0:0:
226,348,101703,1,0,0:0:0:0:
216,346,101768,1,0,0:0:0:0:
206,343,101832,1,0,0:0:0:0:
197,340,101897,1,0,0:0:0:0:
188,336,101961,1,0,0:0:0:0:
179,331,102026,1,0,0:0:0:0:
170,326,102090,1,0,0:0:0:0:
162,320,102154,1,0,0:0:0:0:
154,314,102218,1,0,0:0:0:0:
147,308,102282,1,0,0:0:0:0:
139,300,102345,1,0,0:0:0:0:
133,293,102410,1,0,0:0:0:0:
127,285,102473,1,0,0:0:0:0:
121,277,102538,1,0,0:0:0:0:
116,268,102601,1,0,0:0:0:0:
111,259,102665,1,0,0:0:0:0:
107,250,102728,1,0,0:0:0:0:
104,241,102792,1,0,0:0:0:0:
101,231,102855,1,0,0:0:0:0:
99,221,102919,1,0,0:0:0:0:
98,211,102982,1,0,0:0:0:0:
97,201,103046,1,0,0:0:0:0:
96,191,103109,1,0,0:0:0:0:
97,182,103172,1,0,0:0:0:0:
98,172,103235,1,0,0:0:0:0:
99,162,103298,1,0,0:0:0:0:
101,152,103360,1,0,0:0:0:0:
104,142,103424,1,0,0:0:0:0:
107,133,103486,1,0,0:0:0:0:
111,124,103550,1,0,0:0:0:0:
116,115,103612,1,0,0:0:0:0:
121,106,103675,1,0,0:0:0:0:
127,98,103737,1,0,0:0:0:0:
133,90,103800,1,0,0:0:0:0:
139,83,103862,1,0,0:0:0:0:
147,75,103925,1,0,0:0:0:0:
154,69,103987,1,0,0:0:0:0:
162,63,104049,1,0,0:0:0:0:
170,57,104111,1,0,0:0:0:0:
179,52,104173,1,0,0:0:0:0:
188,47,104234,1,0,0:0:0:0:
197,43,104297,1,0,0:0:0:0:
206,40,104358,1,0,0:0:0:0:
216,37,104421,1,0,0:0:0:0:
226,35,104482,1,0,0:0:0:0:
236,34,104544,1,0,0:0:0:0:
246,33,104605,1,0,0:0:0:0:
256,32,104667,1,0,0:0:0:0:
265,33,104728,1,0,0:0:0:0:
275,34,104790,1,0,0:0:0:0:
285,35,104851,1,0,0:0:0:0:
295,37,104913,1,0,0:0:0:0:
305,40,104974,1,0,0:0:0:0:
314,43,105035,1,0,0:0:0:0:
323,47,105096,1,0,0:0:0:0:
332,52,105157,1,0,0:0:0:0:
341,57,105217,1,0,0:0:0:0:
349,63,105279,1,0,0:0:0:0:
357,69,105339,1,0,0:0:0:0:
364,75,105401,1,0,0:0:0:0:
372,83,105461,1,0,0:0:0:0:
378,90,105522,1,0,0:0:0:0:
384,98,105582,1,0,0:0:0:0:
390,106,105643,1,0,0:0:0:0:
395,115,105703,1,0,0:0:0:0:
400,124,105764,1,0,0:0:0:0:
404,133,105824,1,0,0:0:0:0:
407,142,105885,1,0,0:0:0:0:
410,152,105945,1,0,0:0:0:0:
412,162,106005,1,0,0:0:0:0:
413,172,106065,1,0,0:0:0:0:
414,182,106125,1,0,0:0:0:0:
415,192,106185,1,0,0:0:0:0:
414,201,106245,5,0,0:0:0:0:
413,211,106304,1,0,0:0:0:0:
412,221,106364,1,0,0:0:0:0:
410,231,106424,1,0,0:0:0:0:
407,241,106484,1,0,0:0:0:0:
404,250,106544,1,0,0:0:0:0:
400,259,106604,1,0,0:0:0:0:
395,268,106663,1,0,0:0:0:0:
390,277,106723,1,0,0:0:0:0:
384,285,106782,1,0,0:0:0:0:
378,293,106841,1,0,0:0:0:0:
372,300,106901,1,0,0:0:0:0:
364,308,106960,1,0,0:0:0:0:
357,314,107020,1,0,0:0:0:0:
349,320,107079,1,0,0:0:0:0:
341,326,107138,1,0,0:0:0:0:
332,331,107197,1,0,0:0:0:0:
323,336,107255,1,0,0:0:0:0:
314,340,107314,1,0,0:0:0:0:
305,343,107373,1,0,0:0:0:0:
295,346,107432,1,0,0:0:0:0:
285,348,107491,1,0,0:0:0:0:
275,349,107550,1,0,0:0:0:0:
265,350,107608,1,0,0:0:0:0:
255,351,107667,1,0,0:0:0:0:
246,350,107725,1,0,0:0:0:0:
236,349,107784,1,0,0:0:0:0:
226,348,107842,1,0,0:0:0:0:
216,346,107901,1,0,0:0:0:0:
206,343,107959,1,0,0:0:0:0:
197,340,108018,1,0,0:0:0:0:
188,336,108076,1,0,0:0:0:0:
179,331,108134,1,0,0:0:0:0:
170,326,108192,1,0,0:0:0:0:
162,320,108250,1,0,0:0:0:0:
154,314,108307,1,0,0:0:0:0:
147,308,108366,1,0,0:0:0:0:
139,300,108423,1,0,0:0:0:0:
133,293,108482,1,0,0:0:0:0:
127,285,108539,1,0,0:0:0:0:
121,277,108597,1,0,0:0:0:0:
116,268,108654,1,0,0:0:0:0:
111,259,108712,1,0,0:0:0:0:
107,250,108769,1,0,0:0:0:0:
104,241,108827,1,0,0:0:0:0:
101,231,108884,1,0,0:0:0:0:
99,221,108942,1,0,0:0:0:0:
98,211,108999,1,0,0:0:0:0:
97,201,109057,1,0,0:0:0:0:
96,191,109114,1,0,0:0:0:0:
97,182,109171,1,0,0:0:0:0:
98,172,109228,1,0,0:0:0:0:
99,162,109285,1,0,0:0:0:0:
101,152,109341,1,0,0:0:0:0:
104,142,109399,1,0,0:0:0:0:
107,133,109455,1,0,0:0:0:0:
111,124,109513,1,0,0:0:0:0:
116,115,109569,1,0,0:0:0:0:
121,106,109626,1,0,0:0:0:0:
127,98,109682,1,0,0:0:0:0:
133,90,109739,1,0,0:0:0:0:
139,83,109795,1,0,0:0:0:0:
147,75,109852,1,0,0:0:0:0:
154,69,109908,1,0,0:0:0:0:
162,63,109965,1,0,0:0:0:0:
170,57,110021,1,0,0:0:0:0:
179,52,110078,1,0,0:0:0:0:
188,47,110134,1,0,0:0:0:0:
197,43,110190,1,0,0:0:0:0:
206,40,110246,1,0,0:0:0:0:
216,37,110302,1,0,0:0:0:0:
226,35,110357,1,0,0:0:0:0:
236,34,110414,1,0,0:0:0:0:
246,33,110469,1,0,0:0:0:0:
256,32,110526,1,0,0:0:0:0:
265,33,110581,1,0,0:0:0:0:
275,34,110638,1,0,0:0:0:0:
285,35,110693,1,0,0:0:0:0:
295,37,110749,1,0,0:0:0:0:
305,40,110804,1,0,0:0:0:0:
314,43,110860,1,0,0:0:0:0:
323,47,110915,1,0,0:0:0:0:
332,52,110971,1,0,0:0:0:0:
341,57,111026,1,0,0:0:0:0:
349,63,111082,1,0,0:0:0:0:
357,69,111137,1,0,0:0:0:0:
364,75,111192,1,0,0:0:0:0:
372,83,111247,1,0,0:0:0:0:
378,90,111302,1,0,0:0:0:0:
384,98,111357,1,0,0:0:0:0:
390,106,111412,1,0,0:0:0:0:
395,115,111466,1,0,0:0:0:0:
400,124,111522,1,0,0:0:0:0:
404,133,111576,1,0,0:0:0:0:
407,142,111632,1,0,0:0:0:0:
410,152,111686,1,0,0:0:0:0:
412,162,111741,1,0,0:0:0:0:
413,172,111795,1,0,0:0:0:0:
414,182,111850,1,0,0:0:0:0:
415,192,111904,1,0,0:0:0:0:
414,201,111959,1,0,0:0:0:0:
413,211,112013,1,0,0:0:0:0:
412,221,112067,1,0,0:0:0:0:
410,231,112122,1,0,0:0:0:0:
407,241,112176,1,0,0:0:0:0:
404,250,112231,1,0,0:0:0:0:
400,259,112285,1,0,0:0:0:0:
395,268,112340,1,0,0:0:0:0:
390,277,112394,1,0,0:0:0:0:
384,285,112448,1,0,0:0:0:0:
378,293,112502,1,0,0:0:0:0:
372,300,112555,1,0,0:0:0:0:
364,308,112609,1,0,0:0:0:0:
357,314,112663,1,0,0:0:0:0:
349,320,112717,1,0,0:0:0:0:
341,326,112771,1,0,0:0:0:0:
332,331,112825,1,0,0:0:0:0:
323,336,112879,1,0,0:0:0:0:
314,340,112933,1,0,0:0:0:0:
305,343,112986,1,0,0:0:0:0:
295,346,113040,1,0,0:0:0:0:
285,348,113093,1,0,0:0:0:0:
275,349,113147,1,0,0:0:0:0:
265,350,113200,1,0,0:0:0:0:
255,351,113254,1,0,0:0:0:0:
246,350,113307,1,0,0:0:0:0:
236,349,113361,1,0,0:0:0:0:
226,348,113414,1,0,0:0:0:0:
216,346,113467,1,0,0:0:0:0:
206,343,113520,1,0,0:0:0:0:
197,340,113573,1,0,0:0:0:0:
188,336,113626,1,0,0:0:0:0:
179,331,113679,1,0,0:0:0:0:
170,326,113731,1,0,0:0:0:0:
162,320,113785,1,0,0:0:0:0:
154,314,113837,1,0,0:0:0:0:
147,308,113891,1,0,0:0:0:0:
139,300,113943,1,0,0:0:0:0:
133,293,113996,1,0,0:0:0:0:
127,285,114048,1,0,0:0:0:0:
121,277,114101,1,0,0:0:0:0:
116,268,114153,1,0,0:0:0:0:
111,259,114206,1,0,0:0:0:0:
107,250,114258,1,0,0:0:0:0:
104,241,114311,1,0,0:0:0:0:
