osu file format v14

[General]
AudioFilename: deltaMAX.mp3
AudioLeadIn: 1000
PreviewTime: 50149
Countdown: 1
SampleSet: Normal
StackLeniency: 0.2
Mode: 0
LetterboxInBreaks: 1
WidescreenStoryboard: 1

[Editor]
Bookmarks: 11850,28439,41420,52084,61137,75952,87824,97731,106231,113676,116246
DistanceSpacing: 0.5
BeatDivisor: 12
GridSize: 4
TimelineZoom: 8

[Metadata]
Title:deltaMAX
TitleUnicode:deltaMAX
Artist:DM Ashura
ArtistUnicode:DM Ashura
Creator:lsckjy
Version:deathstack 1/12
Source:DDR Forever
Tags:Dance Dance Revolution Universe 3 stepmania ignorethis lzy Doomsday tsuka Frank7654321
BeatmapID:824332
BeatmapSetID:367807

[Difficulty]
HPDrainRate:5
CircleSize:3
OverallDifficulty:0
ApproachRate:10
SliderMultiplier:2
SliderTickRate:0.5

[Events]
//Background and Video events
0,0,"deltaMAX-bg.png",0,0
//Break Periods
//Storyboard Layer 0 (Background)
//Storyboard Layer 1 (Fail)
//Storyboard Layer 2 (Pass)
//Storyboard Layer 3 (Foreground)
Sprite,Foreground,Centre,"nothing.png",320,240 F,0,125410,,0
//Storyboard Sound Samples

[TimingPoints]
315,600,4,1,0,80,1,0
8715,-100,4,1,0,17,0,0
9915,594.088816278034,4,1,0,40,1,1
10509,588.264130594637,4,1,0,40,1,0
11097,582.552551094713,4,1,0,40,1,0
11680,576.950814943026,4,1,0,40,1,0
12257,571.455783608743,4,1,0,40,1,0
12828,566.064437001745,4,1,0,40,1,0
13394,560.773867937754,4,1,0,40,1,0
13955,555.581276910968,4,1,0,40,1,0
14511,550.483967154457,4,1,0,40,1,0
15061,545.479339969999,4,1,0,40,1,0
15606,540.564890310374,4,1,0,40,1,0
16147,535.73820259833,4,1,0,40,1,0
16683,530.996946767556,4,1,0,40,1,0
17214,526.33887451204,4,1,0,40,1,0
17740,521.761815731119,4,1,0,40,1,0
18262,517.263675158412,4,1,0,40,1,0
18779,512.84242916364,4,1,0,40,1,0
19292,508.496122717064,4,1,0,40,1,0
19800,504.222866506996,4,1,0,40,1,0
20304,500.020834201425,4,1,0,40,1,0
20804,495.888259845448,4,1,0,40,1,0
21300,491.823435386696,4,1,0,40,1,0
21792,487.824708321476,4,1,0,40,1,0
22280,483.890479454817,4,1,0,40,1,0
22764,480.019200768031,4,1,0,40,1,0
23244,476.209373387833,4,1,0,40,1,0
23720,472.459545651404,4,1,0,40,1,0
24192,468.768311262159,4,1,0,40,1,0
24661,465.1343075313,4,1,0,40,1,0
25126,461.556213700527,4,1,0,40,1,0
25588,458.032749341578,4,1,0,40,1,0
26046,454.562672828516,4,1,0,40,1,0
26501,451.144779878943,4,1,0,45,1,0
26952,447.777902160528,4,1,0,45,1,0
27400,444.46090595948,4,1,0,45,1,0
27844,441.192690907754,4,1,0,45,1,0
28285,437.972188766013,4,1,0,45,1,0
28723,434.798362259502,4,1,0,45,1,0
29158,431.670203964171,4,1,0,45,1,0
29590,428.586735240544,4,1,0,45,1,0
30019,425.547005212951,4,1,0,45,1,0
30445,422.550089791894,4,1,0,45,1,0
30868,419.595090737438,4,1,0,45,1,0
31288,416.681134761624,4,1,0,45,1,0
31705,413.807372668023,4,1,0,45,1,0
32119,410.972978526662,4,1,0,45,1,0
32530,408.177148882615,4,1,0,45,1,0
32938,405.419101996689,4,1,0,45,1,0
33343,402.698077116682,4,1,0,45,1,0
33746,400.013333777793,4,1,0,45,1,0
34146,397.364151130832,4,1,0,45,1,0
34543,394.749827296951,4,1,0,45,1,0
34938,392.169678747671,4,1,0,45,1,0
35330,389.623039709081,4,1,0,45,1,0
35720,387.109261589084,4,1,0,45,1,0
36107,384.62771242668,4,1,0,45,1,0
36492,382.177776362305,4,1,0,45,1,0
36874,379.758853128264,4,1,0,45,1,0
37254,377.370357558414,4,1,0,45,1,0
37631,375.011719116222,4,1,0,45,1,0
38006,372.682381440417,4,1,0,45,1,0
38379,370.381801907466,4,1,0,45,1,0
38749,368.10945121016,4,1,0,45,1,0
39117,365.864812951614,4,1,0,45,1,0
39483,363.647383254038,4,1,0,50,1,0
39847,361.456670381638,4,1,0,50,1,0
40208,359.292194377077,4,1,0,50,1,0
40567,357.153486710914,4,1,0,50,1,0
40924,355.040089943489,4,1,0,50,1,0
41279,352.951557398747,4,1,0,50,1,0
41632,350.887452849499,4,1,0,50,1,0
41983,348.847350213669,4,1,0,50,1,0
42332,346.830833261077,4,1,0,50,1,0
42679,344.837495330326,4,1,0,50,1,0
43024,342.866939055402,4,1,0,50,1,0
43367,340.918776101594,4,1,0,50,1,0
43708,338.992626910365,4,1,0,50,1,0
44047,337.088120452822,4,1,0,50,1,0
44384,335.204893991452,4,1,0,50,1,0
44719,333.342592849801,4,1,0,50,1,0
45052,331.500870189784,4,1,0,50,1,0
45384,329.679386796341,4,1,0,50,1,0
45714,327.877810869149,4,1,0,50,1,0
46042,326.095817821136,4,1,0,50,1,0
46368,324.333090083516,4,1,0,50,1,0
46692,322.589316917121,4,1,0,50,1,0
47015,320.864194229792,4,1,0,50,1,0
47336,319.157424399585,4,1,0,50,1,0
47655,317.468716103601,4,1,0,50,1,0
47972,315.797784152215,4,1,0,50,1,0
48288,314.144349328516,4,1,0,50,1,0
48602,312.508138232766,4,1,0,50,1,0
48915,310.888883131687,4,1,0,50,1,0
49226,309.286321812418,4,1,0,50,1,0
49535,307.70019744096,4,1,0,50,1,0
49843,306.13025842496,4,1,0,50,1,0
50149,304.576258280667,4,1,0,55,1,1
50454,303.037955503927,4,1,0,55,1,1
50757,301.515113445061,4,1,0,55,1,1
51059,300.007500187505,4,1,0,55,1,1
51359,298.51488843006,4,1,0,55,1,1
51658,297.037055372658,4,1,0,55,1,1
51955,295.573782605483,4,1,0,55,1,1
52251,294.124856001373,4,1,0,55,1,1
52545,292.690065611356,4,1,0,55,1,1
52838,291.269205563242,4,1,0,55,1,1
53129,289.862073963139,4,1,0,55,1,1
53419,288.468472799827,4,1,0,55,1,1
53707,287.088207851862,4,1,0,55,1,1
53994,285.721088597348,4,1,0,55,1,1
54280,284.366928126259,4,1,0,55,1,1
54564,283.025543055261,4,1,0,55,1,1
54847,281.696753444917,4,1,0,55,1,1
55129,280.380382719222,4,1,0,55,1,1
55409,279.076257587386,4,1,0,55,1,1
55688,277.784207967777,4,1,0,55,1,1
55966,276.504066913984,4,1,0,55,1,1
56243,275.235670542902,4,1,0,55,1,1
56518,273.978857964794,4,1,0,55,1,1
56792,272.733471215255,4,1,0,55,1,1
57065,271.499355189031,4,1,0,55,1,1
57336,270.276357575621,4,1,0,55,1,1
57606,269.06432879661,4,1,0,55,1,1
57875,267.863121944686,4,1,0,55,1,1
58143,266.672592724283,4,1,0,55,1,1
58410,265.492599393792,4,1,0,55,1,1
58675,264.323002709311,4,1,0,55,1,1
58939,263.163665869866,4,1,0,55,1,1
59202,262.014454464071,4,1,0,60,1,1
59202,-200,4,1,0,60,0,1
59464,260.875236418183,4,1,0,60,1,0
59725,259.745881945497,4,1,0,60,1,0
59985,258.626263497058,4,1,0,60,1,0
60244,257.516255713642,4,1,0,60,1,0
60502,256.415735378961,4,1,0,60,1,0
60758,255.324581374072,4,1,0,60,1,0
61013,254.242674632937,4,1,0,60,1,0
61267,253.169898099116,4,1,0,60,1,0
61267,-200,4,1,0,60,0,0
61520,252.106136683544,4,1,0,60,1,0
61772,251.051277223373,4,1,0,60,1,0
62023,250.005208441843,4,1,0,60,1,0
62273,248.967820909147,4,1,0,60,1,0
62522,247.939007004277,4,1,0,60,1,0
62770,246.918660877796,4,1,0,60,1,0
63017,245.906678415541,4,1,0,60,1,0
63262,244.902957203208,4,1,0,60,1,0
63262,-200,4,1,0,60,0,0
63508,243.907396491799,4,1,0,60,1,0
63752,242.91989716391,4,1,0,60,1,0
63995,241.940361700841,4,1,0,60,1,0
64237,240.968694150485,4,1,0,60,1,0
64478,240.004800096002,4,1,0,60,1,0
64718,239.048586625232,4,1,0,60,1,0
64957,238.099962300839,4,1,0,60,1,0
65195,237.158837131169,4,1,0,60,1,0
65195,-200,4,1,0,60,0,0
65432,236.225122541782,4,1,0,60,1,0
65668,235.298731347673,4,1,0,60,1,0
65903,234.379577726127,4,1,0,60,1,0
66137,233.467577190218,4,1,0,60,1,0
66370,232.562646562918,4,1,0,60,1,0
66603,231.664703951814,4,1,0,60,1,0
66835,230.773668724399,4,1,0,60,1,0
67066,229.889461483936,4,1,0,60,1,0
67066,-200,4,1,0,60,0,0
67296,229.012004045879,4,1,0,60,1,0
67525,228.141219414818,4,1,0,60,1,0
67753,227.277031761965,4,1,0,60,1,0
67980,226.41936640314,4,1,0,60,1,0
68206,225.568149777251,4,1,0,60,1,0
68432,224.72330942527,4,1,0,60,1,0
68657,223.884773969664,4,1,0,60,1,0
68881,223.052473094295,4,1,0,60,1,0
68881,-200,4,1,0,60,0,0
69104,222.226337524769,4,1,0,60,1,0
69326,221.406299009207,4,1,0,60,1,0
69547,220.592290299454,4,1,0,60,1,0
69768,219.784245132695,4,1,0,60,1,0
69988,218.982098213471,4,1,0,60,1,0
70207,218.185785196094,4,1,0,60,1,0
70425,217.39524266744,4,1,0,60,1,0
70642,216.610408130111,4,1,0,60,1,0
70642,-200,4,1,0,60,0,0
70859,215.831219985971,4,1,0,60,1,0
71075,215.057617520027,4,1,0,60,1,0
71290,214.289540884659,4,1,0,60,1,0
71504,213.526931084183,4,1,0,60,1,0
71718,212.769729959751,4,1,0,60,1,0
71931,212.017880174561,4,1,0,60,1,0
72143,211.271325199387,4,1,0,60,1,0
72354,210.530009298409,4,1,0,60,1,0
72354,-200,4,1,0,60,0,0
72565,209.793877515341,4,1,0,60,1,0
72775,209.062875659855,4,1,0,60,1,0
72984,208.336950294276,4,1,0,60,1,0
73192,207.616048720566,4,1,0,60,1,0
73400,206.900118967568,4,1,0,60,1,0
73607,206.189109778519,4,1,0,60,1,0
73813,205.482970598812,4,1,0,60,1,0
74018,204.78165156402,4,1,0,65,1,0
74223,204.085103488155,4,1,1,65,1,0
74427,203.393277852167,4,1,1,65,1,0
74630,202.706126792682,4,1,1,65,1,0
74833,202.023603090961,4,1,1,65,1,0
75035,201.345660162083,4,1,1,65,1,0
75236,200.672252044349,4,1,1,65,1,0
75437,200.00333338889,4,1,1,65,1,0
75637,199.338859449493,4,1,1,65,1,0
75836,198.678786072617,4,1,1,65,1,0
76035,198.023069687619,4,1,1,65,1,0
76233,197.371667297159,4,1,1,65,1,0
76430,196.724536467811,4,1,1,65,1,0
76627,196.081635320839,4,1,1,65,1,0
76823,195.442922523168,4,1,1,65,1,0
77018,194.808357278527,4,1,1,65,1,0
77213,194.177899318759,4,1,1,65,1,0
77407,193.551508895305,4,1,1,65,1,0
77601,192.929146770848,4,1,1,65,1,0
77794,192.310774211125,4,1,1,65,1,0
77986,191.696352976885,4,1,1,65,1,0
78178,191.085845316008,4,1,1,65,1,0
78369,190.479213955777,4,1,1,65,1,0
78559,189.876422095286,4,1,1,65,1,0
78749,189.277433398003,4,1,1,65,1,0
78938,188.682211984465,4,1,1,65,1,0
79127,188.090722425116,4,1,1,65,1,0
79315,187.502929733277,4,1,1,65,1,0
79503,186.918799358245,4,1,1,65,1,0
79690,186.338297178528,4,1,1,65,1,0
79876,185.761389495193,4,1,1,65,1,0
80062,185.188043025355,4,1,1,65,1,0
80247,184.618224895768,4,1,1,65,1,0
80432,184.051902636544,4,1,1,65,1,0
80616,183.489044174987,4,1,1,65,1,0
80799,182.92961782954,4,1,1,65,1,0
80982,182.373592303834,4,1,1,65,1,0
81164,181.820936680859,4,1,1,65,1,0
81346,181.271620417227,4,1,1,65,1,0
81527,180.72561333755,4,1,1,65,1,0
81708,180.182885628913,4,1,1,65,1,0
81888,179.643407835447,4,1,1,65,1,0
82068,179.107150852998,4,1,1,65,1,0
82247,178.574085923898,4,1,1,65,1,0
82426,178.044184631819,4,1,1,65,1,0
82604,177.517418896729,4,1,1,65,1,0
82782,176.993760969926,4,1,1,65,1,0
82959,176.473183429168,4,1,1,65,1,0
83135,175.955659173888,4,1,1,65,1,0
83311,175.441161420489,4,1,1,65,1,0
83486,174.929663697722,4,1,1,65,1,0
83661,174.421139842149,4,1,1,65,1,0
83835,173.915563993681,4,1,1,65,1,0
84009,173.412910591194,4,1,1,65,1,0
84182,172.913154368219,4,1,1,65,1,0
84355,172.416270348712,4,1,1,65,1,0
84527,171.922233842892,4,1,1,65,1,0
84699,171.431020443149,4,1,1,65,1,0
84870,170.942606020029,4,1,1,65,1,0
85041,170.456966718277,4,1,1,65,1,0
85211,169.97407895296,4,1,1,65,1,0
85381,169.493919405641,4,1,1,65,1,0
85550,169.016465020634,4,1,1,65,1,0
85719,168.541693001306,4,1,1,65,1,0
85888,168.069580806454,4,1,1,70,1,1
86056,167.600106146734,4,1,1,70,1,1
86224,167.133246981156,4,1,1,70,1,1
86391,166.668981513632,4,1,1,70,1,1
86558,166.207288189587,4,1,1,70,1,1
86724,165.74814569262,4,1,1,70,1,1
86890,165.291532941225,4,1,1,70,1,1
87055,164.837429085564,4,1,1,70,1,1
87220,164.385813504295,4,1,1,70,1,1
87384,163.936665801445,4,1,1,70,1,1
87548,163.489965803349,4,1,1,70,1,1
87711,163.045693555619,4,1,1,70,1,1
87874,162.60382932018,4,1,1,70,1,1
88037,162.164353572346,4,1,1,70,1,1
88199,161.727246997938,4,1,1,70,1,1
88361,161.292490490464,4,1,1,70,1,1
88522,160.860065148326,4,1,1,70,1,1
88683,160.429952272089,4,1,1,70,1,1
88843,160.002133361778,4,1,1,70,1,1
89003,159.57659011423,4,1,1,70,1,1
89163,159.153304420483,4,1,1,70,1,1
89322,158.732258363206,4,1,1,70,1,1
89481,158.313434214172,4,1,1,70,1,1
89639,157.896814431769,4,1,1,70,1,1
89797,157.482381658552,4,1,1,70,1,1
89954,157.070118718831,4,1,1,70,1,1
90111,156.6600086163,4,1,1,70,1,1
90268,156.2520345317,4,1,1,70,1,1
90424,155.846179820517,4,1,1,70,1,1
90580,155.442428010726,4,1,1,70,1,1
90735,155.040762800553,4,1,1,70,1,1
90890,154.641168056289,4,1,1,70,1,1
91045,154.243627810126,4,1,1,70,1,1
91199,153.848126258029,4,1,1,70,1,1
91353,153.454647757644,4,1,1,70,1,1
91506,153.063176826235,4,1,1,70,1,1
91659,152.673698138653,4,1,1,70,1,1
91812,152.286196525337,4,1,1,70,1,1
91964,151.900656970341,4,1,1,70,1,1
92116,151.517064609402,4,1,1,70,1,1
92268,151.135404728019,4,1,1,70,1,1
92419,150.755662759582,4,1,1,70,1,1
92570,150.377824283512,4,1,1,70,1,1
92720,150.001875023438,4,1,1,70,1,1
92870,149.627800845397,4,1,1,70,1,1
93020,149.255587756067,4,1,1,70,1,1
93169,148.885221901016,4,1,1,70,1,1
93318,148.51668956299,4,1,1,70,1,1
93467,148.149977160212,4,1,1,70,1,1
93615,147.78507124472,4,1,1,70,1,1
93763,147.421958500719,4,1,1,70,1,1
93910,147.060625742963,4,1,1,70,1,1
94057,146.701059915158,4,1,1,70,1,1
94204,146.343248088391,4,1,1,70,1,1
94350,145.98717745958,4,1,1,70,1,1
94496,145.632835349944,4,1,1,70,1,1
94642,145.280209203501,4,1,1,70,1,1
94787,144.929286585587,4,1,1,70,1,1
94932,144.580055181388,4,1,1,70,1,1
95077,144.232502794505,4,1,1,70,1,1
95221,143.886617345532,4,1,1,70,1,1
95365,143.542386870656,4,1,1,70,1,1
95509,143.199799520281,4,1,1,70,1,1
95652,142.858843557661,4,1,1,70,1,1
95795,142.51950735757,4,1,1,75,1,1
95938,142.181779404969,4,1,1,75,1,1
96080,141.845648293715,4,1,1,75,1,1
96222,141.511102725268,4,1,1,75,1,1
96364,141.178131507429,4,1,1,75,1,1
96505,140.846723553093,4,1,1,75,1,1
96646,140.516867879015,4,1,1,75,1,1
96787,140.188553604598,4,1,1,75,1,1
96927,139.861769950699,4,1,1,75,1,1
97067,139.536506238445,4,1,1,75,1,1
97207,139.212751888073,4,1,1,75,1,1
97346,138.890496417783,4,1,1,75,1,1
97485,138.569729442603,4,1,1,75,1,1
97624,138.25044067328,4,1,1,75,1,1
97762,137.932619915171,4,1,1,75,1,1
97900,137.616257067168,4,1,1,75,1,1
98038,137.301342120619,4,1,1,75,1,1
98175,136.987865158278,4,1,1,75,1,1
98312,136.675816353261,4,1,1,75,1,1
98449,136.365185968022,4,1,1,75,1,1
98585,136.055964353337,4,1,1,75,1,1
98721,135.748141947307,4,1,1,75,1,1
98857,135.441709274371,4,1,1,75,1,1
98992,135.136656944335,4,1,1,75,1,1
99127,134.832975651412,4,1,1,75,1,1
99262,134.530656173275,4,1,1,75,1,1
99397,134.229689370127,4,1,1,75,1,1
99531,133.930066183774,4,1,1,75,1,1
99665,133.631777636722,4,1,1,75,1,1
99799,133.334814831276,4,1,1,75,1,1
99932,133.039168948658,4,1,1,75,1,1
100065,132.744831248133,4,1,1,75,1,1
100198,132.451793066149,4,1,1,75,1,1
100330,132.160045815483,4,1,1,75,1,1
100462,131.869580984406,4,1,1,75,1,1
100594,131.580390135857,4,1,1,75,1,1
100726,131.292464906618,4,1,1,75,1,1
100857,131.005797006518,4,1,1,75,1,1
100988,130.720378217628,4,1,1,75,1,1
101119,130.436200393483,4,1,1,75,1,1
101249,130.153255458302,4,1,1,75,1,1
101379,129.871535406227,4,1,1,75,1,1
101509,129.591032300565,4,1,1,75,1,1
101639,129.311738273042,4,1,1,75,1,1
101768,129.03364552307,4,1,1,75,1,1
101897,128.756746317021,4,1,1,75,1,1
102026,128.481032987505,4,1,1,75,1,1
102154,128.20649793267,4,1,1,75,1,1
102282,127.933133615497,4,1,1,75,1,1
102410,127.660932563112,4,1,1,75,1,1
102538,127.389887366108,4,1,1,75,1,1
102665,127.119990677867,4,1,1,75,1,1
102792,126.851235213903,4,1,1,75,1,1
102919,126.5836137512,4,1,1,75,1,1
103046,126.31711912757,4,1,1,75,1,1
103172,126.051744241011,4,1,1,75,1,1
103298,125.787482049078,4,1,1,75,1,1
103424,125.524325568259,4,1,1,75,1,1
103550,125.26226787336,4,1,1,75,1,1
103675,125.001302096897,4,1,1,75,1,1
103800,124.741421428497,4,1,1,75,1,1
103925,124.482619114306,4,1,1,75,1,1
104049,124.224888456402,4,1,1,75,1,1
104173,123.968222812219,4,1,1,75,1,1
104297,123.712615593975,4,1,1,80,1,1
104421,123.45806026811,4,1,1,80,1,1
104544,123.204550354726,4,1,1,80,1,1
104667,122.952079427043,4,1,1,80,1,1
104790,122.70064111085,4,1,1,80,1,1
104913,122.45022908397,4,1,1,80,1,1
105035,122.200837075734,4,1,1,80,1,1
105157,121.952458866452,4,1,1,80,1,1
105279,121.705088286899,4,1,1,80,1,1
105401,121.458719217806,4,1,1,80,1,1
105522,121.213345589349,4,1,1,80,1,1
105643,120.968961380659,4,1,1,80,1,1
105764,120.725560619322,4,1,1,80,1,1
105885,120.483137380897,4,1,1,80,1,1
106005,120.241685788435,4,1,1,80,1,1
106125,120.001200012,4,1,1,80,1,1
106245,119.761674268206,4,1,1,80,1,1
106365,119.523102819749,4,1,1,80,1,1
106485,119.28547997495,4,1,1,80,1,1
106604,119.048800087302,4,1,1,80,1,1
106723,118.813057555025,4,1,1,80,1,1
106842,118.578246820621,4,1,1,80,1,1
106961,118.344362370438,4,1,1,80,1,1
107079,118.11139873424,4,1,1,80,1,1
107197,117.879350484779,4,1,1,80,1,1
107315,117.648212237375,4,1,1,80,1,1
107433,117.417978649498,4,1,1,80,1,1
107550,117.188644420356,4,1,1,80,1,1
107667,116.96020429049,4,1,1,80,1,1
107784,116.732653041372,4,1,1,80,1,1
107901,116.505985495005,4,1,1,80,1,1
108018,116.280196513532,4,1,1,80,1,1
108134,116.055280998849,4,1,1,80,1,1
108250,115.831233892219,4,1,1,80,1,1
108366,115.608050173894,4,1,1,80,1,1
108482,115.385724862739,4,1,1,80,1,1
108597,115.164253015864,4,1,1,80,1,1
108712,114.943629728254,4,1,1,80,1,1
108827,114.72385013241,4,1,1,80,1,1
108942,114.50490939799,4,1,1,80,1,1
109057,114.286802731455,4,1,1,80,1,1
109171,114.069525375716,4,1,1,80,1,1
109285,113.853072609797,4,1,1,80,1,1
109399,113.637439748482,4,1,1,80,1,1
109513,113.422622141986,4,1,1,80,1,1
109626,113.208615175615,4,1,1,80,1,1
109739,112.995414269438,4,1,1,80,1,1
109852,112.783014877959,4,1,1,80,1,1
109965,112.571412489798,4,1,1,80,1,1
110078,112.360602627365,4,1,1,80,1,1
110190,112.15058084655,4,1,1,80,1,1
110302,111.941342736406,4,1,1,80,1,1
110414,111.732883918845,4,1,1,80,1,1
110526,111.525200048328,4,1,1,80,1,1
110638,111.318286811566,4,1,1,80,1,1
110749,111.112139927222,4,1,1,80,1,1
110860,110.906755145611,4,1,1,80,1,1
110971,110.702128248416,4,1,1,80,1,1
111082,110.498255048389,4,1,1,80,1,1
111192,110.295131389075,4,1,1,80,1,1
111302,110.092753144524,4,1,1,80,1,1
111412,109.891116219013,4,1,1,80,1,1
111522,109.690216546769,4,1,1,80,1,1
111632,109.490050091698,4,1,1,80,1,1
111741,109.290612847112,4,1,1,90,1,1
111850,109.091900835462,4,1,1,90,1,1
111959,108.893910108077,4,1,1,90,1,1
112068,108.696636744898,4,1,1,90,1,1
112177,108.500076854221,4,1,1,90,1,1
112286,108.304226572442,4,1,1,90,1,1
112394,108.109082063802,4,1,1,90,1,1
112502,107.91463952014,4,1,1,90,1,1
112610,107.720895160639,4,1,1,90,1,1
112718,107.527845231588,4,1,1,90,1,1
112826,107.335486006136,4,1,1,90,1,1
112933,107.143813784052,4,1,1,90,1,1
113040,106.952824891487,4,1,1,90,1,1
113147,106.762515680744,4,1,1,90,1,1
113254,106.57288253004,4,1,1,90,1,1
113361,106.383921843279,4,1,1,90,1,1
113467,106.195630049823,4,1,1,90,1,1
113573,106.008003604272,4,1,1,90,1,1
113679,105.821038986234,4,1,1,90,1,1
113785,105.634732700112,4,1,1,90,1,1
113891,105.449081274879,4,1,1,90,1,1
113996,105.264081263871,4,1,1,90,1,1
114101,105.079729244564,4,1,1,90,1,1
114206,104.896021818373,4,1,1,90,1,1
114337,-100,4,1,1,100,0,0

[Colours]
Combo1 : 0,255,0
Combo2 : 244,0,6
Combo3 : 129,69,252
Combo4 : 255,255,255

[HitObjects]
415,198,9915,5,0,0:0:0:0:
414,205,9964,1,0,0:0:0:0:
413,211,10014,1,0,0:0:0:0:
412,218,10063,1,0,0:0:0:0:
411,225,10113,1,0,0:0:0:0:
410,231,10162,1,0,0:0:0:0:
408,238,10212,1,0,0:0:0:0:
406,244,10261,1,0,0:0:0:0:
403,250,10311,1,0,0:0:0:0:
401,256,10360,1,0,0:0:0:0:
398,262,10410,1,0,0:0:0:0:
395,268,10459,1,0,0:0:0:0:
392,274,10509,1,0,0:0:0:0:
388,280,10558,1,0,0:0:0:0:
384,285,10607,1,0,0:0:0:0:
380,290,10656,1,0,0:0:0:0:
376,296,10705,1,0,0:0:0:0:
372,300,10754,1,0,0:0:0:0:
367,305,10803,1,0,0:0:0:0:
362,310,10852,1,0,0:0:0:0:
357,314,10901,1,0,0:0:0:0:
352,318,10950,1,0,0:0:0:0:
346,322,10999,1,0,0:0:0:0:
341,326,11048,1,0,0:0:0:0:
335,329,11097,1,0,0:0:0:0:
329,333,11145,1,0,0:0:0:0:
323,336,11194,1,0,0:0:0:0:
317,338,11242,1,0,0:0:0:0:
311,341,11291,1,0,0:0:0:0:
305,343,11339,1,0,0:0:0:0:
298,345,11388,1,0,0:0:0:0:
292,346,11436,1,0,0:0:0:0:
285,348,11485,1,0,0:0:0:0:
279,349,11533,1,0,0:0:0:0:
272,350,11582,1,0,0:0:0:0:
265,350,11631,1,0,0:0:0:0:
259,351,11680,1,0,0:0:0:0:
252,351,11728,1,0,0:0:0:0:
246,350,11776,1,0,0:0:0:0:
239,350,11824,1,0,0:0:0:0:
232,349,11872,1,0,0:0:0:0:
226,348,11920,1,0,0:0:0:0:
219,346,11968,1,0,0:0:0:0:
213,345,12016,1,0,0:0:0:0:
206,343,12064,1,0,0:0:0:0:
200,341,12112,1,0,0:0:0:0:
194,338,12160,1,0,0:0:0:0:
188,336,12208,1,0,0:0:0:0:
182,333,12257,1,0,0:0:0:0:
176,329,12304,1,0,0:0:0:0:
170,326,12352,1,0,0:0:0:0:
165,322,12399,1,0,0:0:0:0:
159,318,12447,1,0,0:0:0:0:
154,314,12495,1,0,0:0:0:0:
149,310,12542,1,0,0:0:0:0:
144,305,12590,1,0,0:0:0:0:
139,300,12637,1,0,0:0:0:0:
135,296,12685,1,0,0:0:0:0:
131,290,12733,1,0,0:0:0:0:
127,285,12780,1,0,0:0:0:0:
123,280,12828,1,0,0:0:0:0:
119,274,12875,1,0,0:0:0:0:
116,268,12922,1,0,0:0:0:0:
113,262,12969,1,0,0:0:0:0:
110,256,13016,1,0,0:0:0:0:
108,250,13063,1,0,0:0:0:0:
105,244,13111,1,0,0:0:0:0:
103,238,13158,1,0,0:0:0:0:
101,231,13205,1,0,0:0:0:0:
100,225,13252,1,0,0:0:0:0:
99,218,13299,1,0,0:0:0:0:
98,211,13346,1,0,0:0:0:0:
97,205,13394,1,0,0:0:0:0:
96,198,13440,1,0,0:0:0:0:
96,191,13487,1,0,0:0:0:0:
96,185,13534,1,0,0:0:0:0:
97,178,13580,1,0,0:0:0:0:
98,172,13627,1,0,0:0:0:0:
99,165,13674,1,0,0:0:0:0:
100,158,13721,1,0,0:0:0:0:
101,152,13767,1,0,0:0:0:0:
103,145,13814,1,0,0:0:0:0:
105,139,13861,1,0,0:0:0:0:
108,133,13908,1,0,0:0:0:0:
110,127,13955,1,0,0:0:0:0:
113,121,14001,1,0,0:0:0:0:
116,115,14047,1,0,0:0:0:0:
119,109,14093,1,0,0:0:0:0:
123,103,14140,1,0,0:0:0:0:
127,98,14186,1,0,0:0:0:0:
131,93,14232,1,0,0:0:0:0:
135,87,14279,1,0,0:0:0:0:
139,83,14325,1,0,0:0:0:0:
144,78,14371,1,0,0:0:0:0:
149,73,14417,1,0,0:0:0:0:
154,69,14464,1,0,0:0:0:0:
159,65,14511,1,0,0:0:0:0:
165,61,14556,1,0,0:0:0:0:
170,57,14602,1,0,0:0:0:0:
176,54,14648,1,0,0:0:0:0:
182,50,14694,1,0,0:0:0:0:
188,47,14740,1,0,0:0:0:0:
194,45,14786,1,0,0:0:0:0:
200,42,14832,1,0,0:0:0:0:
206,40,14877,1,0,0:0:0:0:
213,38,14923,1,0,0:0:0:0:
219,37,14969,1,0,0:0:0:0:
226,35,15015,1,0,0:0:0:0:
232,34,15061,1,0,0:0:0:0:
239,33,15106,1,0,0:0:0:0:
246,33,15151,1,0,0:0:0:0:
252,32,15197,1,0,0:0:0:0:
259,32,15242,1,0,0:0:0:0:
265,33,15288,1,0,0:0:0:0:
272,33,15333,1,0,0:0:0:0:
279,34,15379,1,0,0:0:0:0:
285,35,15424,1,0,0:0:0:0:
292,37,15470,1,0,0:0:0:0:
298,38,15515,1,0,0:0:0:0:
305,40,15561,1,0,0:0:0:0:
311,42,15606,1,0,0:0:0:0:
317,45,15651,1,0,0:0:0:0:
323,47,15696,1,0,0:0:0:0:
329,50,15741,1,0,0:0:0:0:
335,54,15786,1,0,0:0:0:0:
341,57,15831,1,0,0:0:0:0:
346,61,15876,1,0,0:0:0:0:
352,65,15921,1,0,0:0:0:0:
357,69,15966,1,0,0:0:0:0:
362,73,16011,1,0,0:0:0:0:
367,78,16056,1,0,0:0:0:0:
372,83,16101,1,0,0:0:0:0:
376,87,16147,1,0,0:0:0:0:
380,93,16191,1,0,0:0:0:0:
384,98,16236,1,0,0:0:0:0:
388,103,16280,1,0,0:0:0:0:
392,109,16325,1,0,0:0:0:0:
395,115,16370,1,0,0:0:0:0:
398,121,16414,1,0,0:0:0:0:
401,127,16459,1,0,0:0:0:0:
403,133,16504,1,0,0:0:0:0:
406,139,16548,1,0,0:0:0:0:
408,145,16593,1,0,0:0:0:0:
410,152,16638,1,0,0:0:0:0:
411,158,16683,1,0,0:0:0:0:
412,165,16727,1,0,0:0:0:0:
413,172,16771,1,0,0:0:0:0:
414,178,16815,1,0,0:0:0:0:
415,185,16859,1,0,0:0:0:0:
415,192,16904,1,0,0:0:0:0:
415,198,16948,1,0,0:0:0:0:
414,205,16992,1,0,0:0:0:0:
413,211,17036,1,0,0:0:0:0:
412,218,17081,1,0,0:0:0:0:
411,225,17125,1,0,0:0:0:0:
410,231,17169,1,0,0:0:0:0:
408,238,17214,1,0,0:0:0:0:
406,244,17257,1,0,0:0:0:0:
403,250,17301,1,0,0:0:0:0:
401,256,17345,1,0,0:0:0:0:
398,262,17389,1,0,0:0:0:0:
395,268,17433,1,0,0:0:0:0:
392,274,17477,1,0,0:0:0:0:
388,280,17521,1,0,0:0:0:0:
384,285,17564,1,0,0:0:0:0:
380,290,17608,1,0,0:0:0:0:
376,296,17652,1,0,0:0:0:0:
372,300,17696,1,0,0:0:0:0:
367,305,17740,1,0,0:0:0:0:
362,310,17783,1,0,0:0:0:0:
357,314,17826,1,0,0:0:0:0:
352,318,17870,1,0,0:0:0:0:
346,322,17913,1,0,0:0:0:0:
341,326,17957,1,0,0:0:0:0:
335,329,18000,1,0,0:0:0:0:
329,333,18044,1,0,0:0:0:0:
323,336,18087,1,0,0:0:0:0:
317,338,18131,1,0,0:0:0:0:
311,341,18174,1,0,0:0:0:0:
305,343,18218,1,0,0:0:0:0:
298,345,18262,1,0,0:0:0:0:
292,346,18305,1,0,0:0:0:0:
285,348,18348,1,0,0:0:0:0:
279,349,18391,1,0,0:0:0:0:
272,350,18434,1,0,0:0:0:0:
265,350,18477,1,0,0:0:0:0:
259,351,18520,1,0,0:0:0:0:
252,351,18563,1,0,0:0:0:0:
246,350,18606,1,0,0:0:0:0:
239,350,18649,1,0,0:0:0:0:
232,349,18693,1,0,0:0:0:0:
226,348,18736,1,0,0:0:0:0:
219,346,18779,1,0,0:0:0:0:
213,345,18821,1,0,0:0:0:0:
206,343,18864,1,0,0:0:0:0:
200,341,18907,1,0,0:0:0:0:
194,338,18949,1,0,0:0:0:0:
188,336,18992,1,0,0:0:0:0:
182,333,19035,1,0,0:0:0:0:
176,329,19078,1,0,0:0:0:0:
170,326,19120,1,0,0:0:0:0:
165,322,19163,1,0,0:0:0:0:
159,318,19206,1,0,0:0:0:0:
154,314,19249,1,0,0:0:0:0:
149,310,19292,1,0,0:0:0:0:
144,305,19334,1,0,0:0:0:0:
139,300,19376,1,0,0:0:0:0:
135,296,19419,1,0,0:0:0:0:
131,290,19461,1,0,0:0:0:0:
127,285,19503,1,0,0:0:0:0:
123,280,19546,1,0,0:0:0:0:
119,274,19588,1,0,0:0:0:0:
116,268,19630,1,0,0:0:0:0:
113,262,19673,1,0,0:0:0:0:
110,256,19715,1,0,0:0:0:0:
108,250,19758,1,0,0:0:0:0:
105,244,19800,1,0,0:0:0:0:
103,238,19842,1,0,0:0:0:0:
101,231,19884,1,0,0:0:0:0:
100,225,19926,1,0,0:0:0:0:
99,218,19968,1,0,0:0:0:0:
98,211,20010,1,0,0:0:0:0:
97,205,20052,1,0,0:0:0:0:
96,198,20094,1,0,0:0:0:0:
96,191,20136,1,0,0:0:0:0:
96,185,20178,1,0,0:0:0:0:
97,178,20220,1,0,0:0:0:0:
98,172,20262,1,0,0:0:0:0:
99,165,20304,1,0,0:0:0:0:
100,158,20345,1,0,0:0:0:0:
101,152,20387,1,0,0:0:0:0:
103,145,20429,1,0,0:0:0:0:
105,139,20470,1,0,0:0:0:0:
108,133,20512,1,0,0:0:0:0:
110,127,20554,1,0,0:0:0:0:
113,121,20595,1,0,0:0:0:0:
116,115,20637,1,0,0:0:0:0:
119,109,20679,1,0,0:0:0:0:
123,103,20720,1,0,0:0:0:0:
127,98,20762,1,0,0:0:0:0:
131,93,20804,1,0,0:0:0:0:
135,87,20845,1,0,0:0:0:0:
139,83,20886,1,0,0:0:0:0:
144,78,20927,1,0,0:0:0:0:
149,73,20969,1,0,0:0:0:0:
154,69,21010,1,0,0:0:0:0:
159,65,21051,1,0,0:0:0:0:
165,61,21093,1,0,0:0:0:0:
170,57,21134,1,0,0:0:0:0:
176,54,21175,1,0,0:0:0:0:
182,50,21217,1,0,0:0:0:0:
188,47,21258,1,0,0:0:0:0:
194,45,21300,1,0,0:0:0:0:
200,42,21340,1,0,0:0:0:0:
206,40,21381,1,0,0:0:0:0:
213,38,21422,1,0,0:0:0:0:
219,37,21463,1,0,0:0:0:0:
226,35,21504,1,0,0:0:0:0:
232,34,21545,1,0,0:0:0:0:
239,33,21586,1,0,0:0:0:0:
246,33,21627,1,0,0:0:0:0:
252,32,21668,1,0,0:0:0:0:
259,32,21709,1,0,0:0:0:0:
265,33,21750,1,0,0:0:0:0:
272,33,21792,1,0,0:0:0:0:
279,34,21832,1,0,0:0:0:0:
285,35,21873,1,0,0:0:0:0:
292,37,21913,1,0,0:0:0:0:
298,38,21954,1,0,0:0:0:0:
305,40,21995,1,0,0:0:0:0:
311,42,22035,1,0,0:0:0:0:
317,45,22076,1,0,0:0:0:0:
323,47,22117,1,0,0:0:0:0:
329,50,22157,1,0,0:0:0:0:
335,54,22198,1,0,0:0:0:0:
341,57,22239,1,0,0:0:0:0:
346,61,22280,1,0,0:0:0:0:
352,65,22320,1,0,0:0:0:0:
357,69,22360,1,0,0:0:0:0:
362,73,22400,1,0,0:0:0:0:
367,78,22441,1,0,0:0:0:0:
372,83,22481,1,0,0:0:0:0:
376,87,22521,1,0,0:0:0:0:
380,93,22562,1,0,0:0:0:0:
384,98,22602,1,0,0:0:0:0:
388,103,22642,1,0,0:0:0:0:
392,109,22683,1,0,0:0:0:0:
395,115,22723,1,0,0:0:0:0:
398,121,22764,1,0,0:0:0:0:
401,127,22804,1,0,0:0:0:0:
403,133,22844,1,0,0:0:0:0:
406,139,22884,1,0,0:0:0:0:
408,145,22924,1,0,0:0:0:0:
410,152,22964,1,0,0:0:0:0:
411,158,23004,1,0,0:0:0:0:
412,165,23044,1,0,0:0:0:0:
413,172,23084,1,0,0:0:0:0:
414,178,23124,1,0,0:0:0:0:
415,185,23164,1,0,0:0:0:0:
415,192,23204,1,0,0:0:0:0:
415,198,23244,1,0,0:0:0:0:
414,205,23283,1,0,0:0:0:0:
413,211,23323,1,0,0:0:0:0:
412,218,23363,1,0,0:0:0:0:
411,225,23402,1,0,0:0:0:0:
410,231,23442,1,0,0:0:0:0:
408,238,23482,1,0,0:0:0:0:
406,244,23521,1,0,0:0:0:0:
403,250,23561,1,0,0:0:0:0:
401,256,23601,1,0,0:0:0:0:
398,262,23640,1,0,0:0:0:0:
395,268,23680,1,0,0:0:0:0:
392,274,23720,1,0,0:0:0:0:
388,280,23759,1,0,0:0:0:0:
384,285,23798,1,0,0:0:0:0:
380,290,23838,1,0,0:0:0:0:
376,296,23877,1,0,0:0:0:0:
372,300,23916,1,0,0:0:0:0:
367,305,23956,1,0,0:0:0:0:
362,310,23995,1,0,0:0:0:0:
357,314,24034,1,0,0:0:0:0:
352,318,24074,1,0,0:0:0:0:
346,322,24113,1,0,0:0:0:0:
341,326,24153,1,0,0:0:0:0:
335,329,24192,1,0,0:0:0:0:
329,333,24231,1,0,0:0:0:0:
323,336,24270,1,0,0:0:0:0:
317,338,24309,1,0,0:0:0:0:
311,341,24348,1,0,0:0:0:0:
305,343,24387,1,0,0:0:0:0:
298,345,24426,1,0,0:0:0:0:
292,346,24465,1,0,0:0:0:0:
285,348,24504,1,0,0:0:0:0:
279,349,24543,1,0,0:0:0:0:
272,350,24582,1,0,0:0:0:0:
265,350,24621,1,0,0:0:0:0:
259,351,24661,1,0,0:0:0:0:
252,351,24699,1,0,0:0:0:0:
246,350,24738,1,0,0:0:0:0:
239,350,24777,1,0,0:0:0:0:
232,349,24816,1,0,0:0:0:0:
226,348,24854,1,0,0:0:0:0:
219,346,24893,1,0,0:0:0:0:
213,345,24932,1,0,0:0:0:0:
206,343,24971,1,0,0:0:0:0:
200,341,25009,1,0,0:0:0:0:
194,338,25048,1,0,0:0:0:0:
188,336,25087,1,0,0:0:0:0:
182,333,25126,1,0,0:0:0:0:
176,329,25164,1,0,0:0:0:0:
170,326,25202,1,0,0:0:0:0:
165,322,25241,1,0,0:0:0:0:
159,318,25279,1,0,0:0:0:0:
154,314,25318,1,0,0:0:0:0:
149,310,25356,1,0,0:0:0:0:
144,305,25395,1,0,0:0:0:0:
139,300,25433,1,0,0:0:0:0:
135,296,25472,1,0,0:0:0:0:
131,290,25510,1,0,0:0:0:0:
127,285,25549,1,0,0:0:0:0:
123,280,25588,1,0,0:0:0:0:
119,274,25626,1,0,0:0:0:0:
116,268,25664,1,0,0:0:0:0:
113,262,25702,1,0,0:0:0:0:
110,256,25740,1,0,0:0:0:0:
108,250,25778,1,0,0:0:0:0:
105,244,25817,1,0,0:0:0:0:
103,238,25855,1,0,0:0:0:0:
101,231,25893,1,0,0:0:0:0:
100,225,25931,1,0,0:0:0:0:
99,218,25969,1,0,0:0:0:0:
98,211,26007,1,0,0:0:0:0:
97,205,26046,1,0,0:0:0:0:
96,198,26083,1,0,0:0:0:0:
96,191,26121,1,0,0:0:0:0:
96,185,26159,1,0,0:0:0:0:
97,178,26197,1,0,0:0:0:0:
98,172,26235,1,0,0:0:0:0:
99,165,26273,1,0,0:0:0:0:
100,158,26311,1,0,0:0:0:0:
101,152,26349,1,0,0:0:0:0:
103,145,26386,1,0,0:0:0:0:
105,139,26424,1,0,0:0:0:0:
108,133,26462,1,0,0:0:0:0:
110,127,26501,1,0,0:0:0:0:
113,121,26538,1,0,0:0:0:0:
116,115,26576,1,0,0:0:0:0:
119,109,26613,1,0,0:0:0:0:
123,103,26651,1,0,0:0:0:0:
127,98,26688,1,0,0:0:0:0:
131,93,26726,1,0,0:0:0:0:
135,87,26764,1,0,0:0:0:0:
139,83,26801,1,0,0:0:0:0:
144,78,26839,1,0,0:0:0:0:
149,73,26876,1,0,0:0:0:0:
154,69,26914,1,0,0:0:0:0:
159,65,26952,1,0,0:0:0:0:
165,61,26989,1,0,0:0:0:0:
170,57,27026,1,0,0:0:0:0:
176,54,27063,1,0,0:0:0:0:
182,50,27101,1,0,0:0:0:0:
188,47,27138,1,0,0:0:0:0:
194,45,27175,1,0,0:0:0:0:
200,42,27213,1,0,0:0:0:0:
206,40,27250,1,0,0:0:0:0:
213,38,27287,1,0,0:0:0:0:
219,37,27325,1,0,0:0:0:0:
226,35,27362,1,0,0:0:0:0:
232,34,27400,1,0,0:0:0:0:
239,33,27437,1,0,0:0:0:0:
246,33,27474,1,0,0:0:0:0:
252,32,27511,1,0,0:0:0:0:
259,32,27548,1,0,0:0:0:0:
265,33,27585,1,0,0:0:0:0:
272,33,27622,1,0,0:0:0:0:
279,34,27659,1,0,0:0:0:0:
285,35,27696,1,0,0:0:0:0:
292,37,27733,1,0,0:0:0:0:
298,38,27770,1,0,0:0:0:0:
305,40,27807,1,0,0:0:0:0:
311,42,27844,1,0,0:0:0:0:
317,45,27880,1,0,0:0:0:0:
323,47,27917,1,0,0:0:0:0:
329,50,27954,1,0,0:0:0:0:
335,54,27991,1,0,0:0:0:0:
341,57,28027,1,0,0:0:0:0:
346,61,28064,1,0,0:0:0:0:
352,65,28101,1,0,0:0:0:0:
357,69,28138,1,0,0:0:0:0:
362,73,28174,1,0,0:0:0:0:
367,78,28211,1,0,0:0:0:0:
372,83,28248,1,0,0:0:0:0:
376,87,28285,1,0,0:0:0:0:
380,93,28321,1,0,0:0:0:0:
384,98,28357,1,0,0:0:0:0:
388,103,28394,1,0,0:0:0:0:
392,109,28430,1,0,0:0:0:0:
395,115,28467,1,0,0:0:0:0:
398,121,28503,1,0,0:0:0:0:
401,127,28540,1,0,0:0:0:0:
403,133,28576,1,0,0:0:0:0:
406,139,28613,1,0,0:0:0:0:
408,145,28649,1,0,0:0:0:0:
410,152,28686,1,0,0:0:0:0:
411,158,28723,1,0,0:0:0:0:
412,165,28759,1,0,0:0:0:0:
413,172,28795,1,0,0:0:0:0:
414,178,28831,1,0,0:0:0:0:
415,185,28867,1,0,0:0:0:0:
415,192,28904,1,0,0:0:0:0:
415,198,28940,1,0,0:0:0:0:
414,205,28976,1,0,0:0:0:0:
413,211,29012,1,0,0:0:0:0:
412,218,29049,1,0,0:0:0:0:
411,225,29085,1,0,0:0:0:0:
410,231,29121,1,0,0:0:0:0:
408,238,29158,1,0,0:0:0:0:
406,244,29193,1,0,0:0:0:0:
403,250,29229,1,0,0:0:0:0:
401,256,29265,1,0,0:0:0:0:
398,262,29301,1,0,0:0:0:0:
395,268,29337,1,0,0:0:0:0:
392,274,29373,1,0,0:0:0:0:
388,280,29409,1,0,0:0:0:0:
384,285,29445,1,0,0:0:0:0:
380,290,29481,1,0,0:0:0:0:
376,296,29517,1,0,0:0:0:0:
372,300,29553,1,0,0:0:0:0:
367,305,29590,1,0,0:0:0:0:
362,310,29625,1,0,0:0:0:0:
357,314,29661,1,0,0:0:0:0:
352,318,29697,1,0,0:0:0:0:
346,322,29732,1,0,0:0:0:0:
341,326,29768,1,0,0:0:0:0:
335,329,29804,1,0,0:0:0:0:
329,333,29840,1,0,0:0:0:0:
323,336,29875,1,0,0:0:0:0:
317,338,29911,1,0,0:0:0:0:
311,341,29947,1,0,0:0:0:0:
305,343,29982,1,0,0:0:0:0:
298,345,30019,1,0,0:0:0:0:
292,346,30054,1,0,0:0:0:0:
285,348,30089,1,0,0:0:0:0:
279,349,30125,1,0,0:0:0:0:
272,350,30160,1,0,0:0:0:0:
265,350,30196,1,0,0:0:0:0:
259,351,30231,1,0,0:0:0:0:
252,351,30267,1,0,0:0:0:0:
246,350,30302,1,0,0:0:0:0:
239,350,30338,1,0,0:0:0:0:
232,349,30373,1,0,0:0:0:0:
226,348,30409,1,0,0:0:0:0:
219,346,30445,1,0,0:0:0:0:
213,345,30480,1,0,0:0:0:0:
206,343,30515,1,0,0:0:0:0:
200,341,30550,1,0,0:0:0:0:
194,338,30585,1,0,0:0:0:0:
188,336,30621,1,0,0:0:0:0:
182,333,30656,1,0,0:0:0:0:
176,329,30691,1,0,0:0:0:0:
170,326,30726,1,0,0:0:0:0:
165,322,30761,1,0,0:0:0:0:
159,318,30797,1,0,0:0:0:0:
154,314,30832,1,0,0:0:0:0:
149,310,30868,1,0,0:0:0:0:
144,305,30902,1,0,0:0:0:0:
139,300,30937,1,0,0:0:0:0:
135,296,30972,1,0,0:0:0:0:
131,290,31007,1,0,0:0:0:0:
127,285,31042,1,0,0:0:0:0:
123,280,31077,1,0,0:0:0:0:
119,274,31112,1,0,0:0:0:0:
116,268,31147,1,0,0:0:0:0:
113,262,31182,1,0,0:0:0:0:
110,256,31217,1,0,0:0:0:0:
108,250,31252,1,0,0:0:0:0:
105,244,31288,1,0,0:0:0:0:
103,238,31322,1,0,0:0:0:0:
101,231,31357,1,0,0:0:0:0:
100,225,31392,1,0,0:0:0:0:
99,218,31426,1,0,0:0:0:0:
98,211,31461,1,0,0:0:0:0:
97,205,31496,1,0,0:0:0:0:
96,198,31531,1,0,0:0:0:0:
96,191,31565,1,0,0:0:0:0:
96,185,31600,1,0,0:0:0:0:
97,178,31635,1,0,0:0:0:0:
98,172,31669,1,0,0:0:0:0:
99,165,31705,1,0,0:0:0:0:
100,158,31739,1,0,0:0:0:0:
101,152,31773,1,0,0:0:0:0:
103,145,31808,1,0,0:0:0:0:
105,139,31842,1,0,0:0:0:0:
108,133,31877,1,0,0:0:0:0:
110,127,31911,1,0,0:0:0:0:
113,121,31946,1,0,0:0:0:0:
116,115,31980,1,0,0:0:0:0:
119,109,32015,1,0,0:0:0:0:
123,103,32049,1,0,0:0:0:0:
127,98,32084,1,0,0:0:0:0:
131,93,32119,1,0,0:0:0:0:
135,87,32153,1,0,0:0:0:0:
139,83,32187,1,0,0:0:0:0:
144,78,32221,1,0,0:0:0:0:
149,73,32255,1,0,0:0:0:0:
154,69,32290,1,0,0:0:0:0:
159,65,32324,1,0,0:0:0:0:
165,61,32358,1,0,0:0:0:0:
170,57,32392,1,0,0:0:0:0:
176,54,32427,1,0,0:0:0:0:
182,50,32461,1,0,0:0:0:0:
188,47,32495,1,0,0:0:0:0:
194,45,32530,1,0,0:0:0:0:
200,42,32564,1,0,0:0:0:0:
206,40,32598,1,0,0:0:0:0:
213,38,32632,1,0,0:0:0:0:
219,37,32666,1,0,0:0:0:0:
226,35,32700,1,0,0:0:0:0:
232,34,32734,1,0,0:0:0:0:
239,33,32768,1,0,0:0:0:0:
246,33,32802,1,0,0:0:0:0:
252,32,32836,1,0,0:0:0:0:
259,32,32870,1,0,0:0:0:0:
265,33,32904,1,0,0:0:0:0:
272,33,32938,1,0,0:0:0:0:
279,34,32971,1,0,0:0:0:0:
285,35,33005,1,0,0:0:0:0:
292,37,33039,1,0,0:0:0:0:
298,38,33073,1,0,0:0:0:0:
305,40,33106,1,0,0:0:0:0:
311,42,33140,1,0,0:0:0:0:
317,45,33174,1,0,0:0:0:0:
323,47,33208,1,0,0:0:0:0:
329,50,33242,1,0,0:0:0:0:
335,54,33275,1,0,0:0:0:0:
341,57,33309,1,0,0:0:0:0:
346,61,33343,1,0,0:0:0:0:
352,65,33376,1,0,0:0:0:0:
357,69,33410,1,0,0:0:0:0:
362,73,33443,1,0,0:0:0:0:
367,78,33477,1,0,0:0:0:0:
372,83,33510,1,0,0:0:0:0:
376,87,33544,1,0,0:0:0:0:
380,93,33577,1,0,0:0:0:0:
384,98,33611,1,0,0:0:0:0:
388,103,33645,1,0,0:0:0:0:
392,109,33678,1,0,0:0:0:0:
395,115,33712,1,0,0:0:0:0:
398,121,33746,1,0,0:0:0:0:
401,127,33779,1,0,0:0:0:0:
403,133,33812,1,0,0:0:0:0:
406,139,33846,1,0,0:0:0:0:
408,145,33879,1,0,0:0:0:0:
410,152,33912,1,0,0:0:0:0:
411,158,33946,1,0,0:0:0:0:
412,165,33980,1,0,0:0:0:0:
413,172,34014,1,0,0:0:0:0:
414,178,34046,1,0,0:0:0:0:
415,185,34079,1,0,0:0:0:0:
415,192,34112,1,0,0:0:0:0:
415,198,34146,1,0,0:0:0:0:
414,205,34179,1,0,0:0:0:0:
413,211,34212,1,0,0:0:0:0:
412,218,34245,1,0,0:0:0:0:
411,225,34278,1,0,0:0:0:0:
410,231,34311,1,0,0:0:0:0:
408,238,34344,1,0,0:0:0:0:
406,244,34377,1,0,0:0:0:0:
403,250,34410,1,0,0:0:0:0:
401,256,34444,1,0,0:0:0:0:
398,262,34477,1,0,0:0:0:0:
395,268,34510,1,0,0:0:0:0:
392,274,34543,1,0,0:0:0:0:
388,280,34575,1,0,0:0:0:0:
384,285,34608,1,0,0:0:0:0:
380,290,34641,1,0,0:0:0:0:
376,296,34674,1,0,0:0:0:0:
372,300,34707,1,0,0:0:0:0:
367,305,34740,1,0,0:0:0:0:
362,310,34773,1,0,0:0:0:0:
357,314,34806,1,0,0:0:0:0:
352,318,34839,1,0,0:0:0:0:
346,322,34871,1,0,0:0:0:0:
341,326,34904,1,0,0:0:0:0:
335,329,34937,1,0,0:0:0:0:
329,333,34970,1,0,0:0:0:0:
323,336,35003,1,0,0:0:0:0:
317,338,35036,1,0,0:0:0:0:
311,341,35068,1,0,0:0:0:0:
305,343,35101,1,0,0:0:0:0:
298,345,35134,1,0,0:0:0:0:
292,346,35166,1,0,0:0:0:0:
285,348,35199,1,0,0:0:0:0:
279,349,35232,1,0,0:0:0:0:
272,350,35264,1,0,0:0:0:0:
265,350,35297,1,0,0:0:0:0:
259,351,35330,1,0,0:0:0:0:
252,351,35362,1,0,0:0:0:0:
246,350,35394,1,0,0:0:0:0:
239,350,35427,1,0,0:0:0:0:
232,349,35459,1,0,0:0:0:0:
226,348,35492,1,0,0:0:0:0:
219,346,35524,1,0,0:0:0:0:
213,345,35557,1,0,0:0:0:0:
206,343,35589,1,0,0:0:0:0:
200,341,35622,1,0,0:0:0:0:
194,338,35654,1,0,0:0:0:0:
188,336,35687,1,0,0:0:0:0:
182,333,35720,1,0,0:0:0:0:
176,329,35752,1,0,0:0:0:0:
170,326,35784,1,0,0:0:0:0:
165,322,35816,1,0,0:0:0:0:
159,318,35849,1,0,0:0:0:0:
154,314,35881,1,0,0:0:0:0:
149,310,35913,1,0,0:0:0:0:
144,305,35945,1,0,0:0:0:0:
139,300,35978,1,0,0:0:0:0:
135,296,36010,1,0,0:0:0:0:
131,290,36042,1,0,0:0:0:0:
127,285,36074,1,0,0:0:0:0:
123,280,36107,1,0,0:0:0:0:
119,274,36139,1,0,0:0:0:0:
116,268,36171,1,0,0:0:0:0:
113,262,36203,1,0,0:0:0:0:
110,256,36235,1,0,0:0:0:0:
108,250,36267,1,0,0:0:0:0:
105,244,36299,1,0,0:0:0:0:
103,238,36331,1,0,0:0:0:0:
101,231,36363,1,0,0:0:0:0:
100,225,36395,1,0,0:0:0:0:
99,218,36427,1,0,0:0:0:0:
98,211,36459,1,0,0:0:0:0:
97,205,36492,1,0,0:0:0:0:
96,198,36523,1,0,0:0:0:0:
96,191,36555,1,0,0:0:0:0:
96,185,36587,1,0,0:0:0:0:
97,178,36619,1,0,0:0:0:0:
98,172,36651,1,0,0:0:0:0:
99,165,36683,1,0,0:0:0:0:
100,158,36714,1,0,0:0:0:0:
101,152,36746,1,0,0:0:0:0:
103,145,36778,1,0,0:0:0:0:
105,139,36810,1,0,0:0:0:0:
108,133,36842,1,0,0:0:0:0:
110,127,36874,1,0,0:0:0:0:
113,121,36905,1,0,0:0:0:0:
116,115,36937,1,0,0:0:0:0:
119,109,36968,1,0,0:0:0:0:
123,103,37000,1,0,0:0:0:0:
127,98,37032,1,0,0:0:0:0:
131,93,37063,1,0,0:0:0:0:
135,87,37095,1,0,0:0:0:0:
139,83,37127,1,0,0:0:0:0:
144,78,37158,1,0,0:0:0:0:
149,73,37190,1,0,0:0:0:0:
154,69,37222,1,0,0:0:0:0:
159,65,37254,1,0,0:0:0:0:
165,61,37285,1,0,0:0:0:0:
170,57,37316,1,0,0:0:0:0:
176,54,37348,1,0,0:0:0:0:
182,50,37379,1,0,0:0:0:0:
188,47,37411,1,0,0:0:0:0:
194,45,37442,1,0,0:0:0:0:
200,42,37474,1,0,0:0:0:0:
206,40,37505,1,0,0:0:0:0:
213,38,37537,1,0,0:0:0:0:
219,37,37568,1,0,0:0:0:0:
226,35,37599,1,0,0:0:0:0:
232,34,37631,1,0,0:0:0:0:
239,33,37662,1,0,0:0:0:0:
246,33,37693,1,0,0:0:0:0:
252,32,37724,1,0,0:0:0:0:
259,32,37756,1,0,0:0:0:0:
265,33,37787,1,0,0:0:0:0:
272,33,37818,1,0,0:0:0:0:
279,34,37849,1,0,0:0:0:0:
285,35,37881,1,0,0:0:0:0:
292,37,37912,1,0,0:0:0:0:
298,38,37943,1,0,0:0:0:0:
305,40,37974,1,0,0:0:0:0:
311,42,38006,1,0,0:0:0:0:
317,45,38037,1,0,0:0:0:0:
323,47,38068,1,0,0:0:0:0:
329,50,38099,1,0,0:0:0:0:
335,54,38130,1,0,0:0:0:0:
341,57,38161,1,0,0:0:0:0:
346,61,38192,1,0,0:0:0:0:
352,65,38223,1,0,0:0:0:0:
357,69,38254,1,0,0:0:0:0:
362,73,38285,1,0,0:0:0:0:
367,78,38316,1,0,0:0:0:0:
372,83,38347,1,0,0:0:0:0:
376,87,38379,1,0,0:0:0:0:
380,93,38409,1,0,0:0:0:0:
384,98,38440,1,0,0:0:0:0:
388,103,38471,1,0,0:0:0:0:
392,109,38502,1,0,0:0:0:0:
395,115,38533,1,0,0:0:0:0:
398,121,38564,1,0,0:0:0:0:
401,127,38595,1,0,0:0:0:0:
403,133,38625,1,0,0:0:0:0:
406,139,38656,1,0,0:0:0:0:
408,145,38687,1,0,0:0:0:0:
410,152,38718,1,0,0:0:0:0:
411,158,38749,1,0,0:0:0:0:
412,165,38779,1,0,0:0:0:0:
413,172,38810,1,0,0:0:0:0:
414,178,38841,1,0,0:0:0:0:
415,185,38871,1,0,0:0:0:0:
415,192,38902,1,0,0:0:0:0:
415,198,38933,1,0,0:0:0:0:
414,205,38963,1,0,0:0:0:0:
413,211,38994,1,0,0:0:0:0:
412,218,39025,1,0,0:0:0:0:
411,225,39055,1,0,0:0:0:0:
410,231,39086,1,0,0:0:0:0:
408,238,39117,1,0,0:0:0:0:
406,244,39147,1,0,0:0:0:0:
403,250,39177,1,0,0:0:0:0:
401,256,39208,1,0,0:0:0:0:
398,262,39238,1,0,0:0:0:0:
395,268,39269,1,0,0:0:0:0:
392,274,39299,1,0,0:0:0:0:
388,280,39330,1,0,0:0:0:0:
384,285,39360,1,0,0:0:0:0:
380,290,39391,1,0,0:0:0:0:
376,296,39421,1,0,0:0:0:0:
372,300,39452,1,0,0:0:0:0:
367,305,39483,1,0,0:0:0:0:
362,310,39513,1,0,0:0:0:0:
357,314,39543,1,0,0:0:0:0:
352,318,39573,1,0,0:0:0:0:
346,322,39604,1,0,0:0:0:0:
341,326,39634,1,0,0:0:0:0:
335,329,39664,1,0,0:0:0:0:
329,333,39695,1,0,0:0:0:0:
323,336,39725,1,0,0:0:0:0:
317,338,39755,1,0,0:0:0:0:
311,341,39786,1,0,0:0:0:0:
305,343,39816,1,0,0:0:0:0:
298,345,39847,1,0,0:0:0:0:
292,346,39877,1,0,0:0:0:0:
285,348,39907,1,0,0:0:0:0:
279,349,39937,1,0,0:0:0:0:
272,350,39967,1,0,0:0:0:0:
265,350,39997,1,0,0:0:0:0:
259,351,40027,1,0,0:0:0:0:
252,351,40057,1,0,0:0:0:0:
246,350,40087,1,0,0:0:0:0:
239,350,40118,1,0,0:0:0:0:
232,349,40148,1,0,0:0:0:0:
226,348,40178,1,0,0:0:0:0:
219,346,40208,1,0,0:0:0:0:
213,345,40237,1,0,0:0:0:0:
206,343,40267,1,0,0:0:0:0:
200,341,40297,1,0,0:0:0:0:
194,338,40327,1,0,0:0:0:0:
188,336,40357,1,0,0:0:0:0:
182,333,40387,1,0,0:0:0:0:
176,329,40417,1,0,0:0:0:0:
170,326,40447,1,0,0:0:0:0:
165,322,40477,1,0,0:0:0:0:
159,318,40507,1,0,0:0:0:0:
154,314,40537,1,0,0:0:0:0:
149,310,40567,1,0,0:0:0:0:
144,305,40596,1,0,0:0:0:0:
139,300,40626,1,0,0:0:0:0:
135,296,40656,1,0,0:0:0:0:
131,290,40686,1,0,0:0:0:0:
127,285,40715,1,0,0:0:0:0:
123,280,40745,1,0,0:0:0:0:
119,274,40775,1,0,0:0:0:0:
116,268,40805,1,0,0:0:0:0:
113,262,40834,1,0,0:0:0:0:
110,256,40864,1,0,0:0:0:0:
108,250,40894,1,0,0:0:0:0:
105,244,40924,1,0,0:0:0:0:
103,238,40953,1,0,0:0:0:0:
101,231,40983,1,0,0:0:0:0:
100,225,41012,1,0,0:0:0:0:
99,218,41042,1,0,0:0:0:0:
98,211,41071,1,0,0:0:0:0:
97,205,41101,1,0,0:0:0:0:
96,198,41131,1,0,0:0:0:0:
96,191,41160,1,0,0:0:0:0:
96,185,41190,1,0,0:0:0:0:
97,178,41219,1,0,0:0:0:0:
98,172,41249,1,0,0:0:0:0:
99,165,41279,1,0,0:0:0:0:
100,158,41308,1,0,0:0:0:0:
101,152,41337,1,0,0:0:0:0:
103,145,41367,1,0,0:0:0:0:
105,139,41396,1,0,0:0:0:0:
108,133,41426,1,0,0:0:0:0:
110,127,41455,1,0,0:0:0:0:
113,121,41484,1,0,0:0:0:0:
116,115,41514,1,0,0:0:0:0:
119,109,41543,1,0,0:0:0:0:
123,103,41573,1,0,0:0:0:0:
127,98,41602,1,0,0:0:0:0:
131,93,41632,1,0,0:0:0:0:
135,87,41661,1,0,0:0:0:0:
139,83,41690,1,0,0:0:0:0:
144,78,41719,1,0,0:0:0:0:
149,73,41748,1,0,0:0:0:0:
154,69,41778,1,0,0:0:0:0:
159,65,41807,1,0,0:0:0:0:
165,61,41836,1,0,0:0:0:0:
170,57,41865,1,0,0:0:0:0:
176,54,41895,1,0,0:0:0:0:
182,50,41924,1,0,0:0:0:0:
188,47,41953,1,0,0:0:0:0:
194,45,41983,1,0,0:0:0:0:
200,42,42012,1,0,0:0:0:0:
206,40,42041,1,0,0:0:0:0:
213,38,42070,1,0,0:0:0:0:
219,37,42099,1,0,0:0:0:0:
226,35,42128,1,0,0:0:0:0:
232,34,42157,1,0,0:0:0:0:
239,33,42186,1,0,0:0:0:0:
246,33,42215,1,0,0:0:0:0:
252,32,42244,1,0,0:0:0:0:
259,32,42273,1,0,0:0:0:0:
265,33,42302,1,0,0:0:0:0:
272,33,42332,1,0,0:0:0:0:
279,34,42360,1,0,0:0:0:0:
285,35,42389,1,0,0:0:0:0:
292,37,42418,1,0,0:0:0:0:
298,38,42447,1,0,0:0:0:0:
305,40,42476,1,0,0:0:0:0:
311,42,42505,1,0,0:0:0:0:
317,45,42534,1,0,0:0:0:0:
323,47,42563,1,0,0:0:0:0:
329,50,42592,1,0,0:0:0:0:
335,54,42621,1,0,0:0:0:0:
341,57,42649,1,0,0:0:0:0:
346,61,42679,1,0,0:0:0:0:
352,65,42707,1,0,0:0:0:0:
357,69,42736,1,0,0:0:0:0:
362,73,42765,1,0,0:0:0:0:
367,78,42793,1,0,0:0:0:0:
372,83,42822,1,0,0:0:0:0:
376,87,42851,1,0,0:0:0:0:
380,93,42880,1,0,0:0:0:0:
384,98,42908,1,0,0:0:0:0:
388,103,42937,1,0,0:0:0:0:
392,109,42966,1,0,0:0:0:0:
395,115,42995,1,0,0:0:0:0:
398,121,43024,1,0,0:0:0:0:
401,127,43052,1,0,0:0:0:0:
403,133,43081,1,0,0:0:0:0:
406,139,43109,1,0,0:0:0:0:
408,145,43138,1,0,0:0:0:0:
410,152,43166,1,0,0:0:0:0:
411,158,43195,1,0,0:0:0:0:
412,165,43224,1,0,0:0:0:0:
413,172,43252,1,0,0:0:0:0:
414,178,43281,1,0,0:0:0:0:
415,185,43309,1,0,0:0:0:0:
415,192,43338,1,0,0:0:0:0:
415,198,43367,1,0,0:0:0:0:
414,205,43395,1,0,0:0:0:0:
413,211,43423,1,0,0:0:0:0:
412,218,43452,1,0,0:0:0:0:
411,225,43480,1,0,0:0:0:0:
410,231,43509,1,0,0:0:0:0:
408,238,43537,1,0,0:0:0:0:
406,244,43565,1,0,0:0:0:0:
403,250,43594,1,0,0:0:0:0:
401,256,43622,1,0,0:0:0:0:
398,262,43651,1,0,0:0:0:0:
395,268,43679,1,0,0:0:0:0:
392,274,43707,1,0,0:0:0:0:
388,280,43736,1,0,0:0:0:0:
384,285,43764,1,0,0:0:0:0:
380,290,43792,1,0,0:0:0:0:
376,296,43820,1,0,0:0:0:0:
372,300,43849,1,0,0:0:0:0:
367,305,43877,1,0,0:0:0:0:
362,310,43905,1,0,0:0:0:0:
357,314,43933,1,0,0:0:0:0:
352,318,43962,1,0,0:0:0:0:
346,322,43990,1,0,0:0:0:0:
341,326,44018,1,0,0:0:0:0:
335,329,44046,1,0,0:0:0:0:
329,333,44075,1,0,0:0:0:0:
323,336,44103,1,0,0:0:0:0:
317,338,44131,1,0,0:0:0:0:
311,341,44159,1,0,0:0:0:0:
305,343,44187,1,0,0:0:0:0:
298,345,44215,1,0,0:0:0:0:
292,346,44243,1,0,0:0:0:0:
285,348,44271,1,0,0:0:0:0:
279,349,44299,1,0,0:0:0:0:
272,350,44327,1,0,0:0:0:0:
265,350,44355,1,0,0:0:0:0:
259,351,44384,1,0,0:0:0:0:
252,351,44411,1,0,0:0:0:0:
246,350,44439,1,0,0:0:0:0:
239,350,44467,1,0,0:0:0:0:
232,349,44495,1,0,0:0:0:0:
226,348,44523,1,0,0:0:0:0:
219,346,44551,1,0,0:0:0:0:
213,345,44579,1,0,0:0:0:0:
206,343,44607,1,0,0:0:0:0:
200,341,44635,1,0,0:0:0:0:
194,338,44663,1,0,0:0:0:0:
188,336,44691,1,0,0:0:0:0:
182,333,44719,1,0,0:0:0:0:
176,329,44746,1,0,0:0:0:0:
170,326,44774,1,0,0:0:0:0:
165,322,44802,1,0,0:0:0:0:
159,318,44830,1,0,0:0:0:0:
154,314,44857,1,0,0:0:0:0:
149,310,44885,1,0,0:0:0:0:
144,305,44913,1,0,0:0:0:0:
139,300,44941,1,0,0:0:0:0:
135,296,44969,1,0,0:0:0:0:
131,290,44996,1,0,0:0:0:0:
127,285,45024,1,0,0:0:0:0:
123,280,45052,1,0,0:0:0:0:
119,274,45079,1,0,0:0:0:0:
116,268,45107,1,0,0:0:0:0:
113,262,45134,1,0,0:0:0:0:
110,256,45162,1,0,0:0:0:0:
108,250,45190,1,0,0:0:0:0:
105,244,45217,1,0,0:0:0:0:
103,238,45245,1,0,0:0:0:0:
101,231,45273,1,0,0:0:0:0:
100,225,45300,1,0,0:0:0:0:
99,218,45328,1,0,0:0:0:0:
98,211,45355,1,0,0:0:0:0:
97,205,45383,1,0,0:0:0:0:
96,198,45411,1,0,0:0:0:0:
96,191,45438,1,0,0:0:0:0:
96,185,45466,1,0,0:0:0:0:
97,178,45493,1,0,0:0:0:0:
98,172,45521,1,0,0:0:0:0:
99,165,45548,1,0,0:0:0:0:
100,158,45576,1,0,0:0:0:0:
101,152,45603,1,0,0:0:0:0:
103,145,45631,1,0,0:0:0:0:
105,139,45658,1,0,0:0:0:0:
108,133,45686,1,0,0:0:0:0:
110,127,45714,1,0,0:0:0:0:
113,121,45741,1,0,0:0:0:0:
116,115,45768,1,0,0:0:0:0:
119,109,45795,1,0,0:0:0:0:
123,103,45823,1,0,0:0:0:0:
127,98,45850,1,0,0:0:0:0:
131,93,45877,1,0,0:0:0:0:
135,87,45905,1,0,0:0:0:0:
139,83,45932,1,0,0:0:0:0:
144,78,45959,1,0,0:0:0:0:
149,73,45987,1,0,0:0:0:0:
154,69,46014,1,0,0:0:0:0:
159,65,46042,1,0,0:0:0:0:
165,61,46069,1,0,0:0:0:0:
170,57,46096,1,0,0:0:0:0:
176,54,46123,1,0,0:0:0:0:
182,50,46150,1,0,0:0:0:0:
188,47,46177,1,0,0:0:0:0:
194,45,46205,1,0,0:0:0:0:
200,42,46232,1,0,0:0:0:0:
206,40,46259,1,0,0:0:0:0:
213,38,46286,1,0,0:0:0:0:
219,37,46313,1,0,0:0:0:0:
226,35,46340,1,0,0:0:0:0:
232,34,46368,1,0,0:0:0:0:
239,33,46395,1,0,0:0:0:0:
246,33,46422,1,0,0:0:0:0:
252,32,46449,1,0,0:0:0:0:
259,32,46476,1,0,0:0:0:0:
265,33,46503,1,0,0:0:0:0:
272,33,46530,1,0,0:0:0:0:
279,34,46557,1,0,0:0:0:0:
285,35,46584,1,0,0:0:0:0:
292,37,46611,1,0,0:0:0:0:
298,38,46638,1,0,0:0:0:0:
305,40,46665,1,0,0:0:0:0:
311,42,46692,1,0,0:0:0:0:
317,45,46718,1,0,0:0:0:0:
323,47,46745,1,0,0:0:0:0:
329,50,46772,1,0,0:0:0:0:
335,54,46799,1,0,0:0:0:0:
341,57,46826,1,0,0:0:0:0:
346,61,46853,1,0,0:0:0:0:
352,65,46880,1,0,0:0:0:0:
357,69,46907,1,0,0:0:0:0:
362,73,46933,1,0,0:0:0:0:
367,78,46960,1,0,0:0:0:0:
372,83,46987,1,0,0:0:0:0:
376,87,47015,1,0,0:0:0:0:
380,93,47041,1,0,0:0:0:0:
384,98,47068,1,0,0:0:0:0:
388,103,47095,1,0,0:0:0:0:
392,109,47121,1,0,0:0:0:0:
395,115,47148,1,0,0:0:0:0:
398,121,47175,1,0,0:0:0:0:
401,127,47202,1,0,0:0:0:0:
403,133,47228,1,0,0:0:0:0:
406,139,47255,1,0,0:0:0:0:
408,145,47282,1,0,0:0:0:0:
410,152,47309,1,0,0:0:0:0:
411,158,47336,1,0,0:0:0:0:
412,165,47362,1,0,0:0:0:0:
413,172,47389,1,0,0:0:0:0:
414,178,47415,1,0,0:0:0:0:
415,185,47442,1,0,0:0:0:0:
415,192,47468,1,0,0:0:0:0:
415,198,47495,1,0,0:0:0:0:
414,205,47522,1,0,0:0:0:0:
413,211,47548,1,0,0:0:0:0:
412,218,47575,1,0,0:0:0:0:
411,225,47601,1,0,0:0:0:0:
410,231,47628,1,0,0:0:0:0:
408,238,47655,1,0,0:0:0:0:
406,244,47681,1,0,0:0:0:0:
403,250,47707,1,0,0:0:0:0:
401,256,47734,1,0,0:0:0:0:
398,262,47760,1,0,0:0:0:0:
395,268,47787,1,0,0:0:0:0:
392,274,47813,1,0,0:0:0:0:
388,280,47840,1,0,0:0:0:0:
384,285,47866,1,0,0:0:0:0:
380,290,47893,1,0,0:0:0:0:
376,296,47919,1,0,0:0:0:0:
372,300,47946,1,0,0:0:0:0:
367,305,47972,1,0,0:0:0:0:
362,310,47998,1,0,0:0:0:0:
357,314,48024,1,0,0:0:0:0:
352,318,48050,1,0,0:0:0:0:
346,322,48077,1,0,0:0:0:0:
341,326,48103,1,0,0:0:0:0:
335,329,48129,1,0,0:0:0:0:
329,333,48156,1,0,0:0:0:0:
323,336,48182,1,0,0:0:0:0:
317,338,48208,1,0,0:0:0:0:
311,341,48235,1,0,0:0:0:0:
305,343,48261,1,0,0:0:0:0:
298,345,48288,1,0,0:0:0:0:
292,346,48314,1,0,0:0:0:0:
285,348,48340,1,0,0:0:0:0:
279,349,48366,1,0,0:0:0:0:
272,350,48392,1,0,0:0:0:0:
265,350,48418,1,0,0:0:0:0:
259,351,48445,1,0,0:0:0:0:
252,351,48471,1,0,0:0:0:0:
246,350,48497,1,0,0:0:0:0:
239,350,48523,1,0,0:0:0:0:
232,349,48549,1,0,0:0:0:0:
226,348,48575,1,0,0:0:0:0:
219,346,48602,1,0,0:0:0:0:
213,345,48628,1,0,0:0:0:0:
206,343,48654,1,0,0:0:0:0:
200,341,48680,1,0,0:0:0:0:
194,338,48706,1,0,0:0:0:0:
188,336,48732,1,0,0:0:0:0:
182,333,48758,1,0,0:0:0:0:
176,329,48784,1,0,0:0:0:0:
170,326,48810,1,0,0:0:0:0:
165,322,48836,1,0,0:0:0:0:
159,318,48862,1,0,0:0:0:0:
154,314,48888,1,0,0:0:0:0:
149,310,48915,1,0,0:0:0:0:
144,305,48940,1,0,0:0:0:0:
139,300,48966,1,0,0:0:0:0:
135,296,48992,1,0,0:0:0:0:
131,290,49018,1,0,0:0:0:0:
127,285,49044,1,0,0:0:0:0:
123,280,49070,1,0,0:0:0:0:
119,274,49096,1,0,0:0:0:0:
116,268,49122,1,0,0:0:0:0:
113,262,49148,1,0,0:0:0:0:
110,256,49174,1,0,0:0:0:0:
108,250,49199,1,0,0:0:0:0:
105,244,49226,1,0,0:0:0:0:
103,238,49251,1,0,0:0:0:0:
101,231,49277,1,0,0:0:0:0:
100,225,49303,1,0,0:0:0:0:
99,218,49329,1,0,0:0:0:0:
98,211,49354,1,0,0:0:0:0:
97,205,49380,1,0,0:0:0:0:
96,198,49406,1,0,0:0:0:0:
96,191,49432,1,0,0:0:0:0:
96,185,49457,1,0,0:0:0:0:
97,178,49483,1,0,0:0:0:0:
98,172,49509,1,0,0:0:0:0:
99,165,49535,1,0,0:0:0:0:
100,158,49560,1,0,0:0:0:0:
101,152,49586,1,0,0:0:0:0:
103,145,49611,1,0,0:0:0:0:
105,139,49637,1,0,0:0:0:0:
108,133,49663,1,0,0:0:0:0:
110,127,49688,1,0,0:0:0:0:
113,121,49714,1,0,0:0:0:0:
116,115,49740,1,0,0:0:0:0:
119,109,49765,1,0,0:0:0:0:
123,103,49791,1,0,0:0:0:0:
127,98,49817,1,0,0:0:0:0:
131,93,49843,1,0,0:0:0:0:
135,87,49868,1,0,0:0:0:0:
139,83,49894,1,0,0:0:0:0:
144,78,49919,1,0,0:0:0:0:
149,73,49945,1,0,0:0:0:0:
154,69,49970,1,0,0:0:0:0:
159,65,49996,1,0,0:0:0:0:
165,61,50021,1,0,0:0:0:0:
170,57,50047,1,0,0:0:0:0:
176,54,50072,1,0,0:0:0:0:
182,50,50098,1,0,0:0:0:0:
188,47,50123,1,0,0:0:0:0:
194,45,50149,1,0,0:0:0:0:
200,42,50174,1,0,0:0:0:0:
206,40,50199,1,0,0:0:0:0:
213,38,50225,1,0,0:0:0:0:
219,37,50250,1,0,0:0:0:0:
226,35,50275,1,0,0:0:0:0:
232,34,50301,1,0,0:0:0:0:
239,33,50326,1,0,0:0:0:0:
246,33,50352,1,0,0:0:0:0:
252,32,50377,1,0,0:0:0:0:
259,32,50402,1,0,0:0:0:0:
265,33,50428,1,0,0:0:0:0:
272,33,50454,1,0,0:0:0:0:
279,34,50479,1,0,0:0:0:0:
285,35,50504,1,0,0:0:0:0:
292,37,50529,1,0,0:0:0:0:
298,38,50555,1,0,0:0:0:0:
305,40,50580,1,0,0:0:0:0:
311,42,50605,1,0,0:0:0:0:
317,45,50630,1,0,0:0:0:0:
323,47,50656,1,0,0:0:0:0:
329,50,50681,1,0,0:0:0:0:
335,54,50706,1,0,0:0:0:0:
341,57,50731,1,0,0:0:0:0:
346,61,50757,1,0,0:0:0:0:
352,65,50782,1,0,0:0:0:0:
357,69,50807,1,0,0:0:0:0:
362,73,50832,1,0,0:0:0:0:
367,78,50857,1,0,0:0:0:0:
372,83,50882,1,0,0:0:0:0:
376,87,50907,1,0,0:0:0:0:
380,93,50932,1,0,0:0:0:0:
384,98,50958,1,0,0:0:0:0:
388,103,50983,1,0,0:0:0:0:
392,109,51008,1,0,0:0:0:0:
395,115,51033,1,0,0:0:0:0:
398,121,51059,1,0,0:0:0:0:
401,127,51084,1,0,0:0:0:0:
403,133,51109,1,0,0:0:0:0:
406,139,51134,1,0,0:0:0:0:
408,145,51159,1,0,0:0:0:0:
410,152,51184,1,0,0:0:0:0:
411,158,51209,1,0,0:0:0:0:
412,165,51234,1,0,0:0:0:0:
413,172,51259,1,0,0:0:0:0:
414,178,51284,1,0,0:0:0:0:
415,185,51309,1,0,0:0:0:0:
415,192,51334,1,0,0:0:0:0:
415,198,51359,5,0,0:0:0:0:
414,205,51383,1,0,0:0:0:0:
413,211,51408,1,0,0:0:0:0:
412,218,51433,1,0,0:0:0:0:
411,225,51458,1,0,0:0:0:0:
410,231,51483,1,0,0:0:0:0:
408,238,51508,1,0,0:0:0:0:
406,244,51533,1,0,0:0:0:0:
403,250,51558,1,0,0:0:0:0:
401,256,51582,1,0,0:0:0:0:
398,262,51607,1,0,0:0:0:0:
395,268,51632,1,0,0:0:0:0:
392,274,51657,1,0,0:0:0:0:
388,280,51682,1,0,0:0:0:0:
384,285,51707,1,0,0:0:0:0:
380,290,51732,1,0,0:0:0:0:
376,296,51757,1,0,0:0:0:0:
372,300,51781,1,0,0:0:0:0:
367,305,51806,1,0,0:0:0:0:
362,310,51831,1,0,0:0:0:0:
357,314,51856,1,0,0:0:0:0:
352,318,51880,1,0,0:0:0:0:
346,322,51905,1,0,0:0:0:0:
341,326,51930,1,0,0:0:0:0:
335,329,51955,1,0,0:0:0:0:
329,333,51979,1,0,0:0:0:0:
323,336,52004,1,0,0:0:0:0:
317,338,52028,1,0,0:0:0:0:
311,341,52053,1,0,0:0:0:0:
305,343,52078,1,0,0:0:0:0:
298,345,52102,1,0,0:0:0:0:
292,346,52127,1,0,0:0:0:0:
285,348,52152,1,0,0:0:0:0:
279,349,52176,1,0,0:0:0:0:
272,350,52201,1,0,0:0:0:0:
265,350,52225,1,0,0:0:0:0:
259,351,52250,1,0,0:0:0:0:
252,351,52275,1,0,0:0:0:0:
246,350,52300,1,0,0:0:0:0:
239,350,52324,1,0,0:0:0:0:
232,349,52349,1,0,0:0:0:0:
226,348,52373,1,0,0:0:0:0:
219,346,52398,1,0,0:0:0:0:
213,345,52422,1,0,0:0:0:0:
206,343,52447,1,0,0:0:0:0:
200,341,52471,1,0,0:0:0:0:
194,338,52496,1,0,0:0:0:0:
188,336,52520,1,0,0:0:0:0:
182,333,52545,1,0,0:0:0:0:
176,329,52569,1,0,0:0:0:0:
170,326,52593,1,0,0:0:0:0:
165,322,52618,1,0,0:0:0:0:
159,318,52642,1,0,0:0:0:0:
154,314,52666,1,0,0:0:0:0:
149,310,52691,1,0,0:0:0:0:
144,305,52715,1,0,0:0:0:0:
139,300,52740,1,0,0:0:0:0:
135,296,52764,1,0,0:0:0:0:
131,290,52788,1,0,0:0:0:0:
127,285,52813,1,0,0:0:0:0:
123,280,52837,1,0,0:0:0:0:
119,274,52862,1,0,0:0:0:0:
116,268,52886,1,0,0:0:0:0:
113,262,52910,1,0,0:0:0:0:
110,256,52935,1,0,0:0:0:0:
108,250,52959,1,0,0:0:0:0:
105,244,52983,1,0,0:0:0:0:
103,238,53007,1,0,0:0:0:0:
101,231,53032,1,0,0:0:0:0:
100,225,53056,1,0,0:0:0:0:
99,218,53080,1,0,0:0:0:0:
98,211,53104,1,0,0:0:0:0:
97,205,53129,1,0,0:0:0:0:
96,198,53153,1,0,0:0:0:0:
96,191,53177,1,0,0:0:0:0:
96,185,53201,1,0,0:0:0:0:
97,178,53225,1,0,0:0:0:0:
98,172,53249,1,0,0:0:0:0:
99,165,53273,1,0,0:0:0:0:
100,158,53298,1,0,0:0:0:0:
101,152,53322,1,0,0:0:0:0:
103,145,53346,1,0,0:0:0:0:
105,139,53370,1,0,0:0:0:0:
108,133,53394,1,0,0:0:0:0:
110,127,53418,1,0,0:0:0:0:
113,121,53443,1,0,0:0:0:0:
116,115,53467,1,0,0:0:0:0:
119,109,53491,1,0,0:0:0:0:
123,103,53515,1,0,0:0:0:0:
127,98,53539,1,0,0:0:0:0:
131,93,53563,1,0,0:0:0:0:
135,87,53587,1,0,0:0:0:0:
139,83,53611,1,0,0:0:0:0:
144,78,53635,1,0,0:0:0:0:
149,73,53659,1,0,0:0:0:0:
154,69,53683,1,0,0:0:0:0:
159,65,53707,1,0,0:0:0:0:
165,61,53730,1,0,0:0:0:0:
170,57,53754,1,0,0:0:0:0:
176,54,53778,1,0,0:0:0:0:
182,50,53802,1,0,0:0:0:0:
188,47,53826,1,0,0:0:0:0:
194,45,53850,1,0,0:0:0:0:
200,42,53874,1,0,0:0:0:0:
206,40,53898,1,0,0:0:0:0:
213,38,53922,1,0,0:0:0:0:
219,37,53946,1,0,0:0:0:0:
226,35,53970,1,0,0:0:0:0:
232,34,53994,1,0,0:0:0:0:
239,33,54017,1,0,0:0:0:0:
246,33,54041,1,0,0:0:0:0:
252,32,54065,1,0,0:0:0:0:
259,32,54089,1,0,0:0:0:0:
265,33,54113,1,0,0:0:0:0:
272,33,54136,1,0,0:0:0:0:
279,34,54160,1,0,0:0:0:0:
285,35,54184,1,0,0:0:0:0:
292,37,54208,1,0,0:0:0:0:
298,38,54232,1,0,0:0:0:0:
305,40,54255,1,0,0:0:0:0:
311,42,54279,1,0,0:0:0:0:
317,45,54303,1,0,0:0:0:0:
323,47,54327,1,0,0:0:0:0:
329,50,54351,1,0,0:0:0:0:
335,54,54374,1,0,0:0:0:0:
341,57,54398,1,0,0:0:0:0:
346,61,54422,1,0,0:0:0:0:
352,65,54445,1,0,0:0:0:0:
357,69,54469,1,0,0:0:0:0:
362,73,54493,1,0,0:0:0:0:
367,78,54516,1,0,0:0:0:0:
372,83,54540,1,0,0:0:0:0:
376,87,54564,1,0,0:0:0:0:
380,93,54587,1,0,0:0:0:0:
384,98,54611,1,0,0:0:0:0:
388,103,54634,1,0,0:0:0:0:
392,109,54658,1,0,0:0:0:0:
395,115,54681,1,0,0:0:0:0:
398,121,54705,1,0,0:0:0:0:
401,127,54729,1,0,0:0:0:0:
403,133,54752,1,0,0:0:0:0:
406,139,54776,1,0,0:0:0:0:
408,145,54799,1,0,0:0:0:0:
410,152,54823,1,0,0:0:0:0:
411,158,54847,1,0,0:0:0:0:
412,165,54870,1,0,0:0:0:0:
413,172,54893,1,0,0:0:0:0:
414,178,54917,1,0,0:0:0:0:
415,185,54940,1,0,0:0:0:0:
415,192,54964,1,0,0:0:0:0:
415,198,54987,1,0,0:0:0:0:
414,205,55011,1,0,0:0:0:0:
413,211,55034,1,0,0:0:0:0:
412,218,55058,1,0,0:0:0:0:
411,225,55081,1,0,0:0:0:0:
410,231,55105,1,0,0:0:0:0:
408,238,55129,1,0,0:0:0:0:
406,244,55152,1,0,0:0:0:0:
403,250,55175,1,0,0:0:0:0:
401,256,55199,1,0,0:0:0:0:
398,262,55222,1,0,0:0:0:0:
395,268,55245,1,0,0:0:0:0:
392,274,55269,1,0,0:0:0:0:
388,280,55292,1,0,0:0:0:0:
384,285,55315,1,0,0:0:0:0:
380,290,55339,1,0,0:0:0:0:
376,296,55362,1,0,0:0:0:0:
372,300,55386,1,0,0:0:0:0:
367,305,55409,1,0,0:0:0:0:
362,310,55432,1,0,0:0:0:0:
357,314,55455,1,0,0:0:0:0:
352,318,55478,1,0,0:0:0:0:
346,322,55502,1,0,0:0:0:0:
341,326,55525,1,0,0:0:0:0:
335,329,55548,1,0,0:0:0:0:
329,333,55571,1,0,0:0:0:0:
323,336,55595,1,0,0:0:0:0:
317,338,55618,1,0,0:0:0:0:
311,341,55641,1,0,0:0:0:0:
305,343,55664,1,0,0:0:0:0:
298,345,55688,1,0,0:0:0:0:
292,346,55711,1,0,0:0:0:0:
285,348,55734,1,0,0:0:0:0:
279,349,55757,1,0,0:0:0:0:
272,350,55780,1,0,0:0:0:0:
265,350,55803,1,0,0:0:0:0:
259,351,55826,1,0,0:0:0:0:
252,351,55850,1,0,0:0:0:0:
246,350,55873,1,0,0:0:0:0:
239,350,55896,1,0,0:0:0:0:
232,349,55919,1,0,0:0:0:0:
226,348,55942,1,0,0:0:0:0:
219,346,55966,1,0,0:0:0:0:
213,345,55989,1,0,0:0:0:0:
206,343,56012,1,0,0:0:0:0:
200,341,56035,1,0,0:0:0:0:
194,338,56058,1,0,0:0:0:0:
188,336,56081,1,0,0:0:0:0:
182,333,56104,1,0,0:0:0:0:
176,329,56127,1,0,0:0:0:0:
170,326,56150,1,0,0:0:0:0:
165,322,56173,1,0,0:0:0:0:
159,318,56196,1,0,0:0:0:0:
154,314,56219,1,0,0:0:0:0:
149,310,56243,1,0,0:0:0:0:
144,305,56265,1,0,0:0:0:0:
139,300,56288,1,0,0:0:0:0:
135,296,56311,1,0,0:0:0:0:
131,290,56334,1,0,0:0:0:0:
127,285,56357,1,0,0:0:0:0:
123,280,56380,1,0,0:0:0:0:
119,274,56403,1,0,0:0:0:0:
116,268,56426,1,0,0:0:0:0:
113,262,56449,1,0,0:0:0:0:
110,256,56472,1,0,0:0:0:0:
108,250,56495,1,0,0:0:0:0:
105,244,56518,1,0,0:0:0:0:
103,238,56540,1,0,0:0:0:0:
101,231,56563,1,0,0:0:0:0:
100,225,56586,1,0,0:0:0:0:
99,218,56609,1,0,0:0:0:0:
98,211,56632,1,0,0:0:0:0:
97,205,56654,1,0,0:0:0:0:
96,198,56677,1,0,0:0:0:0:
96,191,56700,1,0,0:0:0:0:
96,185,56723,1,0,0:0:0:0:
97,178,56746,1,0,0:0:0:0:
98,172,56769,1,0,0:0:0:0:
99,165,56792,1,0,0:0:0:0:
100,158,56814,1,0,0:0:0:0:
101,152,56837,1,0,0:0:0:0:
103,145,56860,1,0,0:0:0:0:
105,139,56882,1,0,0:0:0:0:
108,133,56905,1,0,0:0:0:0:
110,127,56928,1,0,0:0:0:0:
113,121,56951,1,0,0:0:0:0:
116,115,56973,1,0,0:0:0:0:
119,109,56996,1,0,0:0:0:0:
123,103,57019,1,0,0:0:0:0:
127,98,57042,1,0,0:0:0:0:
131,93,57065,1,0,0:0:0:0:
135,87,57087,1,0,0:0:0:0:
139,83,57110,1,0,0:0:0:0:
144,78,57132,1,0,0:0:0:0:
149,73,57155,1,0,0:0:0:0:
154,69,57178,1,0,0:0:0:0:
159,65,57200,1,0,0:0:0:0:
165,61,57223,1,0,0:0:0:0:
170,57,57245,1,0,0:0:0:0:
176,54,57268,1,0,0:0:0:0:
182,50,57291,1,0,0:0:0:0:
188,47,57313,1,0,0:0:0:0:
194,45,57336,1,0,0:0:0:0:
200,42,57358,1,0,0:0:0:0:
206,40,57381,1,0,0:0:0:0:
213,38,57403,1,0,0:0:0:0:
219,37,57426,1,0,0:0:0:0:
226,35,57448,1,0,0:0:0:0:
232,34,57471,1,0,0:0:0:0:
239,33,57493,1,0,0:0:0:0:
246,33,57516,1,0,0:0:0:0:
252,32,57538,1,0,0:0:0:0:
259,32,57561,1,0,0:0:0:0:
265,33,57583,1,0,0:0:0:0:
272,33,57606,1,0,0:0:0:0:
279,34,57628,1,0,0:0:0:0:
285,35,57650,1,0,0:0:0:0:
292,37,57673,1,0,0:0:0:0:
298,38,57695,1,0,0:0:0:0:
305,40,57718,1,0,0:0:0:0:
311,42,57740,1,0,0:0:0:0:
317,45,57762,1,0,0:0:0:0:
323,47,57785,1,0,0:0:0:0:
329,50,57807,1,0,0:0:0:0:
335,54,57830,1,0,0:0:0:0:
341,57,57852,1,0,0:0:0:0:
346,61,57875,1,0,0:0:0:0:
352,65,57897,1,0,0:0:0:0:
357,69,57919,1,0,0:0:0:0:
362,73,57941,1,0,0:0:0:0:
367,78,57964,1,0,0:0:0:0:
372,83,57986,1,0,0:0:0:0:
376,87,58008,1,0,0:0:0:0:
380,93,58031,1,0,0:0:0:0:
384,98,58053,1,0,0:0:0:0:
388,103,58075,1,0,0:0:0:0:
392,109,58098,1,0,0:0:0:0:
395,115,58120,1,0,0:0:0:0:
398,121,58143,1,0,0:0:0:0:
401,127,58165,1,0,0:0:0:0:
403,133,58187,1,0,0:0:0:0:
406,139,58209,1,0,0:0:0:0:
408,145,58231,1,0,0:0:0:0:
410,152,58254,1,0,0:0:0:0:
411,158,58276,1,0,0:0:0:0:
412,165,58298,1,0,0:0:0:0:
413,172,58320,1,0,0:0:0:0:
414,178,58343,1,0,0:0:0:0:
415,185,58365,1,0,0:0:0:0:
415,192,58387,1,0,0:0:0:0:
415,198,58410,1,0,0:0:0:0:
414,205,58432,1,0,0:0:0:0:
413,211,58454,1,0,0:0:0:0:
412,218,58476,1,0,0:0:0:0:
411,225,58498,1,0,0:0:0:0:
410,231,58520,1,0,0:0:0:0:
408,238,58542,1,0,0:0:0:0:
406,244,58564,1,0,0:0:0:0:
403,250,58586,1,0,0:0:0:0:
401,256,58609,1,0,0:0:0:0:
398,262,58631,1,0,0:0:0:0:
395,268,58653,1,0,0:0:0:0:
392,274,58675,1,0,0:0:0:0:
388,280,58697,1,0,0:0:0:0:
384,285,58719,1,0,0:0:0:0:
380,290,58741,1,0,0:0:0:0:
376,296,58763,1,0,0:0:0:0:
372,300,58785,1,0,0:0:0:0:
367,305,58807,1,0,0:0:0:0:
362,310,58829,1,0,0:0:0:0:
357,314,58851,1,0,0:0:0:0:
352,318,58873,1,0,0:0:0:0:
346,322,58895,1,0,0:0:0:0:
341,326,58917,1,0,0:0:0:0:
335,329,58939,1,0,0:0:0:0:
329,333,58960,1,0,0:0:0:0:
323,336,58982,1,0,0:0:0:0:
317,338,59004,1,0,0:0:0:0:
311,341,59026,1,0,0:0:0:0:
305,343,59048,1,0,0:0:0:0:
298,345,59070,1,0,0:0:0:0:
292,346,59092,1,0,0:0:0:0:
285,348,59114,1,0,0:0:0:0:
279,349,59136,1,0,0:0:0:0:
272,350,59158,1,0,0:0:0:0:
265,350,59180,1,0,0:0:0:0:
259,351,59202,1,0,0:0:0:0:
252,351,59223,1,0,0:0:0:0:
246,350,59245,1,0,0:0:0:0:
239,350,59267,1,0,0:0:0:0:
232,349,59289,1,0,0:0:0:0:
226,348,59311,1,0,0:0:0:0:
219,346,59333,1,0,0:0:0:0:
213,345,59354,1,0,0:0:0:0:
206,343,59376,1,0,0:0:0:0:
200,341,59398,1,0,0:0:0:0:
194,338,59420,1,0,0:0:0:0:
188,336,59442,1,0,0:0:0:0:
182,333,59464,1,0,0:0:0:0:
176,329,59485,1,0,0:0:0:0:
170,326,59507,1,0,0:0:0:0:
165,322,59529,1,0,0:0:0:0:
159,318,59550,1,0,0:0:0:0:
154,314,59572,1,0,0:0:0:0:
149,310,59594,1,0,0:0:0:0:
144,305,59616,1,0,0:0:0:0:
139,300,59637,1,0,0:0:0:0:
135,296,59659,1,0,0:0:0:0:
131,290,59681,1,0,0:0:0:0:
127,285,59703,1,0,0:0:0:0:
123,280,59725,1,0,0:0:0:0:
119,274,59746,1,0,0:0:0:0:
116,268,59768,1,0,0:0:0:0:
113,262,59789,1,0,0:0:0:0:
110,256,59811,1,0,0:0:0:0:
108,250,59833,1,0,0:0:0:0:
105,244,59854,1,0,0:0:0:0:
103,238,59876,1,0,0:0:0:0:
101,231,59898,1,0,0:0:0:0:
100,225,59919,1,0,0:0:0:0:
99,218,59941,1,0,0:0:0:0:
98,211,59963,1,0,0:0:0:0:
97,205,59985,1,0,0:0:0:0:
96,198,60006,1,0,0:0:0:0:
96,191,60028,1,0,0:0:0:0:
96,185,60049,1,0,0:0:0:0:
97,178,60071,1,0,0:0:0:0:
98,172,60092,1,0,0:0:0:0:
99,165,60114,1,0,0:0:0:0:
100,158,60135,1,0,0:0:0:0:
101,152,60157,1,0,0:0:0:0:
103,145,60178,1,0,0:0:0:0:
105,139,60200,1,0,0:0:0:0:
108,133,60222,1,0,0:0:0:0:
110,127,60244,1,0,0:0:0:0:
113,121,60265,1,0,0:0:0:0:
116,115,60286,1,0,0:0:0:0:
119,109,60308,1,0,0:0:0:0:
123,103,60329,1,0,0:0:0:0:
127,98,60351,1,0,0:0:0:0:
131,93,60372,1,0,0:0:0:0:
135,87,60394,1,0,0:0:0:0:
139,83,60415,1,0,0:0:0:0:
144,78,60437,1,0,0:0:0:0:
149,73,60458,1,0,0:0:0:0:
154,69,60480,1,0,0:0:0:0:
159,65,60502,1,0,0:0:0:0:
165,61,60523,1,0,0:0:0:0:
170,57,60544,1,0,0:0:0:0:
176,54,60566,1,0,0:0:0:0:
182,50,60587,1,0,0:0:0:0:
188,47,60608,1,0,0:0:0:0:
194,45,60630,1,0,0:0:0:0:
200,42,60651,1,0,0:0:0:0:
206,40,60672,1,0,0:0:0:0:
213,38,60694,1,0,0:0:0:0:
219,37,60715,1,0,0:0:0:0:
226,35,60737,1,0,0:0:0:0:
232,34,60758,1,0,0:0:0:0:
239,33,60779,1,0,0:0:0:0:
246,33,60800,1,0,0:0:0:0:
252,32,60821,1,0,0:0:0:0:
259,32,60843,1,0,0:0:0:0:
265,33,60864,1,0,0:0:0:0:
272,33,60885,1,0,0:0:0:0:
279,34,60906,1,0,0:0:0:0:
285,35,60928,1,0,0:0:0:0:
292,37,60949,1,0,0:0:0:0:
298,38,60970,1,0,0:0:0:0:
305,40,60992,1,0,0:0:0:0:
311,42,61013,1,0,0:0:0:0:
317,45,61034,1,0,0:0:0:0:
323,47,61055,1,0,0:0:0:0:
329,50,61076,1,0,0:0:0:0:
335,54,61097,1,0,0:0:0:0:
341,57,61118,1,0,0:0:0:0:
346,61,61140,1,0,0:0:0:0:
352,65,61161,1,0,0:0:0:0:
357,69,61182,1,0,0:0:0:0:
362,73,61203,1,0,0:0:0:0:
367,78,61224,1,0,0:0:0:0:
372,83,61246,1,0,0:0:0:0:
376,87,61267,1,0,0:0:0:0:
380,93,61288,1,0,0:0:0:0:
384,98,61309,1,0,0:0:0:0:
388,103,61330,1,0,0:0:0:0:
392,109,61351,1,0,0:0:0:0:
395,115,61372,1,0,0:0:0:0:
398,121,61393,1,0,0:0:0:0:
401,127,61414,1,0,0:0:0:0:
403,133,61435,1,0,0:0:0:0:
406,139,61456,1,0,0:0:0:0:
408,145,61477,1,0,0:0:0:0:
410,152,61499,1,0,0:0:0:0:
411,158,61520,1,0,0:0:0:0:
412,165,61541,1,0,0:0:0:0:
413,172,61562,1,0,0:0:0:0:
414,178,61583,1,0,0:0:0:0:
415,185,61604,1,0,0:0:0:0:
415,192,61625,1,0,0:0:0:0:
415,198,61646,1,0,0:0:0:0:
414,205,61667,1,0,0:0:0:0:
413,211,61688,1,0,0:0:0:0:
412,218,61709,1,0,0:0:0:0:
411,225,61730,1,0,0:0:0:0:
410,231,61751,1,0,0:0:0:0:
408,238,61772,1,0,0:0:0:0:
406,244,61792,1,0,0:0:0:0:
403,250,61813,1,0,0:0:0:0:
401,256,61834,1,0,0:0:0:0:
398,262,61855,1,0,0:0:0:0:
395,268,61876,1,0,0:0:0:0:
392,274,61897,1,0,0:0:0:0:
388,280,61918,1,0,0:0:0:0:
384,285,61939,1,0,0:0:0:0:
380,290,61960,1,0,0:0:0:0:
376,296,61981,1,0,0:0:0:0:
372,300,62002,1,0,0:0:0:0:
367,305,62023,1,0,0:0:0:0:
362,310,62043,1,0,0:0:0:0:
357,314,62064,1,0,0:0:0:0:
352,318,62085,1,0,0:0:0:0:
346,322,62106,1,0,0:0:0:0:
341,326,62127,1,0,0:0:0:0:
335,329,62148,1,0,0:0:0:0:
329,333,62168,1,0,0:0:0:0:
323,336,62189,1,0,0:0:0:0:
317,338,62210,1,0,0:0:0:0:
311,341,62231,1,0,0:0:0:0:
305,343,62252,1,0,0:0:0:0:
298,345,62273,1,0,0:0:0:0:
292,346,62293,1,0,0:0:0:0:
285,348,62314,1,0,0:0:0:0:
279,349,62335,1,0,0:0:0:0:
272,350,62355,1,0,0:0:0:0:
265,350,62376,1,0,0:0:0:0:
259,351,62397,1,0,0:0:0:0:
252,351,62418,1,0,0:0:0:0:
246,350,62438,1,0,0:0:0:0:
239,350,62459,1,0,0:0:0:0:
232,349,62480,1,0,0:0:0:0:
226,348,62501,1,0,0:0:0:0:
219,346,62522,1,0,0:0:0:0:
213,345,62542,1,0,0:0:0:0:
206,343,62563,1,0,0:0:0:0:
200,341,62583,1,0,0:0:0:0:
194,338,62604,1,0,0:0:0:0:
188,336,62625,1,0,0:0:0:0:
182,333,62645,1,0,0:0:0:0:
176,329,62666,1,0,0:0:0:0:
170,326,62687,1,0,0:0:0:0:
165,322,62707,1,0,0:0:0:0:
159,318,62728,1,0,0:0:0:0:
154,314,62749,1,0,0:0:0:0:
149,310,62770,1,0,0:0:0:0:
144,305,62790,1,0,0:0:0:0:
139,300,62811,1,0,0:0:0:0:
135,296,62831,1,0,0:0:0:0:
131,290,62852,1,0,0:0:0:0:
127,285,62872,1,0,0:0:0:0:
123,280,62893,1,0,0:0:0:0:
119,274,62914,1,0,0:0:0:0:
116,268,62934,1,0,0:0:0:0:
113,262,62955,1,0,0:0:0:0:
110,256,62975,1,0,0:0:0:0:
108,250,62996,1,0,0:0:0:0:
105,244,63017,1,0,0:0:0:0:
103,238,63037,1,0,0:0:0:0:
101,231,63057,1,0,0:0:0:0:
100,225,63078,1,0,0:0:0:0:
99,218,63098,1,0,0:0:0:0:
98,211,63119,1,0,0:0:0:0:
97,205,63139,1,0,0:0:0:0:
96,198,63160,1,0,0:0:0:0:
96,191,63180,1,0,0:0:0:0:
96,185,63201,1,0,0:0:0:0:
97,178,63221,1,0,0:0:0:0:
98,172,63242,1,0,0:0:0:0:
99,165,63262,1,0,0:0:0:0:
100,158,63282,1,0,0:0:0:0:
101,152,63302,1,0,0:0:0:0:
103,145,63323,1,0,0:0:0:0:
105,139,63343,1,0,0:0:0:0:
108,133,63364,1,0,0:0:0:0:
110,127,63384,1,0,0:0:0:0:
113,121,63404,1,0,0:0:0:0:
116,115,63425,1,0,0:0:0:0:
119,109,63445,1,0,0:0:0:0:
123,103,63466,1,0,0:0:0:0:
127,98,63486,1,0,0:0:0:0:
131,93,63508,1,0,0:0:0:0:
135,87,63528,1,0,0:0:0:0:
139,83,63548,1,0,0:0:0:0:
144,78,63568,1,0,0:0:0:0:
149,73,63589,1,0,0:0:0:0:
154,69,63609,1,0,0:0:0:0:
159,65,63629,1,0,0:0:0:0:
165,61,63650,1,0,0:0:0:0:
170,57,63670,1,0,0:0:0:0:
176,54,63690,1,0,0:0:0:0:
182,50,63711,1,0,0:0:0:0:
188,47,63731,1,0,0:0:0:0:
194,45,63752,1,0,0:0:0:0:
200,42,63772,1,0,0:0:0:0:
206,40,63792,1,0,0:0:0:0:
213,38,63812,1,0,0:0:0:0:
219,37,63832,1,0,0:0:0:0:
226,35,63853,1,0,0:0:0:0:
232,34,63873,1,0,0:0:0:0:
239,33,63893,1,0,0:0:0:0:
246,33,63913,1,0,0:0:0:0:
252,32,63934,1,0,0:0:0:0:
259,32,63954,1,0,0:0:0:0:
265,33,63974,1,0,0:0:0:0:
272,33,63995,1,0,0:0:0:0:
279,34,64015,1,0,0:0:0:0:
285,35,64035,1,0,0:0:0:0:
292,37,64055,1,0,0:0:0:0:
298,38,64075,1,0,0:0:0:0:
305,40,64095,1,0,0:0:0:0:
311,42,64115,1,0,0:0:0:0:
317,45,64136,1,0,0:0:0:0:
323,47,64156,1,0,0:0:0:0:
329,50,64176,1,0,0:0:0:0:
335,54,64196,1,0,0:0:0:0:
341,57,64216,1,0,0:0:0:0:
346,61,64237,1,0,0:0:0:0:
352,65,64257,1,0,0:0:0:0:
357,69,64277,1,0,0:0:0:0:
362,73,64297,1,0,0:0:0:0:
367,78,64317,1,0,0:0:0:0:
372,83,64337,1,0,0:0:0:0:
376,87,64357,1,0,0:0:0:0:
380,93,64377,1,0,0:0:0:0:
384,98,64397,1,0,0:0:0:0:
388,103,64417,1,0,0:0:0:0:
392,109,64437,1,0,0:0:0:0:
395,115,64457,1,0,0:0:0:0:
398,121,64478,1,0,0:0:0:0:
401,127,64498,1,0,0:0:0:0:
403,133,64518,1,0,0:0:0:0:
406,139,64538,1,0,0:0:0:0:
408,145,64558,1,0,0:0:0:0:
410,152,64578,1,0,0:0:0:0:
411,158,64598,1,0,0:0:0:0:
412,165,64618,1,0,0:0:0:0:
413,172,64638,1,0,0:0:0:0:
414,178,64658,1,0,0:0:0:0:
415,185,64678,1,0,0:0:0:0:
415,192,64698,1,0,0:0:0:0:
415,198,64718,1,0,0:0:0:0:
414,205,64737,1,0,0:0:0:0:
413,211,64757,1,0,0:0:0:0:
412,218,64777,1,0,0:0:0:0:
411,225,64797,1,0,0:0:0:0:
410,231,64817,1,0,0:0:0:0:
408,238,64837,1,0,0:0:0:0:
406,244,64857,1,0,0:0:0:0:
403,250,64877,1,0,0:0:0:0:
401,256,64897,1,0,0:0:0:0:
398,262,64917,1,0,0:0:0:0:
395,268,64937,1,0,0:0:0:0:
392,274,64957,1,0,0:0:0:0:
388,280,64976,1,0,0:0:0:0:
384,285,64996,1,0,0:0:0:0:
380,290,65016,1,0,0:0:0:0:
376,296,65036,1,0,0:0:0:0:
372,300,65056,1,0,0:0:0:0:
367,305,65076,1,0,0:0:0:0:
362,310,65095,1,0,0:0:0:0:
357,314,65115,1,0,0:0:0:0:
352,318,65135,1,0,0:0:0:0:
346,322,65155,1,0,0:0:0:0:
341,326,65175,1,0,0:0:0:0:
335,329,65195,1,0,0:0:0:0:
329,333,65214,1,0,0:0:0:0:
323,336,65234,1,0,0:0:0:0:
317,338,65254,1,0,0:0:0:0:
311,341,65274,1,0,0:0:0:0:
305,343,65293,1,0,0:0:0:0:
298,345,65313,1,0,0:0:0:0:
292,346,65333,1,0,0:0:0:0:
285,348,65353,1,0,0:0:0:0:
279,349,65372,1,0,0:0:0:0:
272,350,65392,1,0,0:0:0:0:
265,350,65412,1,0,0:0:0:0:
259,351,65432,1,0,0:0:0:0:
252,351,65451,1,0,0:0:0:0:
246,350,65471,1,0,0:0:0:0:
239,350,65491,1,0,0:0:0:0:
232,349,65510,1,0,0:0:0:0:
226,348,65530,1,0,0:0:0:0:
219,346,65550,1,0,0:0:0:0:
213,345,65569,1,0,0:0:0:0:
206,343,65589,1,0,0:0:0:0:
200,341,65609,1,0,0:0:0:0:
194,338,65628,1,0,0:0:0:0:
188,336,65648,1,0,0:0:0:0:
182,333,65668,1,0,0:0:0:0:
176,329,65687,1,0,0:0:0:0:
170,326,65707,1,0,0:0:0:0:
165,322,65726,1,0,0:0:0:0:
159,318,65746,1,0,0:0:0:0:
154,314,65766,1,0,0:0:0:0:
149,310,65785,1,0,0:0:0:0:
144,305,65805,1,0,0:0:0:0:
139,300,65824,1,0,0:0:0:0:
135,296,65844,1,0,0:0:0:0:
131,290,65864,1,0,0:0:0:0:
127,285,65883,1,0,0:0:0:0:
123,280,65903,1,0,0:0:0:0:
119,274,65922,1,0,0:0:0:0:
116,268,65942,1,0,0:0:0:0:
113,262,65961,1,0,0:0:0:0:
110,256,65981,1,0,0:0:0:0:
108,250,66000,1,0,0:0:0:0:
105,244,66020,1,0,0:0:0:0:
103,238,66039,1,0,0:0:0:0:
101,231,66059,1,0,0:0:0:0:
100,225,66078,1,0,0:0:0:0:
99,218,66098,1,0,0:0:0:0:
98,211,66117,1,0,0:0:0:0:
97,205,66137,1,0,0:0:0:0:
96,198,66156,1,0,0:0:0:0:
96,191,66175,1,0,0:0:0:0:
96,185,66195,1,0,0:0:0:0:
97,178,66214,1,0,0:0:0:0:
98,172,66234,1,0,0:0:0:0:
99,165,66253,1,0,0:0:0:0:
100,158,66273,1,0,0:0:0:0:
101,152,66292,1,0,0:0:0:0:
103,145,66312,1,0,0:0:0:0:
105,139,66331,1,0,0:0:0:0:
108,133,66351,1,0,0:0:0:0:
110,127,66370,1,0,0:0:0:0:
113,121,66389,1,0,0:0:0:0:
116,115,66408,1,0,0:0:0:0:
119,109,66428,1,0,0:0:0:0:
123,103,66447,1,0,0:0:0:0:
127,98,66466,1,0,0:0:0:0:
131,93,66486,1,0,0:0:0:0:
135,87,66505,1,0,0:0:0:0:
139,83,66525,1,0,0:0:0:0:
144,78,66544,1,0,0:0:0:0:
149,73,66563,1,0,0:0:0:0:
154,69,66583,1,0,0:0:0:0:
159,65,66603,1,0,0:0:0:0:
165,61,66622,1,0,0:0:0:0:
170,57,66641,1,0,0:0:0:0:
176,54,66660,1,0,0:0:0:0:
182,50,66680,1,0,0:0:0:0:
188,47,66699,1,0,0:0:0:0:
194,45,66718,1,0,0:0:0:0:
200,42,66738,1,0,0:0:0:0:
206,40,66757,1,0,0:0:0:0:
213,38,66776,1,0,0:0:0:0:
219,37,66796,1,0,0:0:0:0:
226,35,66815,1,0,0:0:0:0:
232,34,66835,1,0,0:0:0:0:
239,33,66854,1,0,0:0:0:0:
246,33,66873,1,0,0:0:0:0:
252,32,66892,1,0,0:0:0:0:
259,32,66911,1,0,0:0:0:0:
265,33,66931,1,0,0:0:0:0:
272,33,66950,1,0,0:0:0:0:
279,34,66969,1,0,0:0:0:0:
285,35,66988,1,0,0:0:0:0:
292,37,67008,1,0,0:0:0:0:
298,38,67027,1,0,0:0:0:0:
305,40,67046,1,0,0:0:0:0:
311,42,67066,1,0,0:0:0:0:
317,45,67085,1,0,0:0:0:0:
323,47,67104,1,0,0:0:0:0:
329,50,67123,1,0,0:0:0:0:
335,54,67142,1,0,0:0:0:0:
341,57,67161,1,0,0:0:0:0:
346,61,67180,1,0,0:0:0:0:
352,65,67200,1,0,0:0:0:0:
357,69,67219,1,0,0:0:0:0:
362,73,67238,1,0,0:0:0:0:
367,78,67257,1,0,0:0:0:0:
372,83,67276,1,0,0:0:0:0:
376,87,67296,1,0,0:0:0:0:
380,93,67315,1,0,0:0:0:0:
384,98,67334,1,0,0:0:0:0:
388,103,67353,1,0,0:0:0:0:
392,109,67372,1,0,0:0:0:0:
395,115,67391,1,0,0:0:0:0:
398,121,67410,1,0,0:0:0:0:
401,127,67429,1,0,0:0:0:0:
403,133,67448,1,0,0:0:0:0:
406,139,67467,1,0,0:0:0:0:
408,145,67486,1,0,0:0:0:0:
410,152,67505,1,0,0:0:0:0:
411,158,67525,1,0,0:0:0:0:
412,165,67544,1,0,0:0:0:0:
413,172,67563,1,0,0:0:0:0:
414,178,67582,1,0,0:0:0:0:
415,185,67601,1,0,0:0:0:0:
415,192,67620,1,0,0:0:0:0:
415,198,67639,1,0,0:0:0:0:
414,205,67658,1,0,0:0:0:0:
413,211,67677,1,0,0:0:0:0:
412,218,67696,1,0,0:0:0:0:
411,225,67715,1,0,0:0:0:0:
410,231,67734,1,0,0:0:0:0:
408,238,67753,1,0,0:0:0:0:
406,244,67771,1,0,0:0:0:0:
403,250,67790,1,0,0:0:0:0:
401,256,67809,1,0,0:0:0:0:
398,262,67828,1,0,0:0:0:0:
395,268,67847,1,0,0:0:0:0:
392,274,67866,1,0,0:0:0:0:
388,280,67885,1,0,0:0:0:0:
384,285,67904,1,0,0:0:0:0:
380,290,67923,1,0,0:0:0:0:
376,296,67942,1,0,0:0:0:0:
372,300,67961,1,0,0:0:0:0:
367,305,67980,1,0,0:0:0:0:
362,310,67998,1,0,0:0:0:0:
357,314,68017,1,0,0:0:0:0:
352,318,68036,1,0,0:0:0:0:
346,322,68055,1,0,0:0:0:0:
341,326,68074,1,0,0:0:0:0:
335,329,68093,1,0,0:0:0:0:
329,333,68112,1,0,0:0:0:0:
323,336,68130,1,0,0:0:0:0:
317,338,68149,1,0,0:0:0:0:
311,341,68168,1,0,0:0:0:0:
305,343,68187,1,0,0:0:0:0:
298,345,68206,1,0,0:0:0:0:
292,346,68224,1,0,0:0:0:0:
285,348,68243,1,0,0:0:0:0:
279,349,68262,1,0,0:0:0:0:
272,350,68281,1,0,0:0:0:0:
265,350,68299,1,0,0:0:0:0:
259,351,68318,1,0,0:0:0:0:
252,351,68337,1,0,0:0:0:0:
246,350,68356,1,0,0:0:0:0:
239,350,68375,1,0,0:0:0:0:
232,349,68393,1,0,0:0:0:0:
226,348,68412,1,0,0:0:0:0:
219,346,68432,1,0,0:0:0:0:
213,345,68450,1,0,0:0:0:0:
206,343,68469,1,0,0:0:0:0:
200,341,68488,1,0,0:0:0:0:
194,338,68506,1,0,0:0:0:0:
188,336,68525,1,0,0:0:0:0:
182,333,68544,1,0,0:0:0:0:
176,329,68563,1,0,0:0:0:0:
170,326,68581,1,0,0:0:0:0:
165,322,68600,1,0,0:0:0:0:
159,318,68619,1,0,0:0:0:0:
154,314,68637,1,0,0:0:0:0:
149,310,68657,1,0,0:0:0:0:
144,305,68675,1,0,0:0:0:0:
139,300,68694,1,0,0:0:0:0:
135,296,68712,1,0,0:0:0:0:
131,290,68731,1,0,0:0:0:0:
127,285,68750,1,0,0:0:0:0:
123,280,68768,1,0,0:0:0:0:
119,274,68787,1,0,0:0:0:0:
116,268,68806,1,0,0:0:0:0:
113,262,68824,1,0,0:0:0:0:
110,256,68843,1,0,0:0:0:0:
108,250,68862,1,0,0:0:0:0:
105,244,68881,1,0,0:0:0:0:
103,238,68899,1,0,0:0:0:0:
101,231,68918,1,0,0:0:0:0:
100,225,68936,1,0,0:0:0:0:
99,218,68955,1,0,0:0:0:0:
98,211,68973,1,0,0:0:0:0:
97,205,68992,1,0,0:0:0:0:
96,198,69011,1,0,0:0:0:0:
96,191,69029,1,0,0:0:0:0:
96,185,69048,1,0,0:0:0:0:
97,178,69066,1,0,0:0:0:0:
98,172,69085,1,0,0:0:0:0:
99,165,69104,1,0,0:0:0:0:
100,158,69122,1,0,0:0:0:0:
101,152,69141,1,0,0:0:0:0:
103,145,69159,1,0,0:0:0:0:
105,139,69178,1,0,0:0:0:0:
108,133,69196,1,0,0:0:0:0:
110,127,69215,1,0,0:0:0:0:
113,121,69233,1,0,0:0:0:0:
116,115,69252,1,0,0:0:0:0:
119,109,69270,1,0,0:0:0:0:
123,103,69289,1,0,0:0:0:0:
127,98,69307,1,0,0:0:0:0:
131,93,69326,1,0,0:0:0:0:
135,87,69344,1,0,0:0:0:0:
139,83,69362,1,0,0:0:0:0:
144,78,69381,1,0,0:0:0:0:
149,73,69399,1,0,0:0:0:0:
154,69,69418,1,0,0:0:0:0:
159,65,69436,1,0,0:0:0:0:
165,61,69455,1,0,0:0:0:0:
170,57,69473,1,0,0:0:0:0:
176,54,69492,1,0,0:0:0:0:
182,50,69510,1,0,0:0:0:0:
188,47,69528,1,0,0:0:0:0:
194,45,69547,1,0,0:0:0:0:
200,42,69565,1,0,0:0:0:0:
206,40,69583,1,0,0:0:0:0:
213,38,69602,1,0,0:0:0:0:
219,37,69620,1,0,0:0:0:0:
226,35,69638,1,0,0:0:0:0:
232,34,69657,1,0,0:0:0:0:
239,33,69675,1,0,0:0:0:0:
246,33,69694,1,0,0:0:0:0:
252,32,69712,1,0,0:0:0:0:
259,32,69730,1,0,0:0:0:0:
265,33,69749,1,0,0:0:0:0:
272,33,69768,1,0,0:0:0:0:
279,34,69786,1,0,0:0:0:0:
285,35,69804,1,0,0:0:0:0:
292,37,69822,1,0,0:0:0:0:
298,38,69841,1,0,0:0:0:0:
305,40,69859,1,0,0:0:0:0:
311,42,69877,1,0,0:0:0:0:
317,45,69896,1,0,0:0:0:0:
323,47,69914,1,0,0:0:0:0:
329,50,69932,1,0,0:0:0:0:
335,54,69951,1,0,0:0:0:0:
341,57,69969,1,0,0:0:0:0:
346,61,69988,1,0,0:0:0:0:
352,65,70006,1,0,0:0:0:0:
357,69,70024,1,0,0:0:0:0:
362,73,70042,1,0,0:0:0:0:
367,78,70060,1,0,0:0:0:0:
372,83,70079,1,0,0:0:0:0:
376,87,70097,1,0,0:0:0:0:
380,93,70115,1,0,0:0:0:0:
384,98,70133,1,0,0:0:0:0:
388,103,70152,1,0,0:0:0:0:
392,109,70170,1,0,0:0:0:0:
395,115,70188,1,0,0:0:0:0:
398,121,70207,1,0,0:0:0:0:
401,127,70225,1,0,0:0:0:0:
403,133,70243,1,0,0:0:0:0:
406,139,70261,1,0,0:0:0:0:
408,145,70279,1,0,0:0:0:0:
410,152,70297,1,0,0:0:0:0:
411,158,70316,1,0,0:0:0:0:
412,165,70334,1,0,0:0:0:0:
413,172,70352,1,0,0:0:0:0:
414,178,70370,1,0,0:0:0:0:
415,185,70388,1,0,0:0:0:0:
415,192,70407,1,0,0:0:0:0:
415,198,70425,1,0,0:0:0:0:
414,205,70443,1,0,0:0:0:0:
413,211,70461,1,0,0:0:0:0:
412,218,70479,1,0,0:0:0:0:
411,225,70497,1,0,0:0:0:0:
410,231,70515,1,0,0:0:0:0:
408,238,70533,1,0,0:0:0:0:
406,244,70551,1,0,0:0:0:0:
403,250,70569,1,0,0:0:0:0:
401,256,70588,1,0,0:0:0:0:
398,262,70606,1,0,0:0:0:0:
395,268,70624,1,0,0:0:0:0:
392,274,70642,1,0,0:0:0:0:
388,280,70660,1,0,0:0:0:0:
384,285,70678,1,0,0:0:0:0:
380,290,70696,1,0,0:0:0:0:
376,296,70714,1,0,0:0:0:0:
372,300,70732,1,0,0:0:0:0:
367,305,70750,1,0,0:0:0:0:
362,310,70768,1,0,0:0:0:0:
357,314,70786,1,0,0:0:0:0:
352,318,70804,1,0,0:0:0:0:
346,322,70822,1,0,0:0:0:0:
341,326,70840,1,0,0:0:0:0:
335,329,70858,1,0,0:0:0:0:
329,333,70876,1,0,0:0:0:0:
323,336,70894,1,0,0:0:0:0:
317,338,70912,1,0,0:0:0:0:
311,341,70930,1,0,0:0:0:0:
305,343,70948,1,0,0:0:0:0:
298,345,70966,1,0,0:0:0:0:
292,346,70984,1,0,0:0:0:0:
285,348,71002,1,0,0:0:0:0:
279,349,71020,1,0,0:0:0:0:
272,350,71038,1,0,0:0:0:0:
265,350,71056,1,0,0:0:0:0:
259,351,71074,1,0,0:0:0:0:
252,351,71092,1,0,0:0:0:0:
246,350,71110,1,0,0:0:0:0:
239,350,71128,1,0,0:0:0:0:
232,349,71146,1,0,0:0:0:0:
226,348,71164,1,0,0:0:0:0:
219,346,71182,1,0,0:0:0:0:
213,345,71200,1,0,0:0:0:0:
206,343,71218,1,0,0:0:0:0:
200,341,71236,1,0,0:0:0:0:
194,338,71254,1,0,0:0:0:0:
188,336,71272,1,0,0:0:0:0:
182,333,71290,1,0,0:0:0:0:
176,329,71307,1,0,0:0:0:0:
170,326,71325,1,0,0:0:0:0:
165,322,71343,1,0,0:0:0:0:
159,318,71361,1,0,0:0:0:0:
154,314,71379,1,0,0:0:0:0:
149,310,71397,1,0,0:0:0:0:
144,305,71415,1,0,0:0:0:0:
139,300,71432,1,0,0:0:0:0:
135,296,71450,1,0,0:0:0:0:
131,290,71468,1,0,0:0:0:0:
127,285,71486,1,0,0:0:0:0:
123,280,71504,1,0,0:0:0:0:
119,274,71521,1,0,0:0:0:0:
116,268,71539,1,0,0:0:0:0:
113,262,71557,1,0,0:0:0:0:
110,256,71575,1,0,0:0:0:0:
108,250,71592,1,0,0:0:0:0:
105,244,71610,1,0,0:0:0:0:
103,238,71628,1,0,0:0:0:0:
101,231,71646,1,0,0:0:0:0:
100,225,71664,1,0,0:0:0:0:
99,218,71681,1,0,0:0:0:0:
98,211,71699,1,0,0:0:0:0:
97,205,71717,1,0,0:0:0:0:
96,198,71735,1,0,0:0:0:0:
96,191,71753,1,0,0:0:0:0:
96,185,71771,1,0,0:0:0:0:
97,178,71788,1,0,0:0:0:0:
98,172,71806,1,0,0:0:0:0:
99,165,71824,1,0,0:0:0:0:
100,158,71842,1,0,0:0:0:0:
101,152,71859,1,0,0:0:0:0:
103,145,71877,1,0,0:0:0:0:
105,139,71895,1,0,0:0:0:0:
108,133,71913,1,0,0:0:0:0:
110,127,71931,1,0,0:0:0:0:
113,121,71948,1,0,0:0:0:0:
116,115,71966,1,0,0:0:0:0:
119,109,71984,1,0,0:0:0:0:
123,103,72001,1,0,0:0:0:0:
127,98,72019,1,0,0:0:0:0:
131,93,72037,1,0,0:0:0:0:
135,87,72054,1,0,0:0:0:0:
139,83,72072,1,0,0:0:0:0:
144,78,72090,1,0,0:0:0:0:
149,73,72107,1,0,0:0:0:0:
154,69,72125,1,0,0:0:0:0:
159,65,72143,1,0,0:0:0:0:
165,61,72160,1,0,0:0:0:0:
170,57,72178,1,0,0:0:0:0:
176,54,72195,1,0,0:0:0:0:
182,50,72213,1,0,0:0:0:0:
188,47,72231,1,0,0:0:0:0:
194,45,72248,1,0,0:0:0:0:
200,42,72266,1,0,0:0:0:0:
206,40,72283,1,0,0:0:0:0:
213,38,72301,1,0,0:0:0:0:
219,37,72319,1,0,0:0:0:0:
226,35,72336,1,0,0:0:0:0:
232,34,72354,1,0,0:0:0:0:
239,33,72371,1,0,0:0:0:0:
246,33,72389,1,0,0:0:0:0:
252,32,72406,1,0,0:0:0:0:
259,32,72424,1,0,0:0:0:0:
265,33,72441,1,0,0:0:0:0:
272,33,72459,1,0,0:0:0:0:
279,34,72476,1,0,0:0:0:0:
285,35,72494,1,0,0:0:0:0:
292,37,72511,1,0,0:0:0:0:
298,38,72529,1,0,0:0:0:0:
305,40,72546,1,0,0:0:0:0:
311,42,72564,1,0,0:0:0:0:
317,45,72582,1,0,0:0:0:0:
323,47,72599,1,0,0:0:0:0:
329,50,72617,1,0,0:0:0:0:
335,54,72634,1,0,0:0:0:0:
341,57,72652,1,0,0:0:0:0:
346,61,72669,1,0,0:0:0:0:
352,65,72687,1,0,0:0:0:0:
357,69,72704,1,0,0:0:0:0:
362,73,72722,1,0,0:0:0:0:
367,78,72739,1,0,0:0:0:0:
372,83,72757,1,0,0:0:0:0:
376,87,72775,1,0,0:0:0:0:
380,93,72792,1,0,0:0:0:0:
384,98,72809,1,0,0:0:0:0:
388,103,72827,1,0,0:0:0:0:
392,109,72844,1,0,0:0:0:0:
395,115,72862,1,0,0:0:0:0:
398,121,72879,1,0,0:0:0:0:
401,127,72896,1,0,0:0:0:0:
403,133,72914,1,0,0:0:0:0:
406,139,72931,1,0,0:0:0:0:
408,145,72949,1,0,0:0:0:0:
410,152,72966,1,0,0:0:0:0:
411,158,72984,1,0,0:0:0:0:
412,165,73001,1,0,0:0:0:0:
413,172,73018,1,0,0:0:0:0:
414,178,73036,1,0,0:0:0:0:
415,185,73053,1,0,0:0:0:0:
415,192,73070,1,0,0:0:0:0:
415,198,73088,1,0,0:0:0:0:
414,205,73105,1,0,0:0:0:0:
413,211,73122,1,0,0:0:0:0:
412,218,73140,1,0,0:0:0:0:
411,225,73157,1,0,0:0:0:0:
410,231,73174,1,0,0:0:0:0:
408,238,73192,1,0,0:0:0:0:
406,244,73209,1,0,0:0:0:0:
403,250,73226,1,0,0:0:0:0:
401,256,73243,1,0,0:0:0:0:
398,262,73261,1,0,0:0:0:0:
395,268,73278,1,0,0:0:0:0:
392,274,73295,1,0,0:0:0:0:
388,280,73313,1,0,0:0:0:0:
384,285,73330,1,0,0:0:0:0:
380,290,73347,1,0,0:0:0:0:
376,296,73365,1,0,0:0:0:0:
372,300,73382,1,0,0:0:0:0:
367,305,73400,1,0,0:0:0:0:
362,310,73417,1,0,0:0:0:0:
357,314,73434,1,0,0:0:0:0:
352,318,73451,1,0,0:0:0:0:
346,322,73468,1,0,0:0:0:0:
341,326,73486,1,0,0:0:0:0:
335,329,73503,1,0,0:0:0:0:
329,333,73520,1,0,0:0:0:0:
323,336,73537,1,0,0:0:0:0:
317,338,73555,1,0,0:0:0:0:
311,341,73572,1,0,0:0:0:0:
305,343,73589,1,0,0:0:0:0:
298,345,73607,1,0,0:0:0:0:
292,346,73624,1,0,0:0:0:0:
285,348,73641,1,0,0:0:0:0:
279,349,73658,1,0,0:0:0:0:
272,350,73675,1,0,0:0:0:0:
265,350,73692,1,0,0:0:0:0:
259,351,73710,1,0,0:0:0:0:
252,351,73727,1,0,0:0:0:0:
246,350,73744,1,0,0:0:0:0:
239,350,73761,1,0,0:0:0:0:
232,349,73778,1,0,0:0:0:0:
226,348,73796,1,0,0:0:0:0:
219,346,73813,1,0,0:0:0:0:
213,345,73830,1,0,0:0:0:0:
206,343,73847,1,0,0:0:0:0:
200,341,73864,1,0,0:0:0:0:
194,338,73881,1,0,0:0:0:0:
188,336,73898,1,0,0:0:0:0:
182,333,73915,1,0,0:0:0:0:
176,329,73932,1,0,0:0:0:0:
170,326,73949,1,0,0:0:0:0:
165,322,73967,1,0,0:0:0:0:
159,318,73984,1,0,0:0:0:0:
154,314,74001,1,0,0:0:0:0:
149,310,74018,1,0,0:0:0:0:
144,305,74035,1,0,0:0:0:0:
139,300,74052,1,0,0:0:0:0:
135,296,74069,1,0,0:0:0:0:
131,290,74086,1,0,0:0:0:0:
127,285,74103,1,0,0:0:0:0:
123,280,74120,1,0,0:0:0:0:
119,274,74137,1,0,0:0:0:0:
116,268,74154,1,0,0:0:0:0:
113,262,74171,1,0,0:0:0:0:
110,256,74188,1,0,0:0:0:0:
108,250,74205,1,0,0:0:0:0:
105,244,74223,1,0,0:0:0:0:
103,238,74240,1,0,0:0:0:0:
101,231,74257,1,0,0:0:0:0:
100,225,74274,1,0,0:0:0:0:
99,218,74291,1,0,0:0:0:0:
98,211,74308,1,0,0:0:0:0:
97,205,74325,1,0,0:0:0:0:
96,198,74342,1,0,0:0:0:0:
96,191,74359,1,0,0:0:0:0:
96,185,74376,1,0,0:0:0:0:
97,178,74393,1,0,0:0:0:0:
98,172,74410,1,0,0:0:0:0:
99,165,74427,1,0,0:0:0:0:
100,158,74443,1,0,0:0:0:0:
101,152,74460,1,0,0:0:0:0:
103,145,74477,1,0,0:0:0:0:
105,139,74494,1,0,0:0:0:0:
108,133,74511,1,0,0:0:0:0:
110,127,74528,1,0,0:0:0:0:
113,121,74545,1,0,0:0:0:0:
116,115,74562,1,0,0:0:0:0:
119,109,74579,1,0,0:0:0:0:
123,103,74596,1,0,0:0:0:0:
127,98,74613,1,0,0:0:0:0:
131,93,74630,1,0,0:0:0:0:
135,87,74646,1,0,0:0:0:0:
139,83,74663,1,0,0:0:0:0:
144,78,74680,1,0,0:0:0:0:
149,73,74697,1,0,0:0:0:0:
154,69,74714,1,0,0:0:0:0:
159,65,74731,1,0,0:0:0:0:
165,61,74748,1,0,0:0:0:0:
170,57,74765,1,0,0:0:0:0:
176,54,74782,1,0,0:0:0:0:
182,50,74798,1,0,0:0:0:0:
188,47,74815,1,0,0:0:0:0:
194,45,74833,1,0,0:0:0:0:
200,42,74849,1,0,0:0:0:0:
206,40,74866,1,0,0:0:0:0:
213,38,74883,1,0,0:0:0:0:
219,37,74900,1,0,0:0:0:0:
226,35,74917,1,0,0:0:0:0:
232,34,74934,1,0,0:0:0:0:
239,33,74950,1,0,0:0:0:0:
246,33,74967,1,0,0:0:0:0:
252,32,74984,1,0,0:0:0:0:
259,32,75001,1,0,0:0:0:0:
265,33,75018,1,0,0:0:0:0:
272,33,75035,1,0,0:0:0:0:
279,34,75051,1,0,0:0:0:0:
285,35,75068,1,0,0:0:0:0:
292,37,75085,1,0,0:0:0:0:
298,38,75102,1,0,0:0:0:0:
305,40,75118,1,0,0:0:0:0:
311,42,75135,1,0,0:0:0:0:
317,45,75152,1,0,0:0:0:0:
323,47,75169,1,0,0:0:0:0:
329,50,75186,1,0,0:0:0:0:
335,54,75202,1,0,0:0:0:0:
341,57,75219,1,0,0:0:0:0:
346,61,75236,1,0,0:0:0:0:
352,65,75252,1,0,0:0:0:0:
357,69,75269,1,0,0:0:0:0:
362,73,75286,1,0,0:0:0:0:
367,78,75302,1,0,0:0:0:0:
372,83,75319,1,0,0:0:0:0:
376,87,75336,1,0,0:0:0:0:
380,93,75353,1,0,0:0:0:0:
384,98,75369,1,0,0:0:0:0:
388,103,75386,1,0,0:0:0:0:
392,109,75403,1,0,0:0:0:0:
395,115,75419,1,0,0:0:0:0:
398,121,75437,1,0,0:0:0:0:
401,127,75453,1,0,0:0:0:0:
403,133,75470,1,0,0:0:0:0:
406,139,75487,1,0,0:0:0:0:
408,145,75503,1,0,0:0:0:0:
410,152,75520,1,0,0:0:0:0:
411,158,75537,1,0,0:0:0:0:
412,165,75553,1,0,0:0:0:0:
413,172,75570,1,0,0:0:0:0:
414,178,75587,1,0,0:0:0:0:
415,185,75603,1,0,0:0:0:0:
415,192,75620,1,0,0:0:0:0:
415,198,75637,5,0,0:0:0:0:
414,205,75653,1,0,0:0:0:0:
413,211,75670,1,0,0:0:0:0:
412,218,75686,1,0,0:0:0:0:
411,225,75703,1,0,0:0:0:0:
410,231,75720,1,0,0:0:0:0:
408,238,75736,1,0,0:0:0:0:
406,244,75753,1,0,0:0:0:0:
403,250,75769,1,0,0:0:0:0:
401,256,75786,1,0,0:0:0:0:
398,262,75803,1,0,0:0:0:0:
395,268,75819,1,0,0:0:0:0:
392,274,75836,1,0,0:0:0:0:
388,280,75852,1,0,0:0:0:0:
384,285,75869,1,0,0:0:0:0:
380,290,75885,1,0,0:0:0:0:
376,296,75902,1,0,0:0:0:0:
372,300,75918,1,0,0:0:0:0:
367,305,75935,1,0,0:0:0:0:
362,310,75951,1,0,0:0:0:0:
357,314,75968,1,0,0:0:0:0:
352,318,75985,1,0,0:0:0:0:
346,322,76001,1,0,0:0:0:0:
341,326,76018,1,0,0:0:0:0:
335,329,76034,1,0,0:0:0:0:
329,333,76051,1,0,0:0:0:0:
323,336,76068,1,0,0:0:0:0:
317,338,76084,1,0,0:0:0:0:
311,341,76101,1,0,0:0:0:0:
305,343,76117,1,0,0:0:0:0:
298,345,76134,1,0,0:0:0:0:
292,346,76150,1,0,0:0:0:0:
285,348,76167,1,0,0:0:0:0:
279,349,76183,1,0,0:0:0:0:
272,350,76200,1,0,0:0:0:0:
265,350,76216,1,0,0:0:0:0:
259,351,76233,1,0,0:0:0:0:
252,351,76249,1,0,0:0:0:0:
246,350,76265,1,0,0:0:0:0:
239,350,76282,1,0,0:0:0:0:
232,349,76298,1,0,0:0:0:0:
226,348,76315,1,0,0:0:0:0:
219,346,76331,1,0,0:0:0:0:
213,345,76348,1,0,0:0:0:0:
206,343,76364,1,0,0:0:0:0:
200,341,76381,1,0,0:0:0:0:
194,338,76397,1,0,0:0:0:0:
188,336,76413,1,0,0:0:0:0:
182,333,76430,1,0,0:0:0:0:
176,329,76446,1,0,0:0:0:0:
170,326,76462,1,0,0:0:0:0:
165,322,76479,1,0,0:0:0:0:
159,318,76495,1,0,0:0:0:0:
154,314,76511,1,0,0:0:0:0:
149,310,76528,1,0,0:0:0:0:
144,305,76544,1,0,0:0:0:0:
139,300,76561,1,0,0:0:0:0:
135,296,76577,1,0,0:0:0:0:
131,290,76593,1,0,0:0:0:0:
127,285,76610,1,0,0:0:0:0:
123,280,76626,1,0,0:0:0:0:
119,274,76643,1,0,0:0:0:0:
116,268,76659,1,0,0:0:0:0:
113,262,76676,1,0,0:0:0:0:
110,256,76692,1,0,0:0:0:0:
108,250,76708,1,0,0:0:0:0:
105,244,76725,1,0,0:0:0:0:
103,238,76741,1,0,0:0:0:0:
101,231,76757,1,0,0:0:0:0:
100,225,76774,1,0,0:0:0:0:
99,218,76790,1,0,0:0:0:0:
98,211,76806,1,0,0:0:0:0:
97,205,76823,1,0,0:0:0:0:
96,198,76839,1,0,0:0:0:0:
96,191,76855,1,0,0:0:0:0:
96,185,76871,1,0,0:0:0:0:
97,178,76888,1,0,0:0:0:0:
98,172,76904,1,0,0:0:0:0:
99,165,76920,1,0,0:0:0:0:
100,158,76937,1,0,0:0:0:0:
101,152,76953,1,0,0:0:0:0:
103,145,76969,1,0,0:0:0:0:
105,139,76985,1,0,0:0:0:0:
108,133,77002,1,0,0:0:0:0:
110,127,77018,1,0,0:0:0:0:
113,121,77034,1,0,0:0:0:0:
116,115,77050,1,0,0:0:0:0:
119,109,77066,1,0,0:0:0:0:
123,103,77082,1,0,0:0:0:0:
127,98,77099,1,0,0:0:0:0:
131,93,77115,1,0,0:0:0:0:
135,87,77131,1,0,0:0:0:0:
139,83,77147,1,0,0:0:0:0:
144,78,77164,1,0,0:0:0:0:
149,73,77180,1,0,0:0:0:0:
154,69,77196,1,0,0:0:0:0:
159,65,77212,1,0,0:0:0:0:
165,61,77229,1,0,0:0:0:0:
170,57,77245,1,0,0:0:0:0:
176,54,77261,1,0,0:0:0:0:
182,50,77277,1,0,0:0:0:0:
188,47,77293,1,0,0:0:0:0:
194,45,77310,1,0,0:0:0:0:
200,42,77326,1,0,0:0:0:0:
206,40,77342,1,0,0:0:0:0:
213,38,77358,1,0,0:0:0:0:
219,37,77374,1,0,0:0:0:0:
226,35,77390,1,0,0:0:0:0:
232,34,77407,1,0,0:0:0:0:
239,33,77423,1,0,0:0:0:0:
246,33,77439,1,0,0:0:0:0:
252,32,77455,1,0,0:0:0:0:
259,32,77471,1,0,0:0:0:0:
265,33,77487,1,0,0:0:0:0:
272,33,77503,1,0,0:0:0:0:
279,34,77519,1,0,0:0:0:0:
285,35,77536,1,0,0:0:0:0:
292,37,77552,1,0,0:0:0:0:
298,38,77568,1,0,0:0:0:0:
305,40,77584,1,0,0:0:0:0:
311,42,77600,1,0,0:0:0:0:
317,45,77617,1,0,0:0:0:0:
323,47,77633,1,0,0:0:0:0:
329,50,77649,1,0,0:0:0:0:
335,54,77665,1,0,0:0:0:0:
341,57,77681,1,0,0:0:0:0:
346,61,77697,1,0,0:0:0:0:
352,65,77713,1,0,0:0:0:0:
357,69,77729,1,0,0:0:0:0:
362,73,77745,1,0,0:0:0:0:
367,78,77761,1,0,0:0:0:0:
372,83,77777,1,0,0:0:0:0:
376,87,77793,1,0,0:0:0:0:
380,93,77810,1,0,0:0:0:0:
384,98,77826,1,0,0:0:0:0:
388,103,77842,1,0,0:0:0:0:
392,109,77858,1,0,0:0:0:0:
395,115,77874,1,0,0:0:0:0:
398,121,77890,1,0,0:0:0:0:
401,127,77906,1,0,0:0:0:0:
403,133,77922,1,0,0:0:0:0:
406,139,77938,1,0,0:0:0:0:
408,145,77954,1,0,0:0:0:0:
410,152,77970,1,0,0:0:0:0:
411,158,77986,1,0,0:0:0:0:
412,165,78001,1,0,0:0:0:0:
413,172,78017,1,0,0:0:0:0:
414,178,78033,1,0,0:0:0:0:
415,185,78049,1,0,0:0:0:0:
415,192,78065,1,0,0:0:0:0:
415,198,78081,1,0,0:0:0:0:
414,205,78097,1,0,0:0:0:0:
413,211,78113,1,0,0:0:0:0:
412,218,78129,1,0,0:0:0:0:
411,225,78145,1,0,0:0:0:0:
410,231,78161,1,0,0:0:0:0:
408,238,78177,1,0,0:0:0:0:
406,244,78193,1,0,0:0:0:0:
403,250,78209,1,0,0:0:0:0:
401,256,78225,1,0,0:0:0:0:
398,262,78241,1,0,0:0:0:0:
395,268,78257,1,0,0:0:0:0:
392,274,78273,1,0,0:0:0:0:
388,280,78289,1,0,0:0:0:0:
384,285,78305,1,0,0:0:0:0:
380,290,78321,1,0,0:0:0:0:
376,296,78337,1,0,0:0:0:0:
372,300,78353,1,0,0:0:0:0:
367,305,78369,1,0,0:0:0:0:
362,310,78384,1,0,0:0:0:0:
357,314,78400,1,0,0:0:0:0:
352,318,78416,1,0,0:0:0:0:
346,322,78432,1,0,0:0:0:0:
341,326,78448,1,0,0:0:0:0:
335,329,78464,1,0,0:0:0:0:
329,333,78480,1,0,0:0:0:0:
323,336,78495,1,0,0:0:0:0:
317,338,78511,1,0,0:0:0:0:
311,341,78527,1,0,0:0:0:0:
305,343,78543,1,0,0:0:0:0:
298,345,78559,1,0,0:0:0:0:
292,346,78574,1,0,0:0:0:0:
285,348,78590,1,0,0:0:0:0:
279,349,78606,1,0,0:0:0:0:
272,350,78622,1,0,0:0:0:0:
265,350,78638,1,0,0:0:0:0:
259,351,78653,1,0,0:0:0:0:
252,351,78669,1,0,0:0:0:0:
246,350,78685,1,0,0:0:0:0:
239,350,78701,1,0,0:0:0:0:
232,349,78717,1,0,0:0:0:0:
226,348,78733,1,0,0:0:0:0:
219,346,78749,1,0,0:0:0:0:
213,345,78764,1,0,0:0:0:0:
206,343,78780,1,0,0:0:0:0:
200,341,78796,1,0,0:0:0:0:
194,338,78812,1,0,0:0:0:0:
188,336,78827,1,0,0:0:0:0:
182,333,78843,1,0,0:0:0:0:
176,329,78859,1,0,0:0:0:0:
170,326,78875,1,0,0:0:0:0:
165,322,78890,1,0,0:0:0:0:
159,318,78906,1,0,0:0:0:0:
154,314,78922,1,0,0:0:0:0:
149,310,78938,1,0,0:0:0:0:
144,305,78953,1,0,0:0:0:0:
139,300,78969,1,0,0:0:0:0:
135,296,78985,1,0,0:0:0:0:
131,290,79000,1,0,0:0:0:0:
127,285,79016,1,0,0:0:0:0:
123,280,79032,1,0,0:0:0:0:
119,274,79048,1,0,0:0:0:0:
116,268,79063,1,0,0:0:0:0:
113,262,79079,1,0,0:0:0:0:
110,256,79095,1,0,0:0:0:0:
108,250,79110,1,0,0:0:0:0:
105,244,79126,1,0,0:0:0:0:
103,238,79142,1,0,0:0:0:0:
101,231,79158,1,0,0:0:0:0:
100,225,79174,1,0,0:0:0:0:
99,218,79189,1,0,0:0:0:0:
98,211,79205,1,0,0:0:0:0:
97,205,79221,1,0,0:0:0:0:
96,198,79236,1,0,0:0:0:0:
96,191,79252,1,0,0:0:0:0:
96,185,79268,1,0,0:0:0:0:
97,178,79283,1,0,0:0:0:0:
98,172,79299,1,0,0:0:0:0:
99,165,79315,1,0,0:0:0:0:
100,158,79330,1,0,0:0:0:0:
101,152,79346,1,0,0:0:0:0:
103,145,79361,1,0,0:0:0:0:
105,139,79377,1,0,0:0:0:0:
108,133,79393,1,0,0:0:0:0:
110,127,79408,1,0,0:0:0:0:
113,121,79424,1,0,0:0:0:0:
116,115,79440,1,0,0:0:0:0:
119,109,79455,1,0,0:0:0:0:
123,103,79471,1,0,0:0:0:0:
127,98,79486,1,0,0:0:0:0:
131,93,79502,1,0,0:0:0:0:
135,87,79518,1,0,0:0:0:0:
139,83,79534,1,0,0:0:0:0:
144,78,79549,1,0,0:0:0:0:
149,73,79565,1,0,0:0:0:0:
154,69,79580,1,0,0:0:0:0:
159,65,79596,1,0,0:0:0:0:
165,61,79612,1,0,0:0:0:0:
170,57,79627,1,0,0:0:0:0:
176,54,79643,1,0,0:0:0:0:
182,50,79658,1,0,0:0:0:0:
188,47,79674,1,0,0:0:0:0:
194,45,79690,1,0,0:0:0:0:
200,42,79705,1,0,0:0:0:0:
206,40,79721,1,0,0:0:0:0:
213,38,79736,1,0,0:0:0:0:
219,37,79752,1,0,0:0:0:0:
226,35,79767,1,0,0:0:0:0:
232,34,79783,1,0,0:0:0:0:
239,33,79798,1,0,0:0:0:0:
246,33,79814,1,0,0:0:0:0:
252,32,79829,1,0,0:0:0:0:
259,32,79845,1,0,0:0:0:0:
265,33,79860,1,0,0:0:0:0:
272,33,79876,1,0,0:0:0:0:
279,34,79891,1,0,0:0:0:0:
285,35,79906,1,0,0:0:0:0:
292,37,79922,1,0,0:0:0:0:
298,38,79937,1,0,0:0:0:0:
305,40,79953,1,0,0:0:0:0:
311,42,79968,1,0,0:0:0:0:
317,45,79984,1,0,0:0:0:0:
323,47,79999,1,0,0:0:0:0:
329,50,80015,1,0,0:0:0:0:
335,54,80030,1,0,0:0:0:0:
341,57,80046,1,0,0:0:0:0:
346,61,80062,1,0,0:0:0:0:
352,65,80077,1,0,0:0:0:0:
357,69,80092,1,0,0:0:0:0:
362,73,80108,1,0,0:0:0:0:
367,78,80123,1,0,0:0:0:0:
372,83,80139,1,0,0:0:0:0:
376,87,80154,1,0,0:0:0:0:
380,93,80170,1,0,0:0:0:0:
384,98,80185,1,0,0:0:0:0:
388,103,80200,1,0,0:0:0:0:
392,109,80216,1,0,0:0:0:0:
395,115,80231,1,0,0:0:0:0:
398,121,80247,1,0,0:0:0:0:
401,127,80262,1,0,0:0:0:0:
403,133,80277,1,0,0:0:0:0:
406,139,80293,1,0,0:0:0:0:
408,145,80308,1,0,0:0:0:0:
410,152,80323,1,0,0:0:0:0:
411,158,80339,1,0,0:0:0:0:
412,165,80354,1,0,0:0:0:0:
413,172,80370,1,0,0:0:0:0:
414,178,80385,1,0,0:0:0:0:
415,185,80400,1,0,0:0:0:0:
415,192,80416,1,0,0:0:0:0:
415,198,80432,1,0,0:0:0:0:
414,205,80447,1,0,0:0:0:0:
413,211,80462,1,0,0:0:0:0:
412,218,80478,1,0,0:0:0:0:
411,225,80493,1,0,0:0:0:0:
410,231,80508,1,0,0:0:0:0:
408,238,80524,1,0,0:0:0:0:
406,244,80539,1,0,0:0:0:0:
403,250,80554,1,0,0:0:0:0:
401,256,80570,1,0,0:0:0:0:
398,262,80585,1,0,0:0:0:0:
395,268,80600,1,0,0:0:0:0:
392,274,80616,1,0,0:0:0:0:
388,280,80631,1,0,0:0:0:0:
384,285,80646,1,0,0:0:0:0:
380,290,80661,1,0,0:0:0:0:
376,296,80677,1,0,0:0:0:0:
372,300,80692,1,0,0:0:0:0:
367,305,80707,1,0,0:0:0:0:
362,310,80723,1,0,0:0:0:0:
357,314,80738,1,0,0:0:0:0:
352,318,80753,1,0,0:0:0:0:
346,322,80768,1,0,0:0:0:0:
341,326,80784,1,0,0:0:0:0:
335,329,80799,1,0,0:0:0:0:
329,333,80814,1,0,0:0:0:0:
323,336,80829,1,0,0:0:0:0:
317,338,80844,1,0,0:0:0:0:
311,341,80859,1,0,0:0:0:0:
305,343,80875,1,0,0:0:0:0:
298,345,80890,1,0,0:0:0:0:
292,346,80905,1,0,0:0:0:0:
285,348,80920,1,0,0:0:0:0:
279,349,80936,1,0,0:0:0:0:
272,350,80951,1,0,0:0:0:0:
265,350,80966,1,0,0:0:0:0:
259,351,80982,1,0,0:0:0:0:
252,351,80997,1,0,0:0:0:0:
246,350,81012,1,0,0:0:0:0:
239,350,81027,1,0,0:0:0:0:
232,349,81042,1,0,0:0:0:0:
226,348,81057,1,0,0:0:0:0:
219,346,81073,1,0,0:0:0:0:
213,345,81088,1,0,0:0:0:0:
206,343,81103,1,0,0:0:0:0:
200,341,81118,1,0,0:0:0:0:
194,338,81133,1,0,0:0:0:0:
188,336,81149,1,0,0:0:0:0:
182,333,81164,1,0,0:0:0:0:
176,329,81179,1,0,0:0:0:0:
170,326,81194,1,0,0:0:0:0:
165,322,81209,1,0,0:0:0:0:
159,318,81224,1,0,0:0:0:0:
154,314,81239,1,0,0:0:0:0:
149,310,81254,1,0,0:0:0:0:
144,305,81270,1,0,0:0:0:0:
139,300,81285,1,0,0:0:0:0:
135,296,81300,1,0,0:0:0:0:
131,290,81315,1,0,0:0:0:0:
127,285,81330,1,0,0:0:0:0:
123,280,81346,1,0,0:0:0:0:
119,274,81361,1,0,0:0:0:0:
116,268,81376,1,0,0:0:0:0:
113,262,81391,1,0,0:0:0:0:
110,256,81406,1,0,0:0:0:0:
108,250,81421,1,0,0:0:0:0:
105,244,81436,1,0,0:0:0:0:
103,238,81451,1,0,0:0:0:0:
101,231,81466,1,0,0:0:0:0:
100,225,81481,1,0,0:0:0:0:
99,218,81497,1,0,0:0:0:0:
98,211,81512,1,0,0:0:0:0:
97,205,81527,1,0,0:0:0:0:
96,198,81542,1,0,0:0:0:0:
96,191,81557,1,0,0:0:0:0:
96,185,81572,1,0,0:0:0:0:
97,178,81587,1,0,0:0:0:0:
98,172,81602,1,0,0:0:0:0:
99,165,81617,1,0,0:0:0:0:
100,158,81632,1,0,0:0:0:0:
101,152,81647,1,0,0:0:0:0:
103,145,81662,1,0,0:0:0:0:
105,139,81677,1,0,0:0:0:0:
108,133,81692,1,0,0:0:0:0:
110,127,81708,1,0,0:0:0:0:
113,121,81723,1,0,0:0:0:0:
116,115,81738,1,0,0:0:0:0:
119,109,81753,1,0,0:0:0:0:
123,103,81768,1,0,0:0:0:0:
127,98,81783,1,0,0:0:0:0:
131,93,81798,1,0,0:0:0:0:
135,87,81813,1,0,0:0:0:0:
139,83,81828,1,0,0:0:0:0:
144,78,81843,1,0,0:0:0:0:
149,73,81858,1,0,0:0:0:0:
154,69,81873,1,0,0:0:0:0:
159,65,81888,1,0,0:0:0:0:
165,61,81902,1,0,0:0:0:0:
170,57,81917,1,0,0:0:0:0:
176,54,81932,1,0,0:0:0:0:
182,50,81947,1,0,0:0:0:0:
188,47,81962,1,0,0:0:0:0:
194,45,81977,1,0,0:0:0:0:
200,42,81992,1,0,0:0:0:0:
206,40,82007,1,0,0:0:0:0:
213,38,82022,1,0,0:0:0:0:
219,37,82037,1,0,0:0:0:0:
226,35,82052,1,0,0:0:0:0:
232,34,82068,1,0,0:0:0:0:
239,33,82082,1,0,0:0:0:0:
246,33,82097,1,0,0:0:0:0:
252,32,82112,1,0,0:0:0:0:
259,32,82127,1,0,0:0:0:0:
265,33,82142,1,0,0:0:0:0:
272,33,82157,1,0,0:0:0:0:
279,34,82172,1,0,0:0:0:0:
285,35,82187,1,0,0:0:0:0:
292,37,82202,1,0,0:0:0:0:
298,38,82217,1,0,0:0:0:0:
305,40,82232,1,0,0:0:0:0:
311,42,82247,1,0,0:0:0:0:
317,45,82261,1,0,0:0:0:0:
323,47,82276,1,0,0:0:0:0:
329,50,82291,1,0,0:0:0:0:
335,54,82306,1,0,0:0:0:0:
341,57,82321,1,0,0:0:0:0:
346,61,82336,1,0,0:0:0:0:
352,65,82351,1,0,0:0:0:0:
357,69,82366,1,0,0:0:0:0:
362,73,82380,1,0,0:0:0:0:
367,78,82395,1,0,0:0:0:0:
372,83,82410,1,0,0:0:0:0:
376,87,82426,1,0,0:0:0:0:
380,93,82440,1,0,0:0:0:0:
384,98,82455,1,0,0:0:0:0:
388,103,82470,1,0,0:0:0:0:
392,109,82485,1,0,0:0:0:0:
395,115,82500,1,0,0:0:0:0:
398,121,82515,1,0,0:0:0:0:
401,127,82529,1,0,0:0:0:0:
403,133,82544,1,0,0:0:0:0:
406,139,82559,1,0,0:0:0:0:
408,145,82574,1,0,0:0:0:0:
410,152,82589,1,0,0:0:0:0:
411,158,82604,1,0,0:0:0:0:
412,165,82618,1,0,0:0:0:0:
413,172,82633,1,0,0:0:0:0:
414,178,82648,1,0,0:0:0:0:
415,185,82663,1,0,0:0:0:0:
415,192,82677,1,0,0:0:0:0:
415,198,82692,1,0,0:0:0:0:
414,205,82707,1,0,0:0:0:0:
413,211,82722,1,0,0:0:0:0:
412,218,82737,1,0,0:0:0:0:
411,225,82751,1,0,0:0:0:0:
410,231,82766,1,0,0:0:0:0:
408,238,82782,1,0,0:0:0:0:
406,244,82796,1,0,0:0:0:0:
403,250,82811,1,0,0:0:0:0:
401,256,82826,1,0,0:0:0:0:
398,262,82840,1,0,0:0:0:0:
395,268,82855,1,0,0:0:0:0:
392,274,82870,1,0,0:0:0:0:
388,280,82885,1,0,0:0:0:0:
384,285,82899,1,0,0:0:0:0:
380,290,82914,1,0,0:0:0:0:
376,296,82929,1,0,0:0:0:0:
372,300,82944,1,0,0:0:0:0:
367,305,82959,1,0,0:0:0:0:
362,310,82973,1,0,0:0:0:0:
357,314,82988,1,0,0:0:0:0:
352,318,83003,1,0,0:0:0:0:
346,322,83017,1,0,0:0:0:0:
341,326,83032,1,0,0:0:0:0:
335,329,83047,1,0,0:0:0:0:
329,333,83061,1,0,0:0:0:0:
323,336,83076,1,0,0:0:0:0:
317,338,83091,1,0,0:0:0:0:
311,341,83106,1,0,0:0:0:0:
305,343,83120,1,0,0:0:0:0:
298,345,83135,1,0,0:0:0:0:
292,346,83149,1,0,0:0:0:0:
285,348,83164,1,0,0:0:0:0:
279,349,83178,1,0,0:0:0:0:
272,350,83193,1,0,0:0:0:0:
265,350,83208,1,0,0:0:0:0:
259,351,83222,1,0,0:0:0:0:
252,351,83237,1,0,0:0:0:0:
246,350,83252,1,0,0:0:0:0:
239,350,83266,1,0,0:0:0:0:
232,349,83281,1,0,0:0:0:0:
226,348,83296,1,0,0:0:0:0:
219,346,83311,1,0,0:0:0:0:
213,345,83325,1,0,0:0:0:0:
206,343,83340,1,0,0:0:0:0:
200,341,83354,1,0,0:0:0:0:
194,338,83369,1,0,0:0:0:0:
188,336,83384,1,0,0:0:0:0:
182,333,83398,1,0,0:0:0:0:
176,329,83413,1,0,0:0:0:0:
170,326,83427,1,0,0:0:0:0:
165,322,83442,1,0,0:0:0:0:
159,318,83457,1,0,0:0:0:0:
154,314,83471,1,0,0:0:0:0:
149,310,83486,1,0,0:0:0:0:
144,305,83500,1,0,0:0:0:0:
139,300,83515,1,0,0:0:0:0:
135,296,83529,1,0,0:0:0:0:
131,290,83544,1,0,0:0:0:0:
127,285,83558,1,0,0:0:0:0:
123,280,83573,1,0,0:0:0:0:
119,274,83588,1,0,0:0:0:0:
116,268,83602,1,0,0:0:0:0:
113,262,83617,1,0,0:0:0:0:
110,256,83631,1,0,0:0:0:0:
108,250,83646,1,0,0:0:0:0:
105,244,83661,1,0,0:0:0:0:
103,238,83675,1,0,0:0:0:0:
101,231,83690,1,0,0:0:0:0:
100,225,83704,1,0,0:0:0:0:
99,218,83719,1,0,0:0:0:0:
98,211,83733,1,0,0:0:0:0:
97,205,83748,1,0,0:0:0:0:
96,198,83762,1,0,0:0:0:0:
96,191,83777,1,0,0:0:0:0:
96,185,83791,1,0,0:0:0:0:
97,178,83806,1,0,0:0:0:0:
98,172,83820,1,0,0:0:0:0:
99,165,83835,1,0,0:0:0:0:
100,158,83849,1,0,0:0:0:0:
101,152,83863,1,0,0:0:0:0:
103,145,83878,1,0,0:0:0:0:
105,139,83892,1,0,0:0:0:0:
108,133,83907,1,0,0:0:0:0:
110,127,83921,1,0,0:0:0:0:
113,121,83936,1,0,0:0:0:0:
116,115,83950,1,0,0:0:0:0:
119,109,83965,1,0,0:0:0:0:
123,103,83979,1,0,0:0:0:0:
127,98,83994,1,0,0:0:0:0:
131,93,84009,1,0,0:0:0:0:
135,87,84023,1,0,0:0:0:0:
139,83,84037,1,0,0:0:0:0:
144,78,84052,1,0,0:0:0:0:
149,73,84066,1,0,0:0:0:0:
154,69,84081,1,0,0:0:0:0:
159,65,84095,1,0,0:0:0:0:
165,61,84110,1,0,0:0:0:0:
170,57,84124,1,0,0:0:0:0:
176,54,84139,1,0,0:0:0:0:
182,50,84153,1,0,0:0:0:0:
188,47,84167,1,0,0:0:0:0:
194,45,84182,1,0,0:0:0:0:
200,42,84196,1,0,0:0:0:0:
206,40,84210,1,0,0:0:0:0:
213,38,84225,1,0,0:0:0:0:
219,37,84239,1,0,0:0:0:0:
226,35,84254,1,0,0:0:0:0:
232,34,84268,1,0,0:0:0:0:
239,33,84282,1,0,0:0:0:0:
246,33,84297,1,0,0:0:0:0:
252,32,84311,1,0,0:0:0:0:
259,32,84326,1,0,0:0:0:0:
265,33,84340,1,0,0:0:0:0:
272,33,84355,1,0,0:0:0:0:
279,34,84369,1,0,0:0:0:0:
285,35,84383,1,0,0:0:0:0:
292,37,84398,1,0,0:0:0:0:
298,38,84412,1,0,0:0:0:0:
305,40,84426,1,0,0:0:0:0:
311,42,84441,1,0,0:0:0:0:
317,45,84455,1,0,0:0:0:0:
323,47,84469,1,0,0:0:0:0:
329,50,84484,1,0,0:0:0:0:
335,54,84498,1,0,0:0:0:0:
341,57,84513,1,0,0:0:0:0:
346,61,84527,1,0,0:0:0:0:
352,65,84541,1,0,0:0:0:0:
357,69,84555,1,0,0:0:0:0:
362,73,84569,1,0,0:0:0:0:
367,78,84584,1,0,0:0:0:0:
372,83,84598,1,0,0:0:0:0:
376,87,84612,1,0,0:0:0:0:
380,93,84627,1,0,0:0:0:0:
384,98,84641,1,0,0:0:0:0:
388,103,84655,1,0,0:0:0:0:
392,109,84670,1,0,0:0:0:0:
395,115,84684,1,0,0:0:0:0:
398,121,84699,1,0,0:0:0:0:
401,127,84713,1,0,0:0:0:0:
403,133,84727,1,0,0:0:0:0:
406,139,84741,1,0,0:0:0:0:
408,145,84756,1,0,0:0:0:0:
410,152,84770,1,0,0:0:0:0:
411,158,84784,1,0,0:0:0:0:
412,165,84799,1,0,0:0:0:0:
413,172,84813,1,0,0:0:0:0:
414,178,84827,1,0,0:0:0:0:
415,185,84841,1,0,0:0:0:0:
415,192,84856,1,0,0:0:0:0:
415,198,84870,1,0,0:0:0:0:
414,205,84884,1,0,0:0:0:0:
413,211,84898,1,0,0:0:0:0:
412,218,84912,1,0,0:0:0:0:
411,225,84926,1,0,0:0:0:0:
410,231,84941,1,0,0:0:0:0:
408,238,84955,1,0,0:0:0:0:
406,244,84969,1,0,0:0:0:0:
403,250,84983,1,0,0:0:0:0:
401,256,84998,1,0,0:0:0:0:
398,262,85012,1,0,0:0:0:0:
395,268,85026,1,0,0:0:0:0:
392,274,85040,1,0,0:0:0:0:
388,280,85055,1,0,0:0:0:0:
384,285,85069,1,0,0:0:0:0:
380,290,85083,1,0,0:0:0:0:
376,296,85097,1,0,0:0:0:0:
372,300,85112,1,0,0:0:0:0:
367,305,85126,1,0,0:0:0:0:
362,310,85140,1,0,0:0:0:0:
357,314,85154,1,0,0:0:0:0:
352,318,85168,1,0,0:0:0:0:
346,322,85183,1,0,0:0:0:0:
341,326,85197,1,0,0:0:0:0:
335,329,85211,1,0,0:0:0:0:
329,333,85225,1,0,0:0:0:0:
323,336,85239,1,0,0:0:0:0:
317,338,85253,1,0,0:0:0:0:
311,341,85267,1,0,0:0:0:0:
305,343,85281,1,0,0:0:0:0:
298,345,85295,1,0,0:0:0:0:
292,346,85310,1,0,0:0:0:0:
285,348,85324,1,0,0:0:0:0:
279,349,85338,1,0,0:0:0:0:
272,350,85352,1,0,0:0:0:0:
265,350,85366,1,0,0:0:0:0:
259,351,85380,1,0,0:0:0:0:
252,351,85395,1,0,0:0:0:0:
246,350,85409,1,0,0:0:0:0:
239,350,85423,1,0,0:0:0:0:
232,349,85437,1,0,0:0:0:0:
226,348,85451,1,0,0:0:0:0:
219,346,85465,1,0,0:0:0:0:
213,345,85479,1,0,0:0:0:0:
206,343,85493,1,0,0:0:0:0:
200,341,85508,1,0,0:0:0:0:
194,338,85522,1,0,0:0:0:0:
188,336,85536,1,0,0:0:0:0:
182,333,85550,1,0,0:0:0:0:
176,329,85564,1,0,0:0:0:0:
170,326,85578,1,0,0:0:0:0:
165,322,85592,1,0,0:0:0:0:
159,318,85606,1,0,0:0:0:0:
154,314,85620,1,0,0:0:0:0:
149,310,85634,1,0,0:0:0:0:
144,305,85648,1,0,0:0:0:0:
139,300,85662,1,0,0:0:0:0:
135,296,85676,1,0,0:0:0:0:
131,290,85690,1,0,0:0:0:0:
127,285,85704,1,0,0:0:0:0:
123,280,85719,1,0,0:0:0:0:
119,274,85733,1,0,0:0:0:0:
116,268,85747,1,0,0:0:0:0:
113,262,85761,1,0,0:0:0:0:
110,256,85775,1,0,0:0:0:0:
108,250,85789,1,0,0:0:0:0:
105,244,85803,1,0,0:0:0:0:
103,238,85817,1,0,0:0:0:0:
101,231,85831,1,0,0:0:0:0:
100,225,85845,1,0,0:0:0:0:
99,218,85859,1,0,0:0:0:0:
98,211,85873,1,0,0:0:0:0:
97,205,85887,1,0,0:0:0:0:
96,198,85902,1,0,0:0:0:0:
96,191,85916,1,0,0:0:0:0:
96,185,85930,1,0,0:0:0:0:
97,178,85944,1,0,0:0:0:0:
98,172,85958,1,0,0:0:0:0:
99,165,85972,1,0,0:0:0:0:
100,158,85986,1,0,0:0:0:0:
101,152,86000,1,0,0:0:0:0:
103,145,86014,1,0,0:0:0:0:
105,139,86028,1,0,0:0:0:0:
108,133,86042,1,0,0:0:0:0:
110,127,86056,1,0,0:0:0:0:
113,121,86069,1,0,0:0:0:0:
116,115,86083,1,0,0:0:0:0:
119,109,86097,1,0,0:0:0:0:
123,103,86111,1,0,0:0:0:0:
127,98,86125,1,0,0:0:0:0:
131,93,86139,1,0,0:0:0:0:
135,87,86153,1,0,0:0:0:0:
139,83,86167,1,0,0:0:0:0:
144,78,86181,1,0,0:0:0:0:
149,73,86195,1,0,0:0:0:0:
154,69,86209,1,0,0:0:0:0:
159,65,86223,1,0,0:0:0:0:
165,61,86237,1,0,0:0:0:0:
170,57,86251,1,0,0:0:0:0:
176,54,86265,1,0,0:0:0:0:
182,50,86279,1,0,0:0:0:0:
188,47,86293,1,0,0:0:0:0:
194,45,86307,1,0,0:0:0:0:
200,42,86321,1,0,0:0:0:0:
206,40,86335,1,0,0:0:0:0:
213,38,86349,1,0,0:0:0:0:
219,37,86363,1,0,0:0:0:0:
226,35,86377,1,0,0:0:0:0:
232,34,86391,1,0,0:0:0:0:
239,33,86404,1,0,0:0:0:0:
246,33,86418,1,0,0:0:0:0:
252,32,86432,1,0,0:0:0:0:
259,32,86446,1,0,0:0:0:0:
265,33,86460,1,0,0:0:0:0:
272,33,86474,1,0,0:0:0:0:
279,34,86488,1,0,0:0:0:0:
285,35,86502,1,0,0:0:0:0:
292,37,86516,1,0,0:0:0:0:
298,38,86529,1,0,0:0:0:0:
305,40,86543,1,0,0:0:0:0:
311,42,86557,1,0,0:0:0:0:
317,45,86571,1,0,0:0:0:0:
323,47,86585,1,0,0:0:0:0:
329,50,86599,1,0,0:0:0:0:
335,54,86613,1,0,0:0:0:0:
341,57,86627,1,0,0:0:0:0:
346,61,86641,1,0,0:0:0:0:
352,65,86654,1,0,0:0:0:0:
357,69,86668,1,0,0:0:0:0:
362,73,86682,1,0,0:0:0:0:
367,78,86696,1,0,0:0:0:0:
372,83,86710,1,0,0:0:0:0:
376,87,86724,1,0,0:0:0:0:
380,93,86737,1,0,0:0:0:0:
384,98,86751,1,0,0:0:0:0:
388,103,86765,1,0,0:0:0:0:
392,109,86779,1,0,0:0:0:0:
395,115,86793,1,0,0:0:0:0:
398,121,86806,1,0,0:0:0:0:
401,127,86820,1,0,0:0:0:0:
403,133,86834,1,0,0:0:0:0:
406,139,86848,1,0,0:0:0:0:
408,145,86862,1,0,0:0:0:0:
410,152,86875,1,0,0:0:0:0:
411,158,86889,1,0,0:0:0:0:
412,165,86903,1,0,0:0:0:0:
413,172,86917,1,0,0:0:0:0:
414,178,86931,1,0,0:0:0:0:
415,185,86945,1,0,0:0:0:0:
415,192,86958,1,0,0:0:0:0:
415,198,86972,1,0,0:0:0:0:
414,205,86986,1,0,0:0:0:0:
413,211,87000,1,0,0:0:0:0:
412,218,87013,1,0,0:0:0:0:
411,225,87027,1,0,0:0:0:0:
410,231,87041,1,0,0:0:0:0:
408,238,87055,1,0,0:0:0:0:
406,244,87068,1,0,0:0:0:0:
403,250,87082,1,0,0:0:0:0:
401,256,87096,1,0,0:0:0:0:
398,262,87109,1,0,0:0:0:0:
395,268,87123,1,0,0:0:0:0:
392,274,87137,1,0,0:0:0:0:
388,280,87151,1,0,0:0:0:0:
384,285,87164,1,0,0:0:0:0:
380,290,87178,1,0,0:0:0:0:
376,296,87192,1,0,0:0:0:0:
372,300,87206,1,0,0:0:0:0:
367,305,87220,1,0,0:0:0:0:
362,310,87233,1,0,0:0:0:0:
357,314,87247,1,0,0:0:0:0:
352,318,87261,1,0,0:0:0:0:
346,322,87274,1,0,0:0:0:0:
341,326,87288,1,0,0:0:0:0:
335,329,87302,1,0,0:0:0:0:
329,333,87315,1,0,0:0:0:0:
323,336,87329,1,0,0:0:0:0:
317,338,87343,1,0,0:0:0:0:
311,341,87356,1,0,0:0:0:0:
305,343,87370,1,0,0:0:0:0:
298,345,87384,1,0,0:0:0:0:
292,346,87397,1,0,0:0:0:0:
285,348,87411,1,0,0:0:0:0:
279,349,87424,1,0,0:0:0:0:
272,350,87438,1,0,0:0:0:0:
265,350,87452,1,0,0:0:0:0:
259,351,87465,1,0,0:0:0:0:
252,351,87479,1,0,0:0:0:0:
246,350,87493,1,0,0:0:0:0:
239,350,87506,1,0,0:0:0:0:
232,349,87520,1,0,0:0:0:0:
226,348,87534,1,0,0:0:0:0:
219,346,87548,1,0,0:0:0:0:
213,345,87561,1,0,0:0:0:0:
206,343,87575,1,0,0:0:0:0:
200,341,87588,1,0,0:0:0:0:
194,338,87602,1,0,0:0:0:0:
188,336,87616,1,0,0:0:0:0:
182,333,87629,1,0,0:0:0:0:
176,329,87643,1,0,0:0:0:0:
170,326,87656,1,0,0:0:0:0:
165,322,87670,1,0,0:0:0:0:
159,318,87684,1,0,0:0:0:0:
154,314,87697,1,0,0:0:0:0:
149,310,87711,1,0,0:0:0:0:
144,305,87724,1,0,0:0:0:0:
139,300,87738,1,0,0:0:0:0:
135,296,87751,1,0,0:0:0:0:
131,290,87765,1,0,0:0:0:0:
127,285,87778,1,0,0:0:0:0:
123,280,87792,1,0,0:0:0:0:
119,274,87806,1,0,0:0:0:0:
116,268,87819,1,0,0:0:0:0:
113,262,87833,1,0,0:0:0:0:
110,256,87846,1,0,0:0:0:0:
108,250,87860,1,0,0:0:0:0:
105,244,87874,1,0,0:0:0:0:
103,238,87887,1,0,0:0:0:0:
101,231,87901,1,0,0:0:0:0:
100,225,87914,1,0,0:0:0:0:
99,218,87928,1,0,0:0:0:0:
98,211,87941,1,0,0:0:0:0:
97,205,87955,1,0,0:0:0:0:
96,198,87968,1,0,0:0:0:0:
96,191,87982,1,0,0:0:0:0:
96,185,87995,1,0,0:0:0:0:
97,178,88009,1,0,0:0:0:0:
98,172,88023,1,0,0:0:0:0:
99,165,88037,1,0,0:0:0:0:
100,158,88050,1,0,0:0:0:0:
101,152,88064,1,0,0:0:0:0:
103,145,88077,1,0,0:0:0:0:
105,139,88091,1,0,0:0:0:0:
108,133,88104,1,0,0:0:0:0:
110,127,88118,1,0,0:0:0:0:
113,121,88131,1,0,0:0:0:0:
116,115,88145,1,0,0:0:0:0:
119,109,88158,1,0,0:0:0:0:
123,103,88172,1,0,0:0:0:0:
127,98,88185,1,0,0:0:0:0:
131,93,88199,1,0,0:0:0:0:
135,87,88212,1,0,0:0:0:0:
139,83,88225,1,0,0:0:0:0:
144,78,88239,1,0,0:0:0:0:
149,73,88252,1,0,0:0:0:0:
154,69,88266,1,0,0:0:0:0:
159,65,88279,1,0,0:0:0:0:
165,61,88293,1,0,0:0:0:0:
170,57,88306,1,0,0:0:0:0:
176,54,88320,1,0,0:0:0:0:
182,50,88333,1,0,0:0:0:0:
188,47,88347,1,0,0:0:0:0:
194,45,88361,1,0,0:0:0:0:
200,42,88374,1,0,0:0:0:0:
206,40,88387,1,0,0:0:0:0:
213,38,88401,1,0,0:0:0:0:
219,37,88414,1,0,0:0:0:0:
226,35,88428,1,0,0:0:0:0:
232,34,88441,1,0,0:0:0:0:
239,33,88455,1,0,0:0:0:0:
246,33,88468,1,0,0:0:0:0:
252,32,88481,1,0,0:0:0:0:
259,32,88495,1,0,0:0:0:0:
265,33,88508,1,0,0:0:0:0:
272,33,88522,1,0,0:0:0:0:
279,34,88535,1,0,0:0:0:0:
285,35,88548,1,0,0:0:0:0:
292,37,88562,1,0,0:0:0:0:
298,38,88575,1,0,0:0:0:0:
305,40,88589,1,0,0:0:0:0:
311,42,88602,1,0,0:0:0:0:
317,45,88615,1,0,0:0:0:0:
323,47,88629,1,0,0:0:0:0:
329,50,88642,1,0,0:0:0:0:
335,54,88656,1,0,0:0:0:0:
341,57,88669,1,0,0:0:0:0:
346,61,88683,1,0,0:0:0:0:
352,65,88696,1,0,0:0:0:0:
357,69,88709,1,0,0:0:0:0:
362,73,88723,1,0,0:0:0:0:
367,78,88736,1,0,0:0:0:0:
372,83,88749,1,0,0:0:0:0:
376,87,88763,1,0,0:0:0:0:
380,93,88776,1,0,0:0:0:0:
384,98,88789,1,0,0:0:0:0:
388,103,88803,1,0,0:0:0:0:
392,109,88816,1,0,0:0:0:0:
395,115,88830,1,0,0:0:0:0:
398,121,88843,1,0,0:0:0:0:
401,127,88856,1,0,0:0:0:0:
403,133,88869,1,0,0:0:0:0:
406,139,88883,1,0,0:0:0:0:
408,145,88896,1,0,0:0:0:0:
410,152,88909,1,0,0:0:0:0:
411,158,88923,1,0,0:0:0:0:
412,165,88936,1,0,0:0:0:0:
413,172,88949,1,0,0:0:0:0:
414,178,88963,1,0,0:0:0:0:
415,185,88976,1,0,0:0:0:0:
415,192,88989,1,0,0:0:0:0:
415,198,89003,1,0,0:0:0:0:
414,205,89016,1,0,0:0:0:0:
413,211,89029,1,0,0:0:0:0:
412,218,89042,1,0,0:0:0:0:
411,225,89056,1,0,0:0:0:0:
410,231,89069,1,0,0:0:0:0:
408,238,89082,1,0,0:0:0:0:
406,244,89096,1,0,0:0:0:0:
403,250,89109,1,0,0:0:0:0:
401,256,89122,1,0,0:0:0:0:
398,262,89135,1,0,0:0:0:0:
395,268,89149,1,0,0:0:0:0:
392,274,89163,1,0,0:0:0:0:
388,280,89176,1,0,0:0:0:0:
384,285,89189,1,0,0:0:0:0:
380,290,89202,1,0,0:0:0:0:
376,296,89216,1,0,0:0:0:0:
372,300,89229,1,0,0:0:0:0:
367,305,89242,1,0,0:0:0:0:
362,310,89255,1,0,0:0:0:0:
357,314,89269,1,0,0:0:0:0:
352,318,89282,1,0,0:0:0:0:
346,322,89295,1,0,0:0:0:0:
341,326,89308,1,0,0:0:0:0:
335,329,89322,1,0,0:0:0:0:
329,333,89335,1,0,0:0:0:0:
323,336,89348,1,0,0:0:0:0:
317,338,89361,1,0,0:0:0:0:
311,341,89374,1,0,0:0:0:0:
305,343,89388,1,0,0:0:0:0:
298,345,89401,1,0,0:0:0:0:
292,346,89414,1,0,0:0:0:0:
285,348,89427,1,0,0:0:0:0:
279,349,89441,1,0,0:0:0:0:
272,350,89454,1,0,0:0:0:0:
265,350,89467,1,0,0:0:0:0:
259,351,89481,1,0,0:0:0:0:
252,351,89494,1,0,0:0:0:0:
246,350,89507,1,0,0:0:0:0:
239,350,89520,1,0,0:0:0:0:
232,349,89533,1,0,0:0:0:0:
226,348,89546,1,0,0:0:0:0:
219,346,89560,1,0,0:0:0:0:
213,345,89573,1,0,0:0:0:0:
206,343,89586,1,0,0:0:0:0:
200,341,89599,1,0,0:0:0:0:
194,338,89612,1,0,0:0:0:0:
188,336,89626,1,0,0:0:0:0:
182,333,89639,1,0,0:0:0:0:
176,329,89652,1,0,0:0:0:0:
170,326,89665,1,0,0:0:0:0:
165,322,89678,1,0,0:0:0:0:
159,318,89691,1,0,0:0:0:0:
154,314,89704,1,0,0:0:0:0:
149,310,89717,1,0,0:0:0:0:
144,305,89731,1,0,0:0:0:0:
139,300,89744,1,0,0:0:0:0:
135,296,89757,1,0,0:0:0:0:
131,290,89770,1,0,0:0:0:0:
127,285,89783,1,0,0:0:0:0:
123,280,89797,1,0,0:0:0:0:
119,274,89810,1,0,0:0:0:0:
116,268,89823,1,0,0:0:0:0:
113,262,89836,1,0,0:0:0:0:
110,256,89849,1,0,0:0:0:0:
108,250,89862,1,0,0:0:0:0:
105,244,89875,1,0,0:0:0:0:
103,238,89888,1,0,0:0:0:0:
101,231,89901,1,0,0:0:0:0:
100,225,89915,1,0,0:0:0:0:
99,218,89928,1,0,0:0:0:0:
98,211,89941,1,0,0:0:0:0:
97,205,89954,1,0,0:0:0:0:
96,198,89967,1,0,0:0:0:0:
96,191,89980,1,0,0:0:0:0:
96,185,89993,1,0,0:0:0:0:
97,178,90006,1,0,0:0:0:0:
98,172,90019,1,0,0:0:0:0:
99,165,90032,1,0,0:0:0:0:
100,158,90045,1,0,0:0:0:0:
101,152,90058,1,0,0:0:0:0:
103,145,90071,1,0,0:0:0:0:
105,139,90084,1,0,0:0:0:0:
108,133,90097,1,0,0:0:0:0:
110,127,90111,1,0,0:0:0:0:
113,121,90124,1,0,0:0:0:0:
116,115,90137,1,0,0:0:0:0:
119,109,90150,1,0,0:0:0:0:
123,103,90163,1,0,0:0:0:0:
127,98,90176,1,0,0:0:0:0:
131,93,90189,1,0,0:0:0:0:
135,87,90202,1,0,0:0:0:0:
139,83,90215,1,0,0:0:0:0:
144,78,90228,1,0,0:0:0:0:
149,73,90241,1,0,0:0:0:0:
154,69,90254,1,0,0:0:0:0:
159,65,90268,1,0,0:0:0:0:
165,61,90281,1,0,0:0:0:0:
170,57,90294,1,0,0:0:0:0:
176,54,90307,1,0,0:0:0:0:
182,50,90320,1,0,0:0:0:0:
188,47,90333,1,0,0:0:0:0:
194,45,90346,1,0,0:0:0:0:
200,42,90359,1,0,0:0:0:0:
206,40,90372,1,0,0:0:0:0:
213,38,90385,1,0,0:0:0:0:
219,37,90398,1,0,0:0:0:0:
226,35,90411,1,0,0:0:0:0:
232,34,90424,1,0,0:0:0:0:
239,33,90436,1,0,0:0:0:0:
246,33,90449,1,0,0:0:0:0:
252,32,90462,1,0,0:0:0:0:
259,32,90475,1,0,0:0:0:0:
265,33,90488,1,0,0:0:0:0:
272,33,90501,1,0,0:0:0:0:
279,34,90514,1,0,0:0:0:0:
285,35,90527,1,0,0:0:0:0:
292,37,90540,1,0,0:0:0:0:
298,38,90553,1,0,0:0:0:0:
305,40,90566,1,0,0:0:0:0:
311,42,90580,1,0,0:0:0:0:
317,45,90592,1,0,0:0:0:0:
323,47,90605,1,0,0:0:0:0:
329,50,90618,1,0,0:0:0:0:
335,54,90631,1,0,0:0:0:0:
341,57,90644,1,0,0:0:0:0:
346,61,90657,1,0,0:0:0:0:
352,65,90670,1,0,0:0:0:0:
357,69,90683,1,0,0:0:0:0:
362,73,90696,1,0,0:0:0:0:
367,78,90709,1,0,0:0:0:0:
372,83,90722,1,0,0:0:0:0:
376,87,90735,1,0,0:0:0:0:
380,93,90747,1,0,0:0:0:0:
384,98,90760,1,0,0:0:0:0:
388,103,90773,1,0,0:0:0:0:
392,109,90786,1,0,0:0:0:0:
395,115,90799,1,0,0:0:0:0:
398,121,90812,1,0,0:0:0:0:
401,127,90825,1,0,0:0:0:0:
403,133,90838,1,0,0:0:0:0:
406,139,90851,1,0,0:0:0:0:
408,145,90864,1,0,0:0:0:0:
410,152,90877,1,0,0:0:0:0:
411,158,90890,1,0,0:0:0:0:
412,165,90902,1,0,0:0:0:0:
413,172,90915,1,0,0:0:0:0:
414,178,90928,1,0,0:0:0:0:
415,185,90941,1,0,0:0:0:0:
415,192,90954,1,0,0:0:0:0:
415,198,90967,1,0,0:0:0:0:
414,205,90980,1,0,0:0:0:0:
413,211,90993,1,0,0:0:0:0:
412,218,91005,1,0,0:0:0:0:
411,225,91018,1,0,0:0:0:0:
410,231,91031,1,0,0:0:0:0:
408,238,91045,1,0,0:0:0:0:
406,244,91057,1,0,0:0:0:0:
403,250,91070,1,0,0:0:0:0:
401,256,91083,1,0,0:0:0:0:
398,262,91096,1,0,0:0:0:0:
395,268,91109,1,0,0:0:0:0:
392,274,91122,1,0,0:0:0:0:
388,280,91134,1,0,0:0:0:0:
384,285,91147,1,0,0:0:0:0:
380,290,91160,1,0,0:0:0:0:
376,296,91173,1,0,0:0:0:0:
372,300,91186,1,0,0:0:0:0:
367,305,91199,1,0,0:0:0:0:
362,310,91211,1,0,0:0:0:0:
357,314,91224,1,0,0:0:0:0:
352,318,91237,1,0,0:0:0:0:
346,322,91250,1,0,0:0:0:0:
341,326,91263,1,0,0:0:0:0:
335,329,91275,1,0,0:0:0:0:
329,333,91288,1,0,0:0:0:0:
323,336,91301,1,0,0:0:0:0:
317,338,91314,1,0,0:0:0:0:
311,341,91327,1,0,0:0:0:0:
305,343,91340,1,0,0:0:0:0:
298,345,91353,1,0,0:0:0:0:
292,346,91365,1,0,0:0:0:0:
285,348,91378,1,0,0:0:0:0:
279,349,91391,1,0,0:0:0:0:
272,350,91404,1,0,0:0:0:0:
265,350,91416,1,0,0:0:0:0:
259,351,91429,1,0,0:0:0:0:
252,351,91442,1,0,0:0:0:0:
246,350,91455,1,0,0:0:0:0:
239,350,91468,1,0,0:0:0:0:
232,349,91480,1,0,0:0:0:0:
226,348,91493,1,0,0:0:0:0:
219,346,91506,1,0,0:0:0:0:
213,345,91518,1,0,0:0:0:0:
206,343,91531,1,0,0:0:0:0:
200,341,91544,1,0,0:0:0:0:
194,338,91557,1,0,0:0:0:0:
188,336,91569,1,0,0:0:0:0:
182,333,91582,1,0,0:0:0:0:
176,329,91595,1,0,0:0:0:0:
170,326,91608,1,0,0:0:0:0:
165,322,91620,1,0,0:0:0:0:
159,318,91633,1,0,0:0:0:0:
154,314,91646,1,0,0:0:0:0:
149,310,91659,1,0,0:0:0:0:
144,305,91671,1,0,0:0:0:0:
139,300,91684,1,0,0:0:0:0:
135,296,91697,1,0,0:0:0:0:
131,290,91709,1,0,0:0:0:0:
127,285,91722,1,0,0:0:0:0:
123,280,91735,1,0,0:0:0:0:
119,274,91748,1,0,0:0:0:0:
116,268,91760,1,0,0:0:0:0:
113,262,91773,1,0,0:0:0:0:
110,256,91786,1,0,0:0:0:0:
108,250,91798,1,0,0:0:0:0:
105,244,91812,1,0,0:0:0:0:
103,238,91824,1,0,0:0:0:0:
101,231,91837,1,0,0:0:0:0:
100,225,91850,1,0,0:0:0:0:
99,218,91862,1,0,0:0:0:0:
98,211,91875,1,0,0:0:0:0:
97,205,91888,1,0,0:0:0:0:
96,198,91900,1,0,0:0:0:0:
96,191,91913,1,0,0:0:0:0:
96,185,91926,1,0,0:0:0:0:
97,178,91938,1,0,0:0:0:0:
98,172,91951,1,0,0:0:0:0:
99,165,91964,1,0,0:0:0:0:
100,158,91976,1,0,0:0:0:0:
101,152,91989,1,0,0:0:0:0:
103,145,92001,1,0,0:0:0:0:
105,139,92014,1,0,0:0:0:0:
108,133,92027,1,0,0:0:0:0:
110,127,92039,1,0,0:0:0:0:
113,121,92052,1,0,0:0:0:0:
116,115,92065,1,0,0:0:0:0:
119,109,92077,1,0,0:0:0:0:
123,103,92090,1,0,0:0:0:0:
127,98,92103,1,0,0:0:0:0:
131,93,92116,1,0,0:0:0:0:
135,87,92128,1,0,0:0:0:0:
139,83,92141,1,0,0:0:0:0:
144,78,92153,1,0,0:0:0:0:
149,73,92166,1,0,0:0:0:0:
154,69,92179,1,0,0:0:0:0:
159,65,92191,1,0,0:0:0:0:
165,61,92204,1,0,0:0:0:0:
170,57,92217,1,0,0:0:0:0:
176,54,92229,1,0,0:0:0:0:
182,50,92242,1,0,0:0:0:0:
188,47,92254,1,0,0:0:0:0:
194,45,92268,1,0,0:0:0:0:
200,42,92280,1,0,0:0:0:0:
206,40,92293,1,0,0:0:0:0:
213,38,92305,1,0,0:0:0:0:
219,37,92318,1,0,0:0:0:0:
226,35,92330,1,0,0:0:0:0:
232,34,92343,1,0,0:0:0:0:
239,33,92356,1,0,0:0:0:0:
246,33,92368,1,0,0:0:0:0:
252,32,92381,1,0,0:0:0:0:
259,32,92393,1,0,0:0:0:0:
265,33,92406,1,0,0:0:0:0:
272,33,92419,1,0,0:0:0:0:
279,34,92431,1,0,0:0:0:0:
285,35,92444,1,0,0:0:0:0:
292,37,92456,1,0,0:0:0:0:
298,38,92469,1,0,0:0:0:0:
305,40,92481,1,0,0:0:0:0:
311,42,92494,1,0,0:0:0:0:
317,45,92506,1,0,0:0:0:0:
323,47,92519,1,0,0:0:0:0:
329,50,92532,1,0,0:0:0:0:
335,54,92544,1,0,0:0:0:0:
341,57,92557,1,0,0:0:0:0:
346,61,92570,1,0,0:0:0:0:
352,65,92582,1,0,0:0:0:0:
357,69,92595,1,0,0:0:0:0:
362,73,92607,1,0,0:0:0:0:
367,78,92620,1,0,0:0:0:0:
372,83,92632,1,0,0:0:0:0:
376,87,92645,1,0,0:0:0:0:
380,93,92657,1,0,0:0:0:0:
384,98,92670,1,0,0:0:0:0:
388,103,92682,1,0,0:0:0:0:
392,109,92695,1,0,0:0:0:0:
395,115,92707,1,0,0:0:0:0:
398,121,92720,1,0,0:0:0:0:
401,127,92732,1,0,0:0:0:0:
403,133,92745,1,0,0:0:0:0:
406,139,92757,1,0,0:0:0:0:
408,145,92770,1,0,0:0:0:0:
410,152,92782,1,0,0:0:0:0:
411,158,92795,1,0,0:0:0:0:
412,165,92807,1,0,0:0:0:0:
413,172,92820,1,0,0:0:0:0:
414,178,92832,1,0,0:0:0:0:
415,185,92845,1,0,0:0:0:0:
415,192,92857,1,0,0:0:0:0:
415,198,92870,5,0,0:0:0:0:
414,205,92882,1,0,0:0:0:0:
413,211,92894,1,0,0:0:0:0:
412,218,92907,1,0,0:0:0:0:
411,225,92919,1,0,0:0:0:0:
410,231,92932,1,0,0:0:0:0:
408,238,92944,1,0,0:0:0:0:
406,244,92957,1,0,0:0:0:0:
403,250,92969,1,0,0:0:0:0:
401,256,92982,1,0,0:0:0:0:
398,262,92994,1,0,0:0:0:0:
395,268,93007,1,0,0:0:0:0:
392,274,93019,1,0,0:0:0:0:
388,280,93032,1,0,0:0:0:0:
384,285,93044,1,0,0:0:0:0:
380,290,93057,1,0,0:0:0:0:
376,296,93069,1,0,0:0:0:0:
372,300,93082,1,0,0:0:0:0:
367,305,93094,1,0,0:0:0:0:
362,310,93107,1,0,0:0:0:0:
357,314,93119,1,0,0:0:0:0:
352,318,93131,1,0,0:0:0:0:
346,322,93144,1,0,0:0:0:0:
341,326,93156,1,0,0:0:0:0:
335,329,93169,1,0,0:0:0:0:
329,333,93181,1,0,0:0:0:0:
323,336,93193,1,0,0:0:0:0:
317,338,93206,1,0,0:0:0:0:
311,341,93218,1,0,0:0:0:0:
305,343,93231,1,0,0:0:0:0:
298,345,93243,1,0,0:0:0:0:
292,346,93255,1,0,0:0:0:0:
285,348,93268,1,0,0:0:0:0:
279,349,93280,1,0,0:0:0:0:
272,350,93293,1,0,0:0:0:0:
265,350,93305,1,0,0:0:0:0:
259,351,93317,1,0,0:0:0:0:
252,351,93330,1,0,0:0:0:0:
246,350,93342,1,0,0:0:0:0:
239,350,93355,1,0,0:0:0:0:
232,349,93367,1,0,0:0:0:0:
226,348,93379,1,0,0:0:0:0:
219,346,93392,1,0,0:0:0:0:
213,345,93404,1,0,0:0:0:0:
206,343,93417,1,0,0:0:0:0:
200,341,93429,1,0,0:0:0:0:
194,338,93441,1,0,0:0:0:0:
188,336,93454,1,0,0:0:0:0:
182,333,93466,1,0,0:0:0:0:
176,329,93479,1,0,0:0:0:0:
170,326,93491,1,0,0:0:0:0:
165,322,93504,1,0,0:0:0:0:
159,318,93516,1,0,0:0:0:0:
154,314,93528,1,0,0:0:0:0:
149,310,93541,1,0,0:0:0:0:
144,305,93553,1,0,0:0:0:0:
139,300,93565,1,0,0:0:0:0:
135,296,93578,1,0,0:0:0:0:
131,290,93590,1,0,0:0:0:0:
127,285,93602,1,0,0:0:0:0:
123,280,93615,1,0,0:0:0:0:
119,274,93627,1,0,0:0:0:0:
116,268,93639,1,0,0:0:0:0:
113,262,93651,1,0,0:0:0:0:
110,256,93664,1,0,0:0:0:0:
108,250,93676,1,0,0:0:0:0:
105,244,93688,1,0,0:0:0:0:
103,238,93701,1,0,0:0:0:0:
101,231,93713,1,0,0:0:0:0:
100,225,93725,1,0,0:0:0:0:
99,218,93738,1,0,0:0:0:0:
98,211,93750,1,0,0:0:0:0:
97,205,93762,1,0,0:0:0:0:
96,198,93775,1,0,0:0:0:0:
96,191,93787,1,0,0:0:0:0:
96,185,93799,1,0,0:0:0:0:
97,178,93812,1,0,0:0:0:0:
98,172,93824,1,0,0:0:0:0:
99,165,93836,1,0,0:0:0:0:
100,158,93848,1,0,0:0:0:0:
101,152,93861,1,0,0:0:0:0:
103,145,93873,1,0,0:0:0:0:
105,139,93885,1,0,0:0:0:0:
108,133,93898,1,0,0:0:0:0:
110,127,93910,1,0,0:0:0:0:
113,121,93922,1,0,0:0:0:0:
116,115,93934,1,0,0:0:0:0:
119,109,93946,1,0,0:0:0:0:
123,103,93959,1,0,0:0:0:0:
127,98,93971,1,0,0:0:0:0:
131,93,93983,1,0,0:0:0:0:
135,87,93995,1,0,0:0:0:0:
139,83,94008,1,0,0:0:0:0:
144,78,94020,1,0,0:0:0:0:
149,73,94032,1,0,0:0:0:0:
154,69,94044,1,0,0:0:0:0:
159,65,94057,1,0,0:0:0:0:
165,61,94069,1,0,0:0:0:0:
170,57,94081,1,0,0:0:0:0:
176,54,94093,1,0,0:0:0:0:
182,50,94105,1,0,0:0:0:0:
188,47,94118,1,0,0:0:0:0:
194,45,94130,1,0,0:0:0:0:
200,42,94142,1,0,0:0:0:0:
206,40,94154,1,0,0:0:0:0:
213,38,94167,1,0,0:0:0:0:
219,37,94179,1,0,0:0:0:0:
226,35,94191,1,0,0:0:0:0:
232,34,94203,1,0,0:0:0:0:
239,33,94216,1,0,0:0:0:0:
246,33,94228,1,0,0:0:0:0:
252,32,94240,1,0,0:0:0:0:
259,32,94252,1,0,0:0:0:0:
265,33,94264,1,0,0:0:0:0:
272,33,94277,1,0,0:0:0:0:
279,34,94289,1,0,0:0:0:0:
285,35,94301,1,0,0:0:0:0:
292,37,94313,1,0,0:0:0:0:
298,38,94325,1,0,0:0:0:0:
305,40,94338,1,0,0:0:0:0:
311,42,94350,1,0,0:0:0:0:
317,45,94362,1,0,0:0:0:0:
323,47,94374,1,0,0:0:0:0:
329,50,94386,1,0,0:0:0:0:
335,54,94398,1,0,0:0:0:0:
341,57,94410,1,0,0:0:0:0:
346,61,94422,1,0,0:0:0:0:
352,65,94435,1,0,0:0:0:0:
357,69,94447,1,0,0:0:0:0:
362,73,94459,1,0,0:0:0:0:
367,78,94471,1,0,0:0:0:0:
372,83,94483,1,0,0:0:0:0:
376,87,94495,1,0,0:0:0:0:
380,93,94508,1,0,0:0:0:0:
384,98,94520,1,0,0:0:0:0:
388,103,94532,1,0,0:0:0:0:
392,109,94544,1,0,0:0:0:0:
395,115,94556,1,0,0:0:0:0:
398,121,94568,1,0,0:0:0:0:
401,127,94580,1,0,0:0:0:0:
403,133,94593,1,0,0:0:0:0:
406,139,94605,1,0,0:0:0:0:
408,145,94617,1,0,0:0:0:0:
410,152,94629,1,0,0:0:0:0:
411,158,94641,1,0,0:0:0:0:
412,165,94654,1,0,0:0:0:0:
413,172,94666,1,0,0:0:0:0:
414,178,94678,1,0,0:0:0:0:
415,185,94690,1,0,0:0:0:0:
415,192,94702,1,0,0:0:0:0:
415,198,94714,1,0,0:0:0:0:
414,205,94726,1,0,0:0:0:0:
413,211,94738,1,0,0:0:0:0:
412,218,94750,1,0,0:0:0:0:
411,225,94763,1,0,0:0:0:0:
410,231,94775,1,0,0:0:0:0:
408,238,94787,1,0,0:0:0:0:
406,244,94799,1,0,0:0:0:0:
403,250,94811,1,0,0:0:0:0:
401,256,94823,1,0,0:0:0:0:
398,262,94835,1,0,0:0:0:0:
395,268,94847,1,0,0:0:0:0:
392,274,94859,1,0,0:0:0:0:
388,280,94871,1,0,0:0:0:0:
384,285,94883,1,0,0:0:0:0:
380,290,94895,1,0,0:0:0:0:
376,296,94907,1,0,0:0:0:0:
372,300,94919,1,0,0:0:0:0:
367,305,94931,1,0,0:0:0:0:
362,310,94944,1,0,0:0:0:0:
357,314,94956,1,0,0:0:0:0:
352,318,94968,1,0,0:0:0:0:
346,322,94980,1,0,0:0:0:0:
341,326,94992,1,0,0:0:0:0:
335,329,95004,1,0,0:0:0:0:
329,333,95016,1,0,0:0:0:0:
323,336,95028,1,0,0:0:0:0:
317,338,95040,1,0,0:0:0:0:
311,341,95052,1,0,0:0:0:0:
305,343,95064,1,0,0:0:0:0:
298,345,95076,1,0,0:0:0:0:
292,346,95089,1,0,0:0:0:0:
285,348,95101,1,0,0:0:0:0:
279,349,95113,1,0,0:0:0:0:
272,350,95125,1,0,0:0:0:0:
265,350,95137,1,0,0:0:0:0:
259,351,95149,1,0,0:0:0:0:
252,351,95161,1,0,0:0:0:0:
246,350,95173,1,0,0:0:0:0:
239,350,95185,1,0,0:0:0:0:
232,349,95197,1,0,0:0:0:0:
226,348,95209,1,0,0:0:0:0:
219,346,95221,1,0,0:0:0:0:
213,345,95232,1,0,0:0:0:0:
206,343,95244,1,0,0:0:0:0:
200,341,95256,1,0,0:0:0:0:
194,338,95268,1,0,0:0:0:0:
188,336,95280,1,0,0:0:0:0:
182,333,95292,1,0,0:0:0:0:
176,329,95304,1,0,0:0:0:0:
170,326,95316,1,0,0:0:0:0:
165,322,95328,1,0,0:0:0:0:
159,318,95340,1,0,0:0:0:0:
154,314,95352,1,0,0:0:0:0:
149,310,95364,1,0,0:0:0:0:
144,305,95376,1,0,0:0:0:0:
139,300,95388,1,0,0:0:0:0:
135,296,95400,1,0,0:0:0:0:
131,290,95412,1,0,0:0:0:0:
127,285,95424,1,0,0:0:0:0:
123,280,95436,1,0,0:0:0:0:
119,274,95448,1,0,0:0:0:0:
116,268,95460,1,0,0:0:0:0:
113,262,95472,1,0,0:0:0:0:
110,256,95484,1,0,0:0:0:0:
108,250,95496,1,0,0:0:0:0:
105,244,95508,1,0,0:0:0:0:
103,238,95520,1,0,0:0:0:0:
101,231,95532,1,0,0:0:0:0:
100,225,95544,1,0,0:0:0:0:
99,218,95556,1,0,0:0:0:0:
98,211,95568,1,0,0:0:0:0:
97,205,95580,1,0,0:0:0:0:
96,198,95592,1,0,0:0:0:0:
96,191,95604,1,0,0:0:0:0:
96,185,95616,1,0,0:0:0:0:
97,178,95628,1,0,0:0:0:0:
98,172,95640,1,0,0:0:0:0:
99,165,95652,1,0,0:0:0:0:
100,158,95663,1,0,0:0:0:0:
101,152,95675,1,0,0:0:0:0:
103,145,95687,1,0,0:0:0:0:
105,139,95699,1,0,0:0:0:0:
108,133,95711,1,0,0:0:0:0:
110,127,95723,1,0,0:0:0:0:
113,121,95735,1,0,0:0:0:0:
116,115,95747,1,0,0:0:0:0:
119,109,95759,1,0,0:0:0:0:
123,103,95771,1,0,0:0:0:0:
127,98,95782,1,0,0:0:0:0:
131,93,95794,1,0,0:0:0:0:
135,87,95806,1,0,0:0:0:0:
139,83,95818,1,0,0:0:0:0:
144,78,95830,1,0,0:0:0:0:
149,73,95842,1,0,0:0:0:0:
154,69,95854,1,0,0:0:0:0:
159,65,95866,1,0,0:0:0:0:
165,61,95878,1,0,0:0:0:0:
170,57,95890,1,0,0:0:0:0:
176,54,95901,1,0,0:0:0:0:
182,50,95913,1,0,0:0:0:0:
188,47,95925,1,0,0:0:0:0:
194,45,95937,1,0,0:0:0:0:
200,42,95949,1,0,0:0:0:0:
206,40,95961,1,0,0:0:0:0:
213,38,95973,1,0,0:0:0:0:
219,37,95985,1,0,0:0:0:0:
226,35,95997,1,0,0:0:0:0:
232,34,96009,1,0,0:0:0:0:
239,33,96020,1,0,0:0:0:0:
246,33,96032,1,0,0:0:0:0:
252,32,96044,1,0,0:0:0:0:
259,32,96056,1,0,0:0:0:0:
265,33,96068,1,0,0:0:0:0:
272,33,96080,1,0,0:0:0:0:
279,34,96091,1,0,0:0:0:0:
285,35,96103,1,0,0:0:0:0:
292,37,96115,1,0,0:0:0:0:
298,38,96127,1,0,0:0:0:0:
305,40,96139,1,0,0:0:0:0:
311,42,96150,1,0,0:0:0:0:
317,45,96162,1,0,0:0:0:0:
323,47,96174,1,0,0:0:0:0:
329,50,96186,1,0,0:0:0:0:
335,54,96198,1,0,0:0:0:0:
341,57,96210,1,0,0:0:0:0:
346,61,96222,1,0,0:0:0:0:
352,65,96233,1,0,0:0:0:0:
357,69,96245,1,0,0:0:0:0:
362,73,96257,1,0,0:0:0:0:
367,78,96269,1,0,0:0:0:0:
372,83,96280,1,0,0:0:0:0:
376,87,96292,1,0,0:0:0:0:
380,93,96304,1,0,0:0:0:0:
384,98,96316,1,0,0:0:0:0:
388,103,96328,1,0,0:0:0:0:
392,109,96339,1,0,0:0:0:0:
395,115,96351,1,0,0:0:0:0:
398,121,96363,1,0,0:0:0:0:
401,127,96375,1,0,0:0:0:0:
403,133,96387,1,0,0:0:0:0:
406,139,96399,1,0,0:0:0:0:
408,145,96411,1,0,0:0:0:0:
410,152,96422,1,0,0:0:0:0:
411,158,96434,1,0,0:0:0:0:
412,165,96446,1,0,0:0:0:0:
413,172,96458,1,0,0:0:0:0:
414,178,96469,1,0,0:0:0:0:
415,185,96481,1,0,0:0:0:0:
415,192,96493,1,0,0:0:0:0:
415,198,96505,1,0,0:0:0:0:
414,205,96516,1,0,0:0:0:0:
413,211,96528,1,0,0:0:0:0:
412,218,96540,1,0,0:0:0:0:
411,225,96551,1,0,0:0:0:0:
410,231,96563,1,0,0:0:0:0:
408,238,96575,1,0,0:0:0:0:
406,244,96587,1,0,0:0:0:0:
403,250,96598,1,0,0:0:0:0:
401,256,96610,1,0,0:0:0:0:
398,262,96622,1,0,0:0:0:0:
395,268,96634,1,0,0:0:0:0:
392,274,96646,1,0,0:0:0:0:
388,280,96657,1,0,0:0:0:0:
384,285,96669,1,0,0:0:0:0:
380,290,96681,1,0,0:0:0:0:
376,296,96692,1,0,0:0:0:0:
372,300,96704,1,0,0:0:0:0:
367,305,96716,1,0,0:0:0:0:
362,310,96727,1,0,0:0:0:0:
357,314,96739,1,0,0:0:0:0:
352,318,96751,1,0,0:0:0:0:
346,322,96763,1,0,0:0:0:0:
341,326,96774,1,0,0:0:0:0:
335,329,96786,1,0,0:0:0:0:
329,333,96798,1,0,0:0:0:0:
323,336,96810,1,0,0:0:0:0:
317,338,96822,1,0,0:0:0:0:
311,341,96833,1,0,0:0:0:0:
305,343,96845,1,0,0:0:0:0:
298,345,96857,1,0,0:0:0:0:
292,346,96868,1,0,0:0:0:0:
285,348,96880,1,0,0:0:0:0:
279,349,96892,1,0,0:0:0:0:
272,350,96903,1,0,0:0:0:0:
265,350,96915,1,0,0:0:0:0:
259,351,96927,1,0,0:0:0:0:
252,351,96938,1,0,0:0:0:0:
246,350,96950,1,0,0:0:0:0:
239,350,96961,1,0,0:0:0:0:
232,349,96973,1,0,0:0:0:0:
226,348,96985,1,0,0:0:0:0:
219,346,96996,1,0,0:0:0:0:
213,345,97008,1,0,0:0:0:0:
206,343,97020,1,0,0:0:0:0:
200,341,97031,1,0,0:0:0:0:
194,338,97043,1,0,0:0:0:0:
188,336,97055,1,0,0:0:0:0:
182,333,97067,1,0,0:0:0:0:
176,329,97078,1,0,0:0:0:0:
170,326,97090,1,0,0:0:0:0:
165,322,97101,1,0,0:0:0:0:
159,318,97113,1,0,0:0:0:0:
154,314,97125,1,0,0:0:0:0:
149,310,97136,1,0,0:0:0:0:
144,305,97148,1,0,0:0:0:0:
139,300,97160,1,0,0:0:0:0:
135,296,97171,1,0,0:0:0:0:
131,290,97183,1,0,0:0:0:0:
127,285,97194,1,0,0:0:0:0:
123,280,97206,1,0,0:0:0:0:
119,274,97218,1,0,0:0:0:0:
116,268,97230,1,0,0:0:0:0:
113,262,97241,1,0,0:0:0:0:
110,256,97253,1,0,0:0:0:0:
108,250,97265,1,0,0:0:0:0:
105,244,97276,1,0,0:0:0:0:
103,238,97288,1,0,0:0:0:0:
101,231,97299,1,0,0:0:0:0:
100,225,97311,1,0,0:0:0:0:
99,218,97323,1,0,0:0:0:0:
98,211,97334,1,0,0:0:0:0:
97,205,97346,1,0,0:0:0:0:
96,198,97357,1,0,0:0:0:0:
96,191,97369,1,0,0:0:0:0:
96,185,97380,1,0,0:0:0:0:
97,178,97392,1,0,0:0:0:0:
98,172,97403,1,0,0:0:0:0:
99,165,97415,1,0,0:0:0:0:
100,158,97427,1,0,0:0:0:0:
101,152,97438,1,0,0:0:0:0:
103,145,97450,1,0,0:0:0:0:
105,139,97461,1,0,0:0:0:0:
108,133,97473,1,0,0:0:0:0:
110,127,97485,1,0,0:0:0:0:
113,121,97496,1,0,0:0:0:0:
116,115,97508,1,0,0:0:0:0:
119,109,97519,1,0,0:0:0:0:
123,103,97531,1,0,0:0:0:0:
127,98,97542,1,0,0:0:0:0:
131,93,97554,1,0,0:0:0:0:
135,87,97565,1,0,0:0:0:0:
139,83,97577,1,0,0:0:0:0:
144,78,97588,1,0,0:0:0:0:
149,73,97600,1,0,0:0:0:0:
154,69,97612,1,0,0:0:0:0:
159,65,97624,1,0,0:0:0:0:
165,61,97635,1,0,0:0:0:0:
170,57,97647,1,0,0:0:0:0:
176,54,97658,1,0,0:0:0:0:
182,50,97670,1,0,0:0:0:0:
188,47,97681,1,0,0:0:0:0:
194,45,97693,1,0,0:0:0:0:
200,42,97704,1,0,0:0:0:0:
206,40,97716,1,0,0:0:0:0:
213,38,97727,1,0,0:0:0:0:
219,37,97739,1,0,0:0:0:0:
226,35,97750,1,0,0:0:0:0:
232,34,97762,1,0,0:0:0:0:
239,33,97773,1,0,0:0:0:0:
246,33,97784,1,0,0:0:0:0:
252,32,97796,1,0,0:0:0:0:
259,32,97807,1,0,0:0:0:0:
265,33,97819,1,0,0:0:0:0:
272,33,97830,1,0,0:0:0:0:
279,34,97842,1,0,0:0:0:0:
285,35,97853,1,0,0:0:0:0:
292,37,97865,1,0,0:0:0:0:
298,38,97876,1,0,0:0:0:0:
305,40,97888,1,0,0:0:0:0:
311,42,97900,1,0,0:0:0:0:
317,45,97911,1,0,0:0:0:0:
323,47,97922,1,0,0:0:0:0:
329,50,97934,1,0,0:0:0:0:
335,54,97945,1,0,0:0:0:0:
341,57,97957,1,0,0:0:0:0:
346,61,97968,1,0,0:0:0:0:
352,65,97980,1,0,0:0:0:0:
357,69,97991,1,0,0:0:0:0:
362,73,98003,1,0,0:0:0:0:
367,78,98014,1,0,0:0:0:0:
372,83,98026,1,0,0:0:0:0:
376,87,98038,1,0,0:0:0:0:
380,93,98049,1,0,0:0:0:0:
384,98,98060,1,0,0:0:0:0:
388,103,98072,1,0,0:0:0:0:
392,109,98083,1,0,0:0:0:0:
395,115,98095,1,0,0:0:0:0:
398,121,98106,1,0,0:0:0:0:
401,127,98118,1,0,0:0:0:0:
403,133,98129,1,0,0:0:0:0:
406,139,98140,1,0,0:0:0:0:
408,145,98152,1,0,0:0:0:0:
410,152,98163,1,0,0:0:0:0:
411,158,98175,1,0,0:0:0:0:
412,165,98186,1,0,0:0:0:0:
413,172,98197,1,0,0:0:0:0:
414,178,98209,1,0,0:0:0:0:
415,185,98220,1,0,0:0:0:0:
415,192,98232,1,0,0:0:0:0:
415,198,98243,1,0,0:0:0:0:
414,205,98254,1,0,0:0:0:0:
413,211,98266,1,0,0:0:0:0:
412,218,98277,1,0,0:0:0:0:
411,225,98289,1,0,0:0:0:0:
410,231,98300,1,0,0:0:0:0:
408,238,98312,1,0,0:0:0:0:
406,244,98323,1,0,0:0:0:0:
403,250,98334,1,0,0:0:0:0:
401,256,98346,1,0,0:0:0:0:
398,262,98357,1,0,0:0:0:0:
395,268,98368,1,0,0:0:0:0:
392,274,98380,1,0,0:0:0:0:
388,280,98391,1,0,0:0:0:0:
384,285,98403,1,0,0:0:0:0:
380,290,98414,1,0,0:0:0:0:
376,296,98425,1,0,0:0:0:0:
372,300,98437,1,0,0:0:0:0:
367,305,98449,1,0,0:0:0:0:
362,310,98460,1,0,0:0:0:0:
357,314,98471,1,0,0:0:0:0:
352,318,98483,1,0,0:0:0:0:
346,322,98494,1,0,0:0:0:0:
341,326,98505,1,0,0:0:0:0:
335,329,98517,1,0,0:0:0:0:
329,333,98528,1,0,0:0:0:0:
323,336,98539,1,0,0:0:0:0:
317,338,98551,1,0,0:0:0:0:
311,341,98562,1,0,0:0:0:0:
305,343,98574,1,0,0:0:0:0:
298,345,98585,1,0,0:0:0:0:
292,346,98596,1,0,0:0:0:0:
285,348,98607,1,0,0:0:0:0:
279,349,98619,1,0,0:0:0:0:
272,350,98630,1,0,0:0:0:0:
265,350,98641,1,0,0:0:0:0:
259,351,98653,1,0,0:0:0:0:
252,351,98664,1,0,0:0:0:0:
246,350,98675,1,0,0:0:0:0:
239,350,98687,1,0,0:0:0:0:
232,349,98698,1,0,0:0:0:0:
226,348,98709,1,0,0:0:0:0:
219,346,98721,1,0,0:0:0:0:
213,345,98732,1,0,0:0:0:0:
206,343,98743,1,0,0:0:0:0:
200,341,98754,1,0,0:0:0:0:
194,338,98766,1,0,0:0:0:0:
188,336,98777,1,0,0:0:0:0:
182,333,98788,1,0,0:0:0:0:
176,329,98800,1,0,0:0:0:0:
170,326,98811,1,0,0:0:0:0:
165,322,98822,1,0,0:0:0:0:
159,318,98834,1,0,0:0:0:0:
154,314,98845,1,0,0:0:0:0:
149,310,98857,1,0,0:0:0:0:
144,305,98868,1,0,0:0:0:0:
139,300,98879,1,0,0:0:0:0:
135,296,98890,1,0,0:0:0:0:
131,290,98902,1,0,0:0:0:0:
127,285,98913,1,0,0:0:0:0:
123,280,98924,1,0,0:0:0:0:
119,274,98936,1,0,0:0:0:0:
116,268,98947,1,0,0:0:0:0:
113,262,98958,1,0,0:0:0:0:
110,256,98969,1,0,0:0:0:0:
108,250,98981,1,0,0:0:0:0:
105,244,98992,1,0,0:0:0:0:
103,238,99003,1,0,0:0:0:0:
101,231,99014,1,0,0:0:0:0:
100,225,99025,1,0,0:0:0:0:
99,218,99037,1,0,0:0:0:0:
98,211,99048,1,0,0:0:0:0:
97,205,99059,1,0,0:0:0:0:
96,198,99070,1,0,0:0:0:0:
96,191,99082,1,0,0:0:0:0:
96,185,99093,1,0,0:0:0:0:
97,178,99104,1,0,0:0:0:0:
98,172,99115,1,0,0:0:0:0:
99,165,99127,1,0,0:0:0:0:
100,158,99138,1,0,0:0:0:0:
101,152,99149,1,0,0:0:0:0:
103,145,99160,1,0,0:0:0:0:
105,139,99171,1,0,0:0:0:0:
108,133,99183,1,0,0:0:0:0:
110,127,99194,1,0,0:0:0:0:
113,121,99205,1,0,0:0:0:0:
116,115,99216,1,0,0:0:0:0:
119,109,99228,1,0,0:0:0:0:
123,103,99239,1,0,0:0:0:0:
127,98,99250,1,0,0:0:0:0:
131,93,99262,1,0,0:0:0:0:
135,87,99273,1,0,0:0:0:0:
139,83,99284,1,0,0:0:0:0:
144,78,99295,1,0,0:0:0:0:
149,73,99306,1,0,0:0:0:0:
154,69,99318,1,0,0:0:0:0:
159,65,99329,1,0,0:0:0:0:
165,61,99340,1,0,0:0:0:0:
170,57,99351,1,0,0:0:0:0:
176,54,99362,1,0,0:0:0:0:
182,50,99374,1,0,0:0:0:0:
188,47,99385,1,0,0:0:0:0:
194,45,99397,1,0,0:0:0:0:
200,42,99408,1,0,0:0:0:0:
206,40,99419,1,0,0:0:0:0:
213,38,99430,1,0,0:0:0:0:
219,37,99441,1,0,0:0:0:0:
226,35,99452,1,0,0:0:0:0:
232,34,99464,1,0,0:0:0:0:
239,33,99475,1,0,0:0:0:0:
246,33,99486,1,0,0:0:0:0:
252,32,99497,1,0,0:0:0:0:
259,32,99508,1,0,0:0:0:0:
265,33,99520,1,0,0:0:0:0:
272,33,99531,1,0,0:0:0:0:
279,34,99542,1,0,0:0:0:0:
285,35,99553,1,0,0:0:0:0:
292,37,99564,1,0,0:0:0:0:
298,38,99575,1,0,0:0:0:0:
305,40,99586,1,0,0:0:0:0:
311,42,99597,1,0,0:0:0:0:
317,45,99609,1,0,0:0:0:0:
323,47,99620,1,0,0:0:0:0:
329,50,99631,1,0,0:0:0:0:
335,54,99642,1,0,0:0:0:0:
341,57,99653,1,0,0:0:0:0:
346,61,99665,1,0,0:0:0:0:
352,65,99676,1,0,0:0:0:0:
357,69,99687,1,0,0:0:0:0:
362,73,99698,1,0,0:0:0:0:
367,78,99709,1,0,0:0:0:0:
372,83,99720,1,0,0:0:0:0:
376,87,99731,1,0,0:0:0:0:
380,93,99742,1,0,0:0:0:0:
384,98,99754,1,0,0:0:0:0:
388,103,99765,1,0,0:0:0:0:
392,109,99776,1,0,0:0:0:0:
395,115,99787,1,0,0:0:0:0:
398,121,99799,1,0,0:0:0:0:
401,127,99810,1,0,0:0:0:0:
403,133,99821,1,0,0:0:0:0:
406,139,99832,1,0,0:0:0:0:
408,145,99843,1,0,0:0:0:0:
410,152,99854,1,0,0:0:0:0:
411,158,99865,1,0,0:0:0:0:
412,165,99876,1,0,0:0:0:0:
413,172,99887,1,0,0:0:0:0:
414,178,99899,1,0,0:0:0:0:
415,185,99910,1,0,0:0:0:0:
415,192,99921,1,0,0:0:0:0:
415,198,99932,1,0,0:0:0:0:
414,205,99943,1,0,0:0:0:0:
413,211,99954,1,0,0:0:0:0:
412,218,99965,1,0,0:0:0:0:
411,225,99976,1,0,0:0:0:0:
410,231,99987,1,0,0:0:0:0:
408,238,99998,1,0,0:0:0:0:
406,244,100009,1,0,0:0:0:0:
403,250,100020,1,0,0:0:0:0:
401,256,100031,1,0,0:0:0:0:
398,262,100042,1,0,0:0:0:0:
395,268,100053,1,0,0:0:0:0:
392,274,100065,1,0,0:0:0:0:
388,280,100076,1,0,0:0:0:0:
384,285,100087,1,0,0:0:0:0:
380,290,100098,1,0,0:0:0:0:
376,296,100109,1,0,0:0:0:0:
372,300,100120,1,0,0:0:0:0:
367,305,100131,1,0,0:0:0:0:
362,310,100142,1,0,0:0:0:0:
357,314,100153,1,0,0:0:0:0:
352,318,100164,1,0,0:0:0:0:
346,322,100175,1,0,0:0:0:0:
341,326,100186,1,0,0:0:0:0:
335,329,100197,1,0,0:0:0:0:
329,333,100209,1,0,0:0:0:0:
323,336,100220,1,0,0:0:0:0:
317,338,100231,1,0,0:0:0:0:
311,341,100242,1,0,0:0:0:0:
305,343,100253,1,0,0:0:0:0:
298,345,100264,1,0,0:0:0:0:
292,346,100275,1,0,0:0:0:0:
285,348,100286,1,0,0:0:0:0:
279,349,100297,1,0,0:0:0:0:
272,350,100308,1,0,0:0:0:0:
265,350,100319,1,0,0:0:0:0:
259,351,100330,1,0,0:0:0:0:
252,351,100341,1,0,0:0:0:0:
246,350,100352,1,0,0:0:0:0:
239,350,100363,1,0,0:0:0:0:
232,349,100374,1,0,0:0:0:0:
226,348,100385,1,0,0:0:0:0:
219,346,100396,1,0,0:0:0:0:
213,345,100407,1,0,0:0:0:0:
206,343,100418,1,0,0:0:0:0:
200,341,100429,1,0,0:0:0:0:
194,338,100440,1,0,0:0:0:0:
188,336,100451,1,0,0:0:0:0:
182,333,100462,1,0,0:0:0:0:
176,329,100472,1,0,0:0:0:0:
170,326,100483,1,0,0:0:0:0:
165,322,100494,1,0,0:0:0:0:
159,318,100505,1,0,0:0:0:0:
154,314,100516,1,0,0:0:0:0:
149,310,100527,1,0,0:0:0:0:
144,305,100538,1,0,0:0:0:0:
139,300,100549,1,0,0:0:0:0:
135,296,100560,1,0,0:0:0:0:
131,290,100571,1,0,0:0:0:0:
127,285,100582,1,0,0:0:0:0:
123,280,100593,1,0,0:0:0:0:
119,274,100604,1,0,0:0:0:0:
116,268,100615,1,0,0:0:0:0:
113,262,100626,1,0,0:0:0:0:
110,256,100637,1,0,0:0:0:0:
108,250,100648,1,0,0:0:0:0:
105,244,100659,1,0,0:0:0:0:
103,238,100670,1,0,0:0:0:0:
101,231,100681,1,0,0:0:0:0:
100,225,100692,1,0,0:0:0:0:
99,218,100703,1,0,0:0:0:0:
98,211,100714,1,0,0:0:0:0:
97,205,100725,1,0,0:0:0:0:
96,198,100736,1,0,0:0:0:0:
96,191,100747,1,0,0:0:0:0:
96,185,100758,1,0,0:0:0:0:
97,178,100769,1,0,0:0:0:0:
98,172,100780,1,0,0:0:0:0:
99,165,100791,1,0,0:0:0:0:
100,158,100802,1,0,0:0:0:0:
101,152,100813,1,0,0:0:0:0:
103,145,100824,1,0,0:0:0:0:
105,139,100835,1,0,0:0:0:0:
108,133,100846,1,0,0:0:0:0:
110,127,100857,1,0,0:0:0:0:
113,121,100867,1,0,0:0:0:0:
116,115,100878,1,0,0:0:0:0:
119,109,100889,1,0,0:0:0:0:
123,103,100900,1,0,0:0:0:0:
127,98,100911,1,0,0:0:0:0:
131,93,100922,1,0,0:0:0:0:
135,87,100933,1,0,0:0:0:0:
139,83,100944,1,0,0:0:0:0:
144,78,100955,1,0,0:0:0:0:
149,73,100966,1,0,0:0:0:0:
154,69,100977,1,0,0:0:0:0:
159,65,100988,1,0,0:0:0:0:
165,61,100998,1,0,0:0:0:0:
170,57,101009,1,0,0:0:0:0:
176,54,101020,1,0,0:0:0:0:
182,50,101031,1,0,0:0:0:0:
188,47,101042,1,0,0:0:0:0:
194,45,101053,1,0,0:0:0:0:
200,42,101064,1,0,0:0:0:0:
206,40,101075,1,0,0:0:0:0:
213,38,101086,1,0,0:0:0:0:
219,37,101096,1,0,0:0:0:0:
226,35,101107,1,0,0:0:0:0:
232,34,101118,1,0,0:0:0:0:
239,33,101129,1,0,0:0:0:0:
246,33,101140,1,0,0:0:0:0:
252,32,101151,1,0,0:0:0:0:
259,32,101162,1,0,0:0:0:0:
265,33,101173,1,0,0:0:0:0:
272,33,101184,1,0,0:0:0:0:
279,34,101195,1,0,0:0:0:0:
285,35,101205,1,0,0:0:0:0:
292,37,101216,1,0,0:0:0:0:
298,38,101227,1,0,0:0:0:0:
305,40,101238,1,0,0:0:0:0:
311,42,101249,1,0,0:0:0:0:
317,45,101259,1,0,0:0:0:0:
323,47,101270,1,0,0:0:0:0:
329,50,101281,1,0,0:0:0:0:
335,54,101292,1,0,0:0:0:0:
341,57,101303,1,0,0:0:0:0:
346,61,101314,1,0,0:0:0:0:
352,65,101324,1,0,0:0:0:0:
357,69,101335,1,0,0:0:0:0:
362,73,101346,1,0,0:0:0:0:
367,78,101357,1,0,0:0:0:0:
372,83,101368,1,0,0:0:0:0:
376,87,101379,1,0,0:0:0:0:
380,93,101389,1,0,0:0:0:0:
384,98,101400,1,0,0:0:0:0:
388,103,101411,1,0,0:0:0:0:
392,109,101422,1,0,0:0:0:0:
395,115,101433,1,0,0:0:0:0:
398,121,101443,1,0,0:0:0:0:
401,127,101454,1,0,0:0:0:0:
403,133,101465,1,0,0:0:0:0:
406,139,101476,1,0,0:0:0:0:
408,145,101487,1,0,0:0:0:0:
410,152,101498,1,0,0:0:0:0:
411,158,101509,1,0,0:0:0:0:
412,165,101519,1,0,0:0:0:0:
413,172,101530,1,0,0:0:0:0:
414,178,101541,1,0,0:0:0:0:
415,185,101552,1,0,0:0:0:0:
415,192,101562,1,0,0:0:0:0:
415,198,101573,1,0,0:0:0:0:
414,205,101584,1,0,0:0:0:0:
413,211,101595,1,0,0:0:0:0:
412,218,101606,1,0,0:0:0:0:
411,225,101616,1,0,0:0:0:0:
410,231,101627,1,0,0:0:0:0:
408,238,101638,1,0,0:0:0:0:
406,244,101649,1,0,0:0:0:0:
403,250,101660,1,0,0:0:0:0:
401,256,101671,1,0,0:0:0:0:
398,262,101682,1,0,0:0:0:0:
395,268,101692,1,0,0:0:0:0:
392,274,101703,1,0,0:0:0:0:
388,280,101714,1,0,0:0:0:0:
384,285,101725,1,0,0:0:0:0:
380,290,101735,1,0,0:0:0:0:
376,296,101746,1,0,0:0:0:0:
372,300,101757,1,0,0:0:0:0:
367,305,101768,1,0,0:0:0:0:
362,310,101778,1,0,0:0:0:0:
357,314,101789,1,0,0:0:0:0:
352,318,101800,1,0,0:0:0:0:
346,322,101811,1,0,0:0:0:0:
341,326,101821,1,0,0:0:0:0:
335,329,101832,1,0,0:0:0:0:
329,333,101843,1,0,0:0:0:0:
323,336,101854,1,0,0:0:0:0:
317,338,101864,1,0,0:0:0:0:
311,341,101875,1,0,0:0:0:0:
305,343,101886,1,0,0:0:0:0:
298,345,101897,1,0,0:0:0:0:
292,346,101907,1,0,0:0:0:0:
285,348,101918,1,0,0:0:0:0:
279,349,101929,1,0,0:0:0:0:
272,350,101939,1,0,0:0:0:0:
265,350,101950,1,0,0:0:0:0:
259,351,101961,1,0,0:0:0:0:
252,351,101972,1,0,0:0:0:0:
246,350,101982,1,0,0:0:0:0:
239,350,101993,1,0,0:0:0:0:
232,349,102004,1,0,0:0:0:0:
226,348,102015,1,0,0:0:0:0:
219,346,102026,1,0,0:0:0:0:
213,345,102036,1,0,0:0:0:0:
206,343,102047,1,0,0:0:0:0:
200,341,102058,1,0,0:0:0:0:
194,338,102068,1,0,0:0:0:0:
188,336,102079,1,0,0:0:0:0:
182,333,102090,1,0,0:0:0:0:
176,329,102100,1,0,0:0:0:0:
170,326,102111,1,0,0:0:0:0:
165,322,102122,1,0,0:0:0:0:
159,318,102133,1,0,0:0:0:0:
154,314,102143,1,0,0:0:0:0:
149,310,102154,1,0,0:0:0:0:
144,305,102164,1,0,0:0:0:0:
139,300,102175,1,0,0:0:0:0:
135,296,102186,1,0,0:0:0:0:
131,290,102196,1,0,0:0:0:0:
127,285,102207,1,0,0:0:0:0:
123,280,102218,1,0,0:0:0:0:
119,274,102228,1,0,0:0:0:0:
116,268,102239,1,0,0:0:0:0:
113,262,102250,1,0,0:0:0:0:
110,256,102260,1,0,0:0:0:0:
108,250,102271,1,0,0:0:0:0:
105,244,102282,1,0,0:0:0:0:
103,238,102292,1,0,0:0:0:0:
101,231,102303,1,0,0:0:0:0:
100,225,102313,1,0,0:0:0:0:
99,218,102324,1,0,0:0:0:0:
98,211,102335,1,0,0:0:0:0:
97,205,102345,1,0,0:0:0:0:
96,198,102356,1,0,0:0:0:0:
96,191,102367,1,0,0:0:0:0:
96,185,102377,1,0,0:0:0:0:
97,178,102388,1,0,0:0:0:0:
98,172,102399,1,0,0:0:0:0:
99,165,102410,1,0,0:0:0:0:
100,158,102420,1,0,0:0:0:0:
101,152,102431,1,0,0:0:0:0:
103,145,102441,1,0,0:0:0:0:
105,139,102452,1,0,0:0:0:0:
108,133,102463,1,0,0:0:0:0:
110,127,102473,1,0,0:0:0:0:
113,121,102484,1,0,0:0:0:0:
116,115,102495,1,0,0:0:0:0:
119,109,102505,1,0,0:0:0:0:
123,103,102516,1,0,0:0:0:0:
127,98,102527,1,0,0:0:0:0:
131,93,102538,1,0,0:0:0:0:
135,87,102548,1,0,0:0:0:0:
139,83,102559,1,0,0:0:0:0:
144,78,102569,1,0,0:0:0:0:
149,73,102580,1,0,0:0:0:0:
154,69,102591,1,0,0:0:0:0:
159,65,102601,1,0,0:0:0:0:
165,61,102612,1,0,0:0:0:0:
170,57,102622,1,0,0:0:0:0:
176,54,102633,1,0,0:0:0:0:
182,50,102644,1,0,0:0:0:0:
188,47,102654,1,0,0:0:0:0:
194,45,102665,1,0,0:0:0:0:
200,42,102675,1,0,0:0:0:0:
206,40,102686,1,0,0:0:0:0:
213,38,102696,1,0,0:0:0:0:
219,37,102707,1,0,0:0:0:0:
226,35,102717,1,0,0:0:0:0:
232,34,102728,1,0,0:0:0:0:
239,33,102739,1,0,0:0:0:0:
246,33,102749,1,0,0:0:0:0:
252,32,102760,1,0,0:0:0:0:
259,32,102770,1,0,0:0:0:0:
265,33,102781,1,0,0:0:0:0:
272,33,102792,1,0,0:0:0:0:
279,34,102802,1,0,0:0:0:0:
285,35,102813,1,0,0:0:0:0:
292,37,102823,1,0,0:0:0:0:
298,38,102834,1,0,0:0:0:0:
305,40,102844,1,0,0:0:0:0:
311,42,102855,1,0,0:0:0:0:
317,45,102865,1,0,0:0:0:0:
323,47,102876,1,0,0:0:0:0:
329,50,102887,1,0,0:0:0:0:
335,54,102897,1,0,0:0:0:0:
341,57,102908,1,0,0:0:0:0:
346,61,102919,1,0,0:0:0:0:
352,65,102929,1,0,0:0:0:0:
357,69,102940,1,0,0:0:0:0:
362,73,102950,1,0,0:0:0:0:
367,78,102961,1,0,0:0:0:0:
372,83,102971,1,0,0:0:0:0:
376,87,102982,1,0,0:0:0:0:
380,93,102992,1,0,0:0:0:0:
384,98,103003,1,0,0:0:0:0:
388,103,103013,1,0,0:0:0:0:
392,109,103024,1,0,0:0:0:0:
395,115,103035,1,0,0:0:0:0:
398,121,103046,1,0,0:0:0:0:
401,127,103056,1,0,0:0:0:0:
403,133,103067,1,0,0:0:0:0:
406,139,103077,1,0,0:0:0:0:
408,145,103088,1,0,0:0:0:0:
410,152,103098,1,0,0:0:0:0:
411,158,103109,1,0,0:0:0:0:
412,165,103119,1,0,0:0:0:0:
413,172,103130,1,0,0:0:0:0:
414,178,103140,1,0,0:0:0:0:
415,185,103151,1,0,0:0:0:0:
415,192,103161,1,0,0:0:0:0:
415,198,103172,1,0,0:0:0:0:
414,205,103182,1,0,0:0:0:0:
413,211,103193,1,0,0:0:0:0:
412,218,103203,1,0,0:0:0:0:
411,225,103214,1,0,0:0:0:0:
410,231,103224,1,0,0:0:0:0:
408,238,103235,1,0,0:0:0:0:
406,244,103245,1,0,0:0:0:0:
403,250,103256,1,0,0:0:0:0:
401,256,103266,1,0,0:0:0:0:
398,262,103277,1,0,0:0:0:0:
395,268,103287,1,0,0:0:0:0:
392,274,103298,1,0,0:0:0:0:
388,280,103308,1,0,0:0:0:0:
384,285,103318,1,0,0:0:0:0:
380,290,103329,1,0,0:0:0:0:
376,296,103339,1,0,0:0:0:0:
372,300,103350,1,0,0:0:0:0:
367,305,103360,1,0,0:0:0:0:
362,310,103371,1,0,0:0:0:0:
357,314,103381,1,0,0:0:0:0:
352,318,103392,1,0,0:0:0:0:
346,322,103402,1,0,0:0:0:0:
341,326,103413,1,0,0:0:0:0:
335,329,103424,1,0,0:0:0:0:
329,333,103434,1,0,0:0:0:0:
323,336,103444,1,0,0:0:0:0:
317,338,103455,1,0,0:0:0:0:
311,341,103465,1,0,0:0:0:0:
305,343,103476,1,0,0:0:0:0:
298,345,103486,1,0,0:0:0:0:
292,346,103497,1,0,0:0:0:0:
285,348,103507,1,0,0:0:0:0:
279,349,103518,1,0,0:0:0:0:
272,350,103528,1,0,0:0:0:0:
265,350,103539,1,0,0:0:0:0:
259,351,103550,1,0,0:0:0:0:
252,351,103560,1,0,0:0:0:0:
246,350,103570,1,0,0:0:0:0:
239,350,103581,1,0,0:0:0:0:
232,349,103591,1,0,0:0:0:0:
226,348,103602,1,0,0:0:0:0:
219,346,103612,1,0,0:0:0:0:
213,345,103623,1,0,0:0:0:0:
206,343,103633,1,0,0:0:0:0:
200,341,103643,1,0,0:0:0:0:
194,338,103654,1,0,0:0:0:0:
188,336,103664,1,0,0:0:0:0:
182,333,103675,1,0,0:0:0:0:
176,329,103685,1,0,0:0:0:0:
170,326,103695,1,0,0:0:0:0:
165,322,103706,1,0,0:0:0:0:
159,318,103716,1,0,0:0:0:0:
154,314,103727,1,0,0:0:0:0:
149,310,103737,1,0,0:0:0:0:
144,305,103747,1,0,0:0:0:0:
139,300,103758,1,0,0:0:0:0:
135,296,103768,1,0,0:0:0:0:
131,290,103779,1,0,0:0:0:0:
127,285,103789,1,0,0:0:0:0:
123,280,103800,1,0,0:0:0:0:
119,274,103810,1,0,0:0:0:0:
116,268,103820,1,0,0:0:0:0:
113,262,103831,1,0,0:0:0:0:
110,256,103841,1,0,0:0:0:0:
108,250,103851,1,0,0:0:0:0:
105,244,103862,1,0,0:0:0:0:
103,238,103872,1,0,0:0:0:0:
101,231,103883,1,0,0:0:0:0:
100,225,103893,1,0,0:0:0:0:
99,218,103903,1,0,0:0:0:0:
98,211,103914,1,0,0:0:0:0:
97,205,103925,1,0,0:0:0:0:
96,198,103935,1,0,0:0:0:0:
96,191,103945,1,0,0:0:0:0:
96,185,103956,1,0,0:0:0:0:
97,178,103966,1,0,0:0:0:0:
98,172,103976,1,0,0:0:0:0:
99,165,103987,1,0,0:0:0:0:
100,158,103997,1,0,0:0:0:0:
101,152,104007,1,0,0:0:0:0:
103,145,104018,1,0,0:0:0:0:
105,139,104028,1,0,0:0:0:0:
108,133,104039,1,0,0:0:0:0:
110,127,104049,1,0,0:0:0:0:
113,121,104059,1,0,0:0:0:0:
116,115,104069,1,0,0:0:0:0:
119,109,104080,1,0,0:0:0:0:
123,103,104090,1,0,0:0:0:0:
127,98,104100,1,0,0:0:0:0:
131,93,104111,1,0,0:0:0:0:
135,87,104121,1,0,0:0:0:0:
139,83,104131,1,0,0:0:0:0:
144,78,104142,1,0,0:0:0:0:
149,73,104152,1,0,0:0:0:0:
154,69,104162,1,0,0:0:0:0:
159,65,104173,1,0,0:0:0:0:
165,61,104183,1,0,0:0:0:0:
170,57,104193,1,0,0:0:0:0:
176,54,104203,1,0,0:0:0:0:
182,50,104214,1,0,0:0:0:0:
188,47,104224,1,0,0:0:0:0:
194,45,104234,1,0,0:0:0:0:
200,42,104245,1,0,0:0:0:0:
206,40,104255,1,0,0:0:0:0:
213,38,104265,1,0,0:0:0:0:
219,37,104276,1,0,0:0:0:0:
226,35,104286,1,0,0:0:0:0:
232,34,104297,1,0,0:0:0:0:
239,33,104307,1,0,0:0:0:0:
246,33,104317,1,0,0:0:0:0:
252,32,104327,1,0,0:0:0:0:
259,32,104338,1,0,0:0:0:0:
265,33,104348,1,0,0:0:0:0:
272,33,104358,1,0,0:0:0:0:
279,34,104369,1,0,0:0:0:0:
285,35,104379,1,0,0:0:0:0:
292,37,104389,1,0,0:0:0:0:
298,38,104400,1,0,0:0:0:0:
305,40,104410,1,0,0:0:0:0:
311,42,104421,1,0,0:0:0:0:
317,45,104431,1,0,0:0:0:0:
323,47,104441,1,0,0:0:0:0:
329,50,104451,1,0,0:0:0:0:
335,54,104462,1,0,0:0:0:0:
341,57,104472,1,0,0:0:0:0:
346,61,104482,1,0,0:0:0:0:
352,65,104493,1,0,0:0:0:0:
357,69,104503,1,0,0:0:0:0:
362,73,104513,1,0,0:0:0:0:
367,78,104523,1,0,0:0:0:0:
372,83,104534,1,0,0:0:0:0:
376,87,104544,1,0,0:0:0:0:
380,93,104554,1,0,0:0:0:0:
384,98,104564,1,0,0:0:0:0:
388,103,104574,1,0,0:0:0:0:
392,109,104585,1,0,0:0:0:0:
395,115,104595,1,0,0:0:0:0:
398,121,104605,1,0,0:0:0:0:
401,127,104615,1,0,0:0:0:0:
403,133,104626,1,0,0:0:0:0:
406,139,104636,1,0,0:0:0:0:
408,145,104646,1,0,0:0:0:0:
410,152,104656,1,0,0:0:0:0:
411,158,104667,1,0,0:0:0:0:
412,165,104677,1,0,0:0:0:0:
413,172,104687,1,0,0:0:0:0:
414,178,104697,1,0,0:0:0:0:
415,185,104707,1,0,0:0:0:0:
415,192,104718,1,0,0:0:0:0:
415,198,104728,1,0,0:0:0:0:
414,205,104738,1,0,0:0:0:0:
413,211,104748,1,0,0:0:0:0:
412,218,104759,1,0,0:0:0:0:
411,225,104769,1,0,0:0:0:0:
410,231,104779,1,0,0:0:0:0:
408,238,104790,1,0,0:0:0:0:
406,244,104800,1,0,0:0:0:0:
403,250,104810,1,0,0:0:0:0:
401,256,104820,1,0,0:0:0:0:
398,262,104830,1,0,0:0:0:0:
395,268,104841,1,0,0:0:0:0:
392,274,104851,1,0,0:0:0:0:
388,280,104861,1,0,0:0:0:0:
384,285,104871,1,0,0:0:0:0:
380,290,104882,1,0,0:0:0:0:
376,296,104892,1,0,0:0:0:0:
372,300,104902,1,0,0:0:0:0:
367,305,104913,1,0,0:0:0:0:
362,310,104923,1,0,0:0:0:0:
357,314,104933,1,0,0:0:0:0:
352,318,104943,1,0,0:0:0:0:
346,322,104953,1,0,0:0:0:0:
341,326,104964,1,0,0:0:0:0:
335,329,104974,1,0,0:0:0:0:
329,333,104984,1,0,0:0:0:0:
323,336,104994,1,0,0:0:0:0:
317,338,105004,1,0,0:0:0:0:
311,341,105015,1,0,0:0:0:0:
305,343,105025,1,0,0:0:0:0:
298,345,105035,1,0,0:0:0:0:
292,346,105045,1,0,0:0:0:0:
285,348,105055,1,0,0:0:0:0:
279,349,105065,1,0,0:0:0:0:
272,350,105075,1,0,0:0:0:0:
265,350,105085,1,0,0:0:0:0:
259,351,105096,1,0,0:0:0:0:
252,351,105106,1,0,0:0:0:0:
246,350,105116,1,0,0:0:0:0:
239,350,105126,1,0,0:0:0:0:
232,349,105136,1,0,0:0:0:0:
226,348,105147,1,0,0:0:0:0:
219,346,105157,1,0,0:0:0:0:
213,345,105167,1,0,0:0:0:0:
206,343,105177,1,0,0:0:0:0:
200,341,105187,1,0,0:0:0:0:
194,338,105197,1,0,0:0:0:0:
188,336,105207,1,0,0:0:0:0:
182,333,105217,1,0,0:0:0:0:
176,329,105228,1,0,0:0:0:0:
170,326,105238,1,0,0:0:0:0:
165,322,105248,1,0,0:0:0:0:
159,318,105258,1,0,0:0:0:0:
154,314,105268,1,0,0:0:0:0:
149,310,105279,1,0,0:0:0:0:
144,305,105289,1,0,0:0:0:0:
139,300,105299,1,0,0:0:0:0:
135,296,105309,1,0,0:0:0:0:
131,290,105319,1,0,0:0:0:0:
127,285,105329,1,0,0:0:0:0:
123,280,105339,1,0,0:0:0:0:
119,274,105349,1,0,0:0:0:0:
116,268,105360,1,0,0:0:0:0:
113,262,105370,1,0,0:0:0:0:
110,256,105380,1,0,0:0:0:0:
108,250,105390,1,0,0:0:0:0:
105,244,105401,1,0,0:0:0:0:
103,238,105411,1,0,0:0:0:0:
101,231,105421,1,0,0:0:0:0:
100,225,105431,1,0,0:0:0:0:
99,218,105441,1,0,0:0:0:0:
98,211,105451,1,0,0:0:0:0:
97,205,105461,1,0,0:0:0:0:
96,198,105471,1,0,0:0:0:0:
96,191,105481,1,0,0:0:0:0:
96,185,105492,1,0,0:0:0:0:
97,178,105502,1,0,0:0:0:0:
98,172,105512,1,0,0:0:0:0:
99,165,105522,1,0,0:0:0:0:
100,158,105532,1,0,0:0:0:0:
101,152,105542,1,0,0:0:0:0:
103,145,105552,1,0,0:0:0:0:
105,139,105562,1,0,0:0:0:0:
108,133,105572,1,0,0:0:0:0:
110,127,105582,1,0,0:0:0:0:
113,121,105592,1,0,0:0:0:0:
116,115,105602,1,0,0:0:0:0:
119,109,105612,1,0,0:0:0:0:
123,103,105623,1,0,0:0:0:0:
127,98,105633,1,0,0:0:0:0:
131,93,105643,1,0,0:0:0:0:
135,87,105653,1,0,0:0:0:0:
139,83,105663,1,0,0:0:0:0:
144,78,105673,1,0,0:0:0:0:
149,73,105683,1,0,0:0:0:0:
154,69,105693,1,0,0:0:0:0:
159,65,105703,1,0,0:0:0:0:
165,61,105713,1,0,0:0:0:0:
170,57,105723,1,0,0:0:0:0:
176,54,105733,1,0,0:0:0:0:
182,50,105743,1,0,0:0:0:0:
188,47,105753,1,0,0:0:0:0:
194,45,105764,1,0,0:0:0:0:
200,42,105774,1,0,0:0:0:0:
206,40,105784,1,0,0:0:0:0:
213,38,105794,1,0,0:0:0:0:
219,37,105804,1,0,0:0:0:0:
226,35,105814,1,0,0:0:0:0:
232,34,105824,1,0,0:0:0:0:
239,33,105834,1,0,0:0:0:0:
246,33,105844,1,0,0:0:0:0:
252,32,105854,1,0,0:0:0:0:
259,32,105864,1,0,0:0:0:0:
265,33,105874,1,0,0:0:0:0:
272,33,105885,1,0,0:0:0:0:
279,34,105895,1,0,0:0:0:0:
285,35,105905,1,0,0:0:0:0:
292,37,105915,1,0,0:0:0:0:
298,38,105925,1,0,0:0:0:0:
305,40,105935,1,0,0:0:0:0:
311,42,105945,1,0,0:0:0:0:
317,45,105955,1,0,0:0:0:0:
323,47,105965,1,0,0:0:0:0:
329,50,105975,1,0,0:0:0:0:
335,54,105985,1,0,0:0:0:0:
341,57,105995,1,0,0:0:0:0:
346,61,106005,1,0,0:0:0:0:
352,65,106015,1,0,0:0:0:0:
357,69,106025,1,0,0:0:0:0:
362,73,106035,1,0,0:0:0:0:
367,78,106045,1,0,0:0:0:0:
372,83,106055,1,0,0:0:0:0:
376,87,106065,1,0,0:0:0:0:
380,93,106075,1,0,0:0:0:0:
384,98,106085,1,0,0:0:0:0:
388,103,106095,1,0,0:0:0:0:
392,109,106105,1,0,0:0:0:0:
395,115,106115,1,0,0:0:0:0:
398,121,106125,1,0,0:0:0:0:
401,127,106135,1,0,0:0:0:0:
403,133,106145,1,0,0:0:0:0:
406,139,106155,1,0,0:0:0:0:
408,145,106165,1,0,0:0:0:0:
410,152,106175,1,0,0:0:0:0:
411,158,106185,1,0,0:0:0:0:
412,165,106195,1,0,0:0:0:0:
413,172,106205,1,0,0:0:0:0:
414,178,106215,1,0,0:0:0:0:
415,185,106225,1,0,0:0:0:0:
415,192,106235,1,0,0:0:0:0:
415,198,106245,5,0,0:0:0:0:
414,205,106254,1,0,0:0:0:0:
413,211,106264,1,0,0:0:0:0:
412,218,106274,1,0,0:0:0:0:
411,225,106284,1,0,0:0:0:0:
410,231,106294,1,0,0:0:0:0:
408,238,106304,1,0,0:0:0:0:
406,244,106314,1,0,0:0:0:0:
403,250,106324,1,0,0:0:0:0:
401,256,106334,1,0,0:0:0:0:
398,262,106344,1,0,0:0:0:0:
395,268,106354,1,0,0:0:0:0:
392,274,106364,1,0,0:0:0:0:
388,280,106374,1,0,0:0:0:0:
384,285,106384,1,0,0:0:0:0:
380,290,106394,1,0,0:0:0:0:
376,296,106404,1,0,0:0:0:0:
372,300,106414,1,0,0:0:0:0:
367,305,106424,1,0,0:0:0:0:
362,310,106434,1,0,0:0:0:0:
357,314,106444,1,0,0:0:0:0:
352,318,106454,1,0,0:0:0:0:
346,322,106464,1,0,0:0:0:0:
341,326,106474,1,0,0:0:0:0:
335,329,106484,1,0,0:0:0:0:
329,333,106494,1,0,0:0:0:0:
323,336,106504,1,0,0:0:0:0:
317,338,106514,1,0,0:0:0:0:
311,341,106524,1,0,0:0:0:0:
305,343,106534,1,0,0:0:0:0:
298,345,106544,1,0,0:0:0:0:
292,346,106554,1,0,0:0:0:0:
285,348,106564,1,0,0:0:0:0:
279,349,106574,1,0,0:0:0:0:
272,350,106584,1,0,0:0:0:0:
265,350,106594,1,0,0:0:0:0:
259,351,106604,1,0,0:0:0:0:
252,351,106613,1,0,0:0:0:0:
246,350,106623,1,0,0:0:0:0:
239,350,106633,1,0,0:0:0:0:
232,349,106643,1,0,0:0:0:0:
226,348,106653,1,0,0:0:0:0:
219,346,106663,1,0,0:0:0:0:
213,345,106673,1,0,0:0:0:0:
206,343,106683,1,0,0:0:0:0:
200,341,106693,1,0,0:0:0:0:
194,338,106703,1,0,0:0:0:0:
188,336,106713,1,0,0:0:0:0:
182,333,106723,1,0,0:0:0:0:
176,329,106732,1,0,0:0:0:0:
170,326,106742,1,0,0:0:0:0:
165,322,106752,1,0,0:0:0:0:
159,318,106762,1,0,0:0:0:0:
154,314,106772,1,0,0:0:0:0:
149,310,106782,1,0,0:0:0:0:
144,305,106792,1,0,0:0:0:0:
139,300,106802,1,0,0:0:0:0:
135,296,106812,1,0,0:0:0:0:
131,290,106822,1,0,0:0:0:0:
127,285,106831,1,0,0:0:0:0:
123,280,106841,1,0,0:0:0:0:
119,274,106851,1,0,0:0:0:0:
116,268,106861,1,0,0:0:0:0:
113,262,106871,1,0,0:0:0:0:
110,256,106881,1,0,0:0:0:0:
108,250,106891,1,0,0:0:0:0:
105,244,106901,1,0,0:0:0:0:
103,238,106911,1,0,0:0:0:0:
101,231,106921,1,0,0:0:0:0:
100,225,106930,1,0,0:0:0:0:
99,218,106940,1,0,0:0:0:0:
98,211,106950,1,0,0:0:0:0:
97,205,106960,1,0,0:0:0:0:
96,198,106970,1,0,0:0:0:0:
96,191,106980,1,0,0:0:0:0:
96,185,106990,1,0,0:0:0:0:
97,178,107000,1,0,0:0:0:0:
98,172,107010,1,0,0:0:0:0:
99,165,107020,1,0,0:0:0:0:
100,158,107030,1,0,0:0:0:0:
101,152,107039,1,0,0:0:0:0:
103,145,107049,1,0,0:0:0:0:
105,139,107059,1,0,0:0:0:0:
108,133,107069,1,0,0:0:0:0:
110,127,107079,1,0,0:0:0:0:
113,121,107088,1,0,0:0:0:0:
116,115,107098,1,0,0:0:0:0:
119,109,107108,1,0,0:0:0:0:
123,103,107118,1,0,0:0:0:0:
127,98,107128,1,0,0:0:0:0:
131,93,107138,1,0,0:0:0:0:
135,87,107147,1,0,0:0:0:0:
139,83,107157,1,0,0:0:0:0:
144,78,107167,1,0,0:0:0:0:
149,73,107177,1,0,0:0:0:0:
154,69,107187,1,0,0:0:0:0:
159,65,107197,1,0,0:0:0:0:
165,61,107206,1,0,0:0:0:0:
170,57,107216,1,0,0:0:0:0:
176,54,107226,1,0,0:0:0:0:
182,50,107236,1,0,0:0:0:0:
188,47,107246,1,0,0:0:0:0:
194,45,107255,1,0,0:0:0:0:
200,42,107265,1,0,0:0:0:0:
206,40,107275,1,0,0:0:0:0:
213,38,107285,1,0,0:0:0:0:
219,37,107295,1,0,0:0:0:0:
226,35,107305,1,0,0:0:0:0:
232,34,107314,1,0,0:0:0:0:
239,33,107324,1,0,0:0:0:0:
246,33,107334,1,0,0:0:0:0:
252,32,107344,1,0,0:0:0:0:
259,32,107354,1,0,0:0:0:0:
265,33,107364,1,0,0:0:0:0:
272,33,107373,1,0,0:0:0:0:
279,34,107383,1,0,0:0:0:0:
285,35,107393,1,0,0:0:0:0:
292,37,107403,1,0,0:0:0:0:
298,38,107413,1,0,0:0:0:0:
305,40,107422,1,0,0:0:0:0:
311,42,107432,1,0,0:0:0:0:
317,45,107442,1,0,0:0:0:0:
323,47,107452,1,0,0:0:0:0:
329,50,107462,1,0,0:0:0:0:
335,54,107472,1,0,0:0:0:0:
341,57,107481,1,0,0:0:0:0:
346,61,107491,1,0,0:0:0:0:
352,65,107501,1,0,0:0:0:0:
357,69,107511,1,0,0:0:0:0:
362,73,107521,1,0,0:0:0:0:
367,78,107530,1,0,0:0:0:0:
372,83,107540,1,0,0:0:0:0:
376,87,107550,1,0,0:0:0:0:
380,93,107559,1,0,0:0:0:0:
384,98,107569,1,0,0:0:0:0:
388,103,107579,1,0,0:0:0:0:
392,109,107589,1,0,0:0:0:0:
395,115,107598,1,0,0:0:0:0:
398,121,107608,1,0,0:0:0:0:
401,127,107618,1,0,0:0:0:0:
403,133,107628,1,0,0:0:0:0:
406,139,107637,1,0,0:0:0:0:
408,145,107647,1,0,0:0:0:0:
410,152,107657,1,0,0:0:0:0:
411,158,107667,1,0,0:0:0:0:
412,165,107676,1,0,0:0:0:0:
413,172,107686,1,0,0:0:0:0:
414,178,107696,1,0,0:0:0:0:
415,185,107705,1,0,0:0:0:0:
415,192,107715,1,0,0:0:0:0:
415,198,107725,1,0,0:0:0:0:
414,205,107735,1,0,0:0:0:0:
413,211,107744,1,0,0:0:0:0:
412,218,107754,1,0,0:0:0:0:
411,225,107764,1,0,0:0:0:0:
410,231,107774,1,0,0:0:0:0:
408,238,107783,1,0,0:0:0:0:
406,244,107793,1,0,0:0:0:0:
403,250,107803,1,0,0:0:0:0:
401,256,107813,1,0,0:0:0:0:
398,262,107822,1,0,0:0:0:0:
395,268,107832,1,0,0:0:0:0:
392,274,107842,1,0,0:0:0:0:
388,280,107852,1,0,0:0:0:0:
384,285,107861,1,0,0:0:0:0:
380,290,107871,1,0,0:0:0:0:
376,296,107881,1,0,0:0:0:0:
372,300,107891,1,0,0:0:0:0:
367,305,107900,1,0,0:0:0:0:
362,310,107910,1,0,0:0:0:0:
357,314,107920,1,0,0:0:0:0:
352,318,107930,1,0,0:0:0:0:
346,322,107939,1,0,0:0:0:0:
341,326,107949,1,0,0:0:0:0:
335,329,107959,1,0,0:0:0:0:
329,333,107968,1,0,0:0:0:0:
323,336,107978,1,0,0:0:0:0:
317,338,107988,1,0,0:0:0:0:
311,341,107998,1,0,0:0:0:0:
305,343,108007,1,0,0:0:0:0:
298,345,108017,1,0,0:0:0:0:
292,346,108027,1,0,0:0:0:0:
285,348,108037,1,0,0:0:0:0:
279,349,108047,1,0,0:0:0:0:
272,350,108056,1,0,0:0:0:0:
265,350,108066,1,0,0:0:0:0:
259,351,108076,1,0,0:0:0:0:
252,351,108085,1,0,0:0:0:0:
246,350,108095,1,0,0:0:0:0:
239,350,108105,1,0,0:0:0:0:
232,349,108114,1,0,0:0:0:0:
226,348,108124,1,0,0:0:0:0:
219,346,108134,1,0,0:0:0:0:
213,345,108143,1,0,0:0:0:0:
206,343,108153,1,0,0:0:0:0:
200,341,108163,1,0,0:0:0:0:
194,338,108172,1,0,0:0:0:0:
188,336,108182,1,0,0:0:0:0:
182,333,108192,1,0,0:0:0:0:
176,329,108201,1,0,0:0:0:0:
170,326,108211,1,0,0:0:0:0:
165,322,108221,1,0,0:0:0:0:
159,318,108230,1,0,0:0:0:0:
154,314,108240,1,0,0:0:0:0:
149,310,108250,1,0,0:0:0:0:
144,305,108259,1,0,0:0:0:0:
139,300,108269,1,0,0:0:0:0:
135,296,108278,1,0,0:0:0:0:
131,290,108288,1,0,0:0:0:0:
127,285,108298,1,0,0:0:0:0:
123,280,108307,1,0,0:0:0:0:
119,274,108317,1,0,0:0:0:0:
116,268,108327,1,0,0:0:0:0:
113,262,108336,1,0,0:0:0:0:
110,256,108346,1,0,0:0:0:0:
108,250,108356,1,0,0:0:0:0:
105,244,108365,1,0,0:0:0:0:
103,238,108375,1,0,0:0:0:0:
101,231,108385,1,0,0:0:0:0:
100,225,108394,1,0,0:0:0:0:
99,218,108404,1,0,0:0:0:0:
98,211,108414,1,0,0:0:0:0:
97,205,108423,1,0,0:0:0:0:
96,198,108433,1,0,0:0:0:0:
96,191,108443,1,0,0:0:0:0:
96,185,108452,1,0,0:0:0:0:
97,178,108462,1,0,0:0:0:0:
98,172,108471,1,0,0:0:0:0:
99,165,108481,1,0,0:0:0:0:
100,158,108491,1,0,0:0:0:0:
101,152,108501,1,0,0:0:0:0:
103,145,108510,1,0,0:0:0:0:
105,139,108520,1,0,0:0:0:0:
108,133,108530,1,0,0:0:0:0:
110,127,108539,1,0,0:0:0:0:
113,121,108549,1,0,0:0:0:0:
116,115,108558,1,0,0:0:0:0:
119,109,108568,1,0,0:0:0:0:
123,103,108578,1,0,0:0:0:0:
127,98,108587,1,0,0:0:0:0:
131,93,108597,1,0,0:0:0:0:
135,87,108606,1,0,0:0:0:0:
139,83,108616,1,0,0:0:0:0:
144,78,108625,1,0,0:0:0:0:
149,73,108635,1,0,0:0:0:0:
154,69,108644,1,0,0:0:0:0:
159,65,108654,1,0,0:0:0:0:
165,61,108664,1,0,0:0:0:0:
170,57,108673,1,0,0:0:0:0:
176,54,108683,1,0,0:0:0:0:
182,50,108692,1,0,0:0:0:0:
188,47,108702,1,0,0:0:0:0:
194,45,108712,1,0,0:0:0:0:
200,42,108721,1,0,0:0:0:0:
206,40,108731,1,0,0:0:0:0:
213,38,108740,1,0,0:0:0:0:
219,37,108750,1,0,0:0:0:0:
226,35,108759,1,0,0:0:0:0:
232,34,108769,1,0,0:0:0:0:
239,33,108779,1,0,0:0:0:0:
246,33,108788,1,0,0:0:0:0:
252,32,108798,1,0,0:0:0:0:
259,32,108807,1,0,0:0:0:0:
265,33,108817,1,0,0:0:0:0:
272,33,108826,1,0,0:0:0:0:
279,34,108836,1,0,0:0:0:0:
285,35,108846,1,0,0:0:0:0:
292,37,108855,1,0,0:0:0:0:
298,38,108865,1,0,0:0:0:0:
305,40,108874,1,0,0:0:0:0:
311,42,108884,1,0,0:0:0:0:
317,45,108893,1,0,0:0:0:0:
323,47,108903,1,0,0:0:0:0:
329,50,108913,1,0,0:0:0:0:
335,54,108922,1,0,0:0:0:0:
341,57,108932,1,0,0:0:0:0:
346,61,108941,1,0,0:0:0:0:
352,65,108951,1,0,0:0:0:0:
357,69,108961,1,0,0:0:0:0:
362,73,108970,1,0,0:0:0:0:
367,78,108980,1,0,0:0:0:0:
372,83,108989,1,0,0:0:0:0:
376,87,108999,1,0,0:0:0:0:
380,93,109008,1,0,0:0:0:0:
384,98,109018,1,0,0:0:0:0:
388,103,109027,1,0,0:0:0:0:
392,109,109037,1,0,0:0:0:0:
395,115,109046,1,0,0:0:0:0:
398,121,109056,1,0,0:0:0:0:
401,127,109066,1,0,0:0:0:0:
403,133,109076,1,0,0:0:0:0:
406,139,109085,1,0,0:0:0:0:
408,145,109095,1,0,0:0:0:0:
410,152,109104,1,0,0:0:0:0:
411,158,109114,1,0,0:0:0:0:
412,165,109123,1,0,0:0:0:0:
413,172,109133,1,0,0:0:0:0:
414,178,109142,1,0,0:0:0:0:
415,185,109152,1,0,0:0:0:0:
415,192,109161,1,0,0:0:0:0:
415,198,109171,1,0,0:0:0:0:
414,205,109180,1,0,0:0:0:0:
413,211,109190,1,0,0:0:0:0:
412,218,109199,1,0,0:0:0:0:
411,225,109209,1,0,0:0:0:0:
410,231,109218,1,0,0:0:0:0:
408,238,109228,1,0,0:0:0:0:
406,244,109237,1,0,0:0:0:0:
403,250,109247,1,0,0:0:0:0:
401,256,109256,1,0,0:0:0:0:
398,262,109266,1,0,0:0:0:0:
395,268,109275,1,0,0:0:0:0:
392,274,109285,1,0,0:0:0:0:
388,280,109294,1,0,0:0:0:0:
384,285,109303,1,0,0:0:0:0:
380,290,109313,1,0,0:0:0:0:
376,296,109322,1,0,0:0:0:0:
372,300,109332,1,0,0:0:0:0:
367,305,109341,1,0,0:0:0:0:
362,310,109351,1,0,0:0:0:0:
357,314,109360,1,0,0:0:0:0:
352,318,109370,1,0,0:0:0:0:
346,322,109379,1,0,0:0:0:0:
341,326,109389,1,0,0:0:0:0:
335,329,109398,1,0,0:0:0:0:
329,333,109408,1,0,0:0:0:0:
323,336,109417,1,0,0:0:0:0:
317,338,109427,1,0,0:0:0:0:
311,341,109436,1,0,0:0:0:0:
305,343,109446,1,0,0:0:0:0:
298,345,109455,1,0,0:0:0:0:
292,346,109465,1,0,0:0:0:0:
285,348,109474,1,0,0:0:0:0:
279,349,109484,1,0,0:0:0:0:
272,350,109493,1,0,0:0:0:0:
265,350,109503,1,0,0:0:0:0:
259,351,109512,1,0,0:0:0:0:
252,351,109522,1,0,0:0:0:0:
246,350,109531,1,0,0:0:0:0:
239,350,109541,1,0,0:0:0:0:
232,349,109550,1,0,0:0:0:0:
226,348,109560,1,0,0:0:0:0:
219,346,109569,1,0,0:0:0:0:
213,345,109579,1,0,0:0:0:0:
206,343,109588,1,0,0:0:0:0:
200,341,109598,1,0,0:0:0:0:
194,338,109607,1,0,0:0:0:0:
188,336,109616,1,0,0:0:0:0:
182,333,109626,1,0,0:0:0:0:
176,329,109635,1,0,0:0:0:0:
170,326,109644,1,0,0:0:0:0:
165,322,109654,1,0,0:0:0:0:
159,318,109663,1,0,0:0:0:0:
154,314,109673,1,0,0:0:0:0:
149,310,109682,1,0,0:0:0:0:
144,305,109692,1,0,0:0:0:0:
139,300,109701,1,0,0:0:0:0:
135,296,109710,1,0,0:0:0:0:
131,290,109720,1,0,0:0:0:0:
127,285,109729,1,0,0:0:0:0:
123,280,109739,1,0,0:0:0:0:
119,274,109748,1,0,0:0:0:0:
116,268,109757,1,0,0:0:0:0:
113,262,109767,1,0,0:0:0:0:
110,256,109776,1,0,0:0:0:0:
108,250,109786,1,0,0:0:0:0:
105,244,109795,1,0,0:0:0:0:
103,238,109804,1,0,0:0:0:0:
101,231,109814,1,0,0:0:0:0:
100,225,109823,1,0,0:0:0:0:
99,218,109833,1,0,0:0:0:0:
98,211,109842,1,0,0:0:0:0:
97,205,109851,1,0,0:0:0:0:
96,198,109861,1,0,0:0:0:0:
96,191,109870,1,0,0:0:0:0:
96,185,109880,1,0,0:0:0:0:
97,178,109889,1,0,0:0:0:0:
98,172,109898,1,0,0:0:0:0:
99,165,109908,1,0,0:0:0:0:
100,158,109917,1,0,0:0:0:0:
101,152,109927,1,0,0:0:0:0:
103,145,109936,1,0,0:0:0:0:
105,139,109945,1,0,0:0:0:0:
108,133,109955,1,0,0:0:0:0:
110,127,109964,1,0,0:0:0:0:
113,121,109974,1,0,0:0:0:0:
116,115,109983,1,0,0:0:0:0:
119,109,109993,1,0,0:0:0:0:
123,103,110002,1,0,0:0:0:0:
127,98,110011,1,0,0:0:0:0:
131,93,110021,1,0,0:0:0:0:
135,87,110030,1,0,0:0:0:0:
139,83,110040,1,0,0:0:0:0:
144,78,110049,1,0,0:0:0:0:
149,73,110058,1,0,0:0:0:0:
154,69,110068,1,0,0:0:0:0:
159,65,110077,1,0,0:0:0:0:
165,61,110087,1,0,0:0:0:0:
170,57,110096,1,0,0:0:0:0:
176,54,110106,1,0,0:0:0:0:
182,50,110115,1,0,0:0:0:0:
188,47,110124,1,0,0:0:0:0:
194,45,110134,1,0,0:0:0:0:
200,42,110143,1,0,0:0:0:0:
206,40,110152,1,0,0:0:0:0:
213,38,110162,1,0,0:0:0:0:
219,37,110171,1,0,0:0:0:0:
226,35,110180,1,0,0:0:0:0:
232,34,110190,1,0,0:0:0:0:
239,33,110199,1,0,0:0:0:0:
246,33,110208,1,0,0:0:0:0:
252,32,110218,1,0,0:0:0:0:
259,32,110227,1,0,0:0:0:0:
265,33,110236,1,0,0:0:0:0:
272,33,110246,1,0,0:0:0:0:
279,34,110255,1,0,0:0:0:0:
285,35,110264,1,0,0:0:0:0:
292,37,110274,1,0,0:0:0:0:
298,38,110283,1,0,0:0:0:0:
305,40,110292,1,0,0:0:0:0:
311,42,110302,1,0,0:0:0:0:
317,45,110311,1,0,0:0:0:0:
323,47,110320,1,0,0:0:0:0:
329,50,110329,1,0,0:0:0:0:
335,54,110339,1,0,0:0:0:0:
341,57,110348,1,0,0:0:0:0:
346,61,110357,1,0,0:0:0:0:
352,65,110367,1,0,0:0:0:0:
357,69,110376,1,0,0:0:0:0:
362,73,110385,1,0,0:0:0:0:
367,78,110395,1,0,0:0:0:0:
372,83,110404,1,0,0:0:0:0:
376,87,110413,1,0,0:0:0:0:
380,93,110423,1,0,0:0:0:0:
384,98,110432,1,0,0:0:0:0:
388,103,110441,1,0,0:0:0:0:
392,109,110451,1,0,0:0:0:0:
395,115,110460,1,0,0:0:0:0:
398,121,110469,1,0,0:0:0:0:
401,127,110479,1,0,0:0:0:0:
403,133,110488,1,0,0:0:0:0:
406,139,110497,1,0,0:0:0:0:
408,145,110507,1,0,0:0:0:0:
410,152,110516,1,0,0:0:0:0:
411,158,110525,1,0,0:0:0:0:
412,165,110535,1,0,0:0:0:0:
413,172,110544,1,0,0:0:0:0:
414,178,110553,1,0,0:0:0:0:
415,185,110563,1,0,0:0:0:0:
415,192,110572,1,0,0:0:0:0:
415,198,110581,1,0,0:0:0:0:
414,205,110591,1,0,0:0:0:0:
413,211,110600,1,0,0:0:0:0:
412,218,110609,1,0,0:0:0:0:
411,225,110618,1,0,0:0:0:0:
410,231,110628,1,0,0:0:0:0:
408,238,110637,1,0,0:0:0:0:
406,244,110647,1,0,0:0:0:0:
403,250,110656,1,0,0:0:0:0:
401,256,110665,1,0,0:0:0:0:
398,262,110675,1,0,0:0:0:0:
395,268,110684,1,0,0:0:0:0:
392,274,110693,1,0,0:0:0:0:
388,280,110702,1,0,0:0:0:0:
384,285,110712,1,0,0:0:0:0:
380,290,110721,1,0,0:0:0:0:
376,296,110730,1,0,0:0:0:0:
372,300,110740,1,0,0:0:0:0:
367,305,110749,1,0,0:0:0:0:
362,310,110758,1,0,0:0:0:0:
357,314,110767,1,0,0:0:0:0:
352,318,110776,1,0,0:0:0:0:
346,322,110786,1,0,0:0:0:0:
341,326,110795,1,0,0:0:0:0:
335,329,110804,1,0,0:0:0:0:
329,333,110813,1,0,0:0:0:0:
323,336,110823,1,0,0:0:0:0:
317,338,110832,1,0,0:0:0:0:
311,341,110841,1,0,0:0:0:0:
305,343,110850,1,0,0:0:0:0:
298,345,110860,1,0,0:0:0:0:
292,346,110869,1,0,0:0:0:0:
285,348,110878,1,0,0:0:0:0:
279,349,110887,1,0,0:0:0:0:
272,350,110896,1,0,0:0:0:0:
265,350,110906,1,0,0:0:0:0:
259,351,110915,1,0,0:0:0:0:
252,351,110924,1,0,0:0:0:0:
246,350,110933,1,0,0:0:0:0:
239,350,110943,1,0,0:0:0:0:
232,349,110952,1,0,0:0:0:0:
226,348,110961,1,0,0:0:0:0:
219,346,110970,1,0,0:0:0:0:
213,345,110980,1,0,0:0:0:0:
206,343,110989,1,0,0:0:0:0:
200,341,110998,1,0,0:0:0:0:
194,338,111007,1,0,0:0:0:0:
188,336,111017,1,0,0:0:0:0:
182,333,111026,1,0,0:0:0:0:
176,329,111035,1,0,0:0:0:0:
170,326,111044,1,0,0:0:0:0:
165,322,111054,1,0,0:0:0:0:
159,318,111063,1,0,0:0:0:0:
154,314,111072,1,0,0:0:0:0:
149,310,111081,1,0,0:0:0:0:
144,305,111091,1,0,0:0:0:0:
139,300,111100,1,0,0:0:0:0:
135,296,111109,1,0,0:0:0:0:
131,290,111118,1,0,0:0:0:0:
127,285,111128,1,0,0:0:0:0:
123,280,111137,1,0,0:0:0:0:
119,274,111146,1,0,0:0:0:0:
116,268,111155,1,0,0:0:0:0:
113,262,111164,1,0,0:0:0:0:
110,256,111174,1,0,0:0:0:0:
108,250,111183,1,0,0:0:0:0:
105,244,111192,1,0,0:0:0:0:
103,238,111201,1,0,0:0:0:0:
101,231,111210,1,0,0:0:0:0:
100,225,111219,1,0,0:0:0:0:
99,218,111228,1,0,0:0:0:0:
98,211,111237,1,0,0:0:0:0:
97,205,111247,1,0,0:0:0:0:
96,198,111256,1,0,0:0:0:0:
96,191,111265,1,0,0:0:0:0:
96,185,111274,1,0,0:0:0:0:
97,178,111283,1,0,0:0:0:0:
98,172,111293,1,0,0:0:0:0:
99,165,111302,1,0,0:0:0:0:
100,158,111311,1,0,0:0:0:0:
101,152,111320,1,0,0:0:0:0:
103,145,111329,1,0,0:0:0:0:
105,139,111338,1,0,0:0:0:0:
108,133,111347,1,0,0:0:0:0:
110,127,111357,1,0,0:0:0:0:
113,121,111366,1,0,0:0:0:0:
116,115,111375,1,0,0:0:0:0:
119,109,111384,1,0,0:0:0:0:
123,103,111393,1,0,0:0:0:0:
127,98,111402,1,0,0:0:0:0:
131,93,111412,1,0,0:0:0:0:
135,87,111421,1,0,0:0:0:0:
139,83,111430,1,0,0:0:0:0:
144,78,111439,1,0,0:0:0:0:
149,73,111448,1,0,0:0:0:0:
154,69,111457,1,0,0:0:0:0:
159,65,111466,1,0,0:0:0:0:
165,61,111476,1,0,0:0:0:0:
170,57,111485,1,0,0:0:0:0:
176,54,111494,1,0,0:0:0:0:
182,50,111503,1,0,0:0:0:0:
188,47,111512,1,0,0:0:0:0:
194,45,111521,1,0,0:0:0:0:
200,42,111531,1,0,0:0:0:0:
206,40,111540,1,0,0:0:0:0:
213,38,111549,1,0,0:0:0:0:
219,37,111558,1,0,0:0:0:0:
226,35,111567,1,0,0:0:0:0:
232,34,111576,1,0,0:0:0:0:
239,33,111585,1,0,0:0:0:0:
246,33,111595,1,0,0:0:0:0:
252,32,111604,1,0,0:0:0:0:
259,32,111613,1,0,0:0:0:0:
265,33,111622,1,0,0:0:0:0:
272,33,111631,1,0,0:0:0:0:
279,34,111641,1,0,0:0:0:0:
285,35,111650,1,0,0:0:0:0:
292,37,111659,1,0,0:0:0:0:
298,38,111668,1,0,0:0:0:0:
305,40,111677,1,0,0:0:0:0:
311,42,111686,1,0,0:0:0:0:
317,45,111695,1,0,0:0:0:0:
323,47,111704,1,0,0:0:0:0:
329,50,111714,1,0,0:0:0:0:
335,54,111723,1,0,0:0:0:0:
341,57,111732,1,0,0:0:0:0:
346,61,111741,5,0,0:0:0:0:
352,65,111750,5,0,0:0:0:0:
357,69,111759,5,0,0:0:0:0:
362,73,111768,5,0,0:0:0:0:
367,78,111777,5,0,0:0:0:0:
372,83,111786,5,0,0:0:0:0:
376,87,111795,5,0,0:0:0:0:
380,93,111804,5,0,0:0:0:0:
384,98,111813,5,0,0:0:0:0:
388,103,111822,5,0,0:0:0:0:
392,109,111832,5,0,0:0:0:0:
395,115,111841,5,0,0:0:0:0:
398,121,111850,5,0,0:0:0:0:
401,127,111859,5,0,0:0:0:0:
403,133,111868,5,0,0:0:0:0:
406,139,111877,5,0,0:0:0:0:
408,145,111886,5,0,0:0:0:0:
410,152,111895,5,0,0:0:0:0:
411,158,111904,5,0,0:0:0:0:
412,165,111913,5,0,0:0:0:0:
413,172,111922,5,0,0:0:0:0:
414,178,111931,5,0,0:0:0:0:
415,185,111940,5,0,0:0:0:0:
415,192,111950,5,0,0:0:0:0:
415,198,111959,5,0,0:0:0:0:
414,205,111968,5,0,0:0:0:0:
413,211,111977,5,0,0:0:0:0:
412,218,111986,5,0,0:0:0:0:
411,225,111995,5,0,0:0:0:0:
410,231,112004,5,0,0:0:0:0:
408,238,112013,5,0,0:0:0:0:
406,244,112022,5,0,0:0:0:0:
403,250,112031,5,0,0:0:0:0:
401,256,112040,5,0,0:0:0:0:
398,262,112049,5,0,0:0:0:0:
395,268,112058,5,0,0:0:0:0:
392,274,112067,5,0,0:0:0:0:
388,280,112077,5,0,0:0:0:0:
384,285,112086,5,0,0:0:0:0:
380,290,112095,5,0,0:0:0:0:
376,296,112104,5,0,0:0:0:0:
372,300,112113,5,0,0:0:0:0:
367,305,112122,5,0,0:0:0:0:
362,310,112131,5,0,0:0:0:0:
357,314,112140,5,0,0:0:0:0:
352,318,112149,5,0,0:0:0:0:
346,322,112158,5,0,0:0:0:0:
341,326,112167,5,0,0:0:0:0:
335,329,112176,5,0,0:0:0:0:
329,333,112186,5,0,0:0:0:0:
323,336,112195,5,0,0:0:0:0:
317,338,112204,5,0,0:0:0:0:
311,341,112213,5,0,0:0:0:0:
305,343,112222,5,0,0:0:0:0:
298,345,112231,5,0,0:0:0:0:
292,346,112240,5,0,0:0:0:0:
285,348,112249,5,0,0:0:0:0:
279,349,112258,5,0,0:0:0:0:
272,350,112267,5,0,0:0:0:0:
265,350,112276,5,0,0:0:0:0:
259,351,112285,5,0,0:0:0:0:
252,351,112295,5,0,0:0:0:0:
246,350,112304,5,0,0:0:0:0:
239,350,112313,5,0,0:0:0:0:
232,349,112322,5,0,0:0:0:0:
226,348,112331,5,0,0:0:0:0:
219,346,112340,5,0,0:0:0:0:
213,345,112349,5,0,0:0:0:0:
206,343,112358,5,0,0:0:0:0:
200,341,112367,5,0,0:0:0:0:
194,338,112376,5,0,0:0:0:0:
188,336,112385,5,0,0:0:0:0:
182,333,112394,5,0,0:0:0:0:
176,329,112403,5,0,0:0:0:0:
170,326,112412,5,0,0:0:0:0:
165,322,112421,5,0,0:0:0:0:
159,318,112430,5,0,0:0:0:0:
154,314,112439,5,0,0:0:0:0:
149,310,112448,5,0,0:0:0:0:
144,305,112457,5,0,0:0:0:0:
139,300,112466,5,0,0:0:0:0:
135,296,112475,5,0,0:0:0:0:
131,290,112484,5,0,0:0:0:0:
127,285,112493,5,0,0:0:0:0:
123,280,112502,5,0,0:0:0:0:
119,274,112510,5,0,0:0:0:0:
116,268,112519,5,0,0:0:0:0:
113,262,112528,5,0,0:0:0:0:
110,256,112537,5,0,0:0:0:0:
108,250,112546,5,0,0:0:0:0:
105,244,112555,5,0,0:0:0:0:
103,238,112564,5,0,0:0:0:0:
101,231,112573,5,0,0:0:0:0:
100,225,112582,5,0,0:0:0:0:
99,218,112591,5,0,0:0:0:0:
98,211,112600,5,0,0:0:0:0:
97,205,112609,5,0,0:0:0:0:
96,198,112618,5,0,0:0:0:0:
96,191,112627,5,0,0:0:0:0:
96,185,112636,5,0,0:0:0:0:
97,178,112645,5,0,0:0:0:0:
98,172,112654,5,0,0:0:0:0:
99,165,112663,5,0,0:0:0:0:
100,158,112672,5,0,0:0:0:0:
101,152,112681,5,0,0:0:0:0:
103,145,112690,5,0,0:0:0:0:
105,139,112699,5,0,0:0:0:0:
108,133,112708,5,0,0:0:0:0:
110,127,112717,5,0,0:0:0:0:
113,121,112726,5,0,0:0:0:0:
116,115,112735,5,0,0:0:0:0:
119,109,112744,5,0,0:0:0:0:
123,103,112753,5,0,0:0:0:0:
127,98,112762,5,0,0:0:0:0:
131,93,112771,5,0,0:0:0:0:
135,87,112780,5,0,0:0:0:0:
139,83,112789,5,0,0:0:0:0:
144,78,112798,5,0,0:0:0:0:
149,73,112807,5,0,0:0:0:0:
154,69,112816,5,0,0:0:0:0:
159,65,112825,5,0,0:0:0:0:
165,61,112834,5,0,0:0:0:0:
170,57,112843,5,0,0:0:0:0:
176,54,112852,5,0,0:0:0:0:
182,50,112861,5,0,0:0:0:0:
188,47,112870,5,0,0:0:0:0:
194,45,112879,5,0,0:0:0:0:
200,42,112888,5,0,0:0:0:0:
206,40,112897,5,0,0:0:0:0:
213,38,112906,5,0,0:0:0:0:
219,37,112915,5,0,0:0:0:0:
226,35,112924,5,0,0:0:0:0:
232,34,112933,5,0,0:0:0:0:
239,33,112941,5,0,0:0:0:0:
246,33,112950,5,0,0:0:0:0:
252,32,112959,5,0,0:0:0:0:
259,32,112968,5,0,0:0:0:0:
265,33,112977,5,0,0:0:0:0:
272,33,112986,5,0,0:0:0:0:
279,34,112995,5,0,0:0:0:0:
285,35,113004,5,0,0:0:0:0:
292,37,113013,5,0,0:0:0:0:
298,38,113022,5,0,0:0:0:0:
305,40,113031,5,0,0:0:0:0:
311,42,113040,5,0,0:0:0:0:
317,45,113048,5,0,0:0:0:0:
323,47,113057,5,0,0:0:0:0:
329,50,113066,5,0,0:0:0:0:
335,54,113075,5,0,0:0:0:0:
341,57,113084,5,0,0:0:0:0:
346,61,113093,5,0,0:0:0:0:
352,65,113102,5,0,0:0:0:0:
357,69,113111,5,0,0:0:0:0:
362,73,113120,5,0,0:0:0:0:
367,78,113129,5,0,0:0:0:0:
372,83,113138,5,0,0:0:0:0:
376,87,113147,5,0,0:0:0:0:
380,93,113155,5,0,0:0:0:0:
384,98,113164,5,0,0:0:0:0:
388,103,113173,5,0,0:0:0:0:
392,109,113182,5,0,0:0:0:0:
395,115,113191,5,0,0:0:0:0:
398,121,113200,5,0,0:0:0:0:
401,127,113209,5,0,0:0:0:0:
403,133,113218,5,0,0:0:0:0:
406,139,113227,5,0,0:0:0:0:
408,145,113235,5,0,0:0:0:0:
410,152,113244,5,0,0:0:0:0:
411,158,113253,5,0,0:0:0:0:
412,165,113262,5,0,0:0:0:0:
413,172,113271,5,0,0:0:0:0:
414,178,113280,5,0,0:0:0:0:
415,185,113289,5,0,0:0:0:0:
415,192,113298,5,0,0:0:0:0:
416,200,113307,5,0,0:0:0:0:
416,208,113316,5,0,0:0:0:0:
415,216,113325,5,0,0:0:0:0:
413,225,113333,5,0,0:0:0:0:
412,233,113342,5,0,0:0:0:0:
410,241,113351,5,0,0:0:0:0:
407,249,113360,5,0,0:0:0:0:
404,257,113369,5,0,0:0:0:0:
401,264,113378,5,0,0:0:0:0:
398,272,113387,5,0,0:0:0:0:
394,279,113396,5,0,0:0:0:0:
389,286,113405,5,0,0:0:0:0:
385,293,113414,5,0,0:0:0:0:
380,300,113423,5,0,0:0:0:0:
375,307,113431,5,0,0:0:0:0:
369,313,113440,5,0,0:0:0:0:
363,319,113449,5,0,0:0:0:0:
357,325,113458,5,0,0:0:0:0:
351,330,113467,5,0,0:0:0:0:
344,335,113475,5,0,0:0:0:0:
338,340,113484,5,0,0:0:0:0:
331,344,113493,5,0,0:0:0:0:
323,349,113502,5,0,0:0:0:0:
316,352,113511,5,0,0:0:0:0:
308,356,113520,5,0,0:0:0:0:
301,359,113528,5,0,0:0:0:0:
293,362,113537,5,0,0:0:0:0:
285,364,113546,5,0,0:0:0:0:
277,366,113555,5,0,0:0:0:0:
269,368,113564,5,0,0:0:0:0:
260,369,113573,5,0,0:0:0:0:
252,370,113581,5,0,0:0:0:0:
244,370,113590,5,0,0:0:0:0:
235,371,113599,5,0,0:0:0:0:
227,370,113608,5,0,0:0:0:0:
219,370,113617,5,0,0:0:0:0:
211,369,113626,5,0,0:0:0:0:
202,367,113634,5,0,0:0:0:0:
194,365,113643,5,0,0:0:0:0:
186,363,113652,5,0,0:0:0:0:
178,360,113661,5,0,0:0:0:0:
170,358,113670,5,0,0:0:0:0:
163,354,113679,5,0,0:0:0:0:
155,351,113687,5,0,0:0:0:0:
148,347,113696,5,0,0:0:0:0:
141,342,113705,5,0,0:0:0:0:
134,338,113714,5,0,0:0:0:0:
127,333,113723,5,0,0:0:0:0:
121,327,113731,5,0,0:0:0:0:
115,322,113740,5,0,0:0:0:0:
109,316,113749,5,0,0:0:0:0:
103,310,113758,5,0,0:0:0:0:
98,303,113767,5,0,0:0:0:0:
93,297,113776,5,0,0:0:0:0:
88,290,113784,5,0,0:0:0:0:
83,283,113793,5,0,0:0:0:0:
79,276,113802,5,0,0:0:0:0:
76,268,113811,5,0,0:0:0:0:
72,261,113820,5,0,0:0:0:0:
69,253,113829,5,0,0:0:0:0:
67,245,113837,5,0,0:0:0:0:
64,237,113846,5,0,0:0:0:0:
62,229,113855,5,0,0:0:0:0:
61,221,113864,5,0,0:0:0:0:
60,212,113873,5,0,0:0:0:0:
59,204,113881,5,0,0:0:0:0:
58,196,113890,5,0,0:0:0:0:
58,187,113899,5,0,0:0:0:0:
59,179,113908,5,0,0:0:0:0:
60,171,113917,5,0,0:0:0:0:
61,162,113926,5,0,0:0:0:0:
62,154,113934,5,0,0:0:0:0:
64,146,113943,5,0,0:0:0:0:
67,138,113952,5,0,0:0:0:0:
69,130,113961,5,0,0:0:0:0:
72,122,113970,5,0,0:0:0:0:
76,115,113978,5,0,0:0:0:0:
79,107,113987,5,0,0:0:0:0:
83,100,113996,5,0,0:0:0:0:
88,93,114004,5,0,0:0:0:0:
93,86,114013,5,0,0:0:0:0:
98,80,114022,5,0,0:0:0:0:
103,73,114031,5,0,0:0:0:0:
109,67,114039,5,0,0:0:0:0:
115,61,114048,5,0,0:0:0:0:
121,56,114057,5,0,0:0:0:0:
127,50,114066,5,0,0:0:0:0:
134,45,114074,5,0,0:0:0:0:
141,41,114083,5,0,0:0:0:0:
148,36,114092,5,0,0:0:0:0:
155,32,114101,5,0,0:0:0:0:
163,29,114109,5,0,0:0:0:0:
170,25,114118,5,0,0:0:0:0:
178,23,114127,5,0,0:0:0:0:
186,20,114136,5,0,0:0:0:0:
194,18,114144,5,0,0:0:0:0:
202,16,114153,5,0,0:0:0:0:
211,14,114162,5,0,0:0:0:0:
219,13,114171,5,0,0:0:0:0:
227,13,114179,5,0,0:0:0:0:
235,12,114188,5,0,0:0:0:0:
244,13,114197,5,0,0:0:0:0:
252,13,114206,5,0,0:0:0:0:
