osu file format v14

[General]
AudioFilename: deltaMAX.mp3
AudioLeadIn: 1000
PreviewTime: 50149
Countdown: 0
SampleSet: None
StackLeniency: 0.7
Mode: 0
LetterboxInBreaks: 1
WidescreenStoryboard: 0

[Editor]
Bookmarks: 11850,28439,41420,52084,61137,75952,87824,97731,106231,113676,116246
DistanceSpacing: 1
BeatDivisor: 2
GridSize: 8
TimelineZoom: 1

[Metadata]
Title:deltaMAX
TitleUnicode:
Artist:DM Ashura
ArtistUnicode:
Creator:Sprosive
Version:Unexpected
Source:DDR Forever
Tags:Dance Dance Revolution Universe 3 stepmania ignorethis lzy Doomsday tsuka Frank7654321
BeatmapID:790100
BeatmapSetID:359335

[Difficulty]
HPDrainRate:7
CircleSize:4
OverallDifficulty:7
ApproachRate:9
SliderMultiplier:2.5
SliderTickRate:0.5

[Events]
//Background and Video events
0,0,"deltaMAX-bg.png",0,0
Video,350,"deltaMAX.avi"
//Break Periods
2,515,6915
//Storyboard Layer 0 (Background)
//Storyboard Layer 1 (Fail)
//Storyboard Layer 2 (Pass)
//Storyboard Layer 3 (Foreground)
Sprite,Foreground,Centre,"nothing.png",320,240 F,0,125410,,0
//Storyboard Sound Samples

[TimingPoints]
315,600,4,1,0,80,1,0
8115,-100,4,1,0,40,0,0
9915,594.088816278034,4,1,0,40,1,0
10509,588.264130594637,4,1,0,40,1,0
11097,582.552551094713,4,1,0,40,1,0
11680,576.950814943026,4,1,0,40,1,0
12257,571.455783608743,4,1,0,40,1,0
12828,566.064437001745,4,1,0,40,1,0
13394,560.773867937754,4,1,0,40,1,0
13955,555.581276910968,4,1,0,40,1,0
14511,550.483967154457,4,1,0,40,1,0
15061,545.479339969999,4,1,0,40,1,0
15606,540.564890310374,4,1,0,40,1,0
16147,535.73820259833,4,1,0,40,1,0
16683,530.996946767556,4,1,0,40,1,0
17214,526.33887451204,4,1,0,40,1,0
17740,521.761815731119,4,1,0,40,1,0
18262,517.263675158412,4,1,0,40,1,0
18779,512.84242916364,4,1,0,40,1,0
19292,508.496122717064,4,1,0,40,1,0
19800,504.222866506996,4,1,0,40,1,0
20304,500.020834201425,4,1,0,40,1,0
20804,495.888259845448,4,1,0,40,1,0
21300,491.823435386696,4,1,0,40,1,0
21792,487.824708321476,4,1,0,40,1,0
22280,483.890479454817,4,1,0,40,1,0
22764,480.019200768031,4,1,0,40,1,0
23244,476.209373387833,4,1,0,40,1,0
23720,472.459545651404,4,1,0,40,1,0
24192,468.768311262159,4,1,0,40,1,0
24661,465.1343075313,4,1,0,40,1,0
25126,461.556213700527,4,1,0,40,1,0
25588,458.032749341578,4,1,0,40,1,0
26046,454.562672828516,4,1,0,40,1,0
26501,451.144779878943,4,1,0,45,1,0
26952,447.777902160528,4,1,0,45,1,0
27400,444.46090595948,4,1,0,45,1,0
27844,441.192690907754,4,1,0,45,1,0
28285,437.972188766013,4,1,0,45,1,0
28723,434.798362259502,4,1,0,45,1,0
29158,431.670203964171,4,1,0,45,1,0
29590,428.586735240544,4,1,0,45,1,0
30019,425.547005212951,4,1,0,45,1,0
30445,422.550089791894,4,1,0,45,1,0
30868,419.595090737438,4,1,0,45,1,0
31288,416.681134761624,4,1,0,45,1,0
31705,413.807372668023,4,1,0,45,1,0
32119,410.972978526662,4,1,0,45,1,0
32530,408.177148882615,4,1,0,45,1,0
32938,405.419101996689,4,1,0,45,1,0
33343,402.698077116682,4,1,0,45,1,0
33746,400.013333777793,4,1,0,45,1,0
34146,397.364151130832,4,1,0,45,1,0
34543,394.749827296951,4,1,0,45,1,0
34938,392.169678747671,4,1,0,45,1,0
35330,389.623039709081,4,1,0,45,1,0
35720,387.109261589084,4,1,0,45,1,0
36107,384.62771242668,4,1,0,45,1,0
36492,382.177776362305,4,1,0,45,1,0
36874,379.758853128264,4,1,0,45,1,0
37254,377.370357558414,4,1,0,45,1,0
37631,375.011719116222,4,1,0,45,1,0
38006,372.682381440417,4,1,0,45,1,0
38379,370.381801907466,4,1,0,45,1,0
38749,368.10945121016,4,1,0,45,1,0
39117,365.864812951614,4,1,0,45,1,0
39483,363.647383254038,4,1,0,50,1,0
39847,361.456670381638,4,1,0,50,1,0
40208,359.292194377077,4,1,0,50,1,0
40567,357.153486710914,4,1,0,50,1,0
40924,355.040089943489,4,1,0,50,1,0
41279,352.951557398747,4,1,0,50,1,0
41632,350.887452849499,4,1,0,50,1,0
41983,348.847350213669,4,1,0,50,1,0
42332,346.830833261077,4,1,0,50,1,0
42679,344.837495330326,4,1,0,50,1,0
43024,342.866939055402,4,1,0,50,1,0
43367,340.918776101594,4,1,0,50,1,0
43708,338.992626910365,4,1,0,50,1,0
44047,337.088120452822,4,1,0,50,1,0
44384,335.204893991452,4,1,0,50,1,0
44719,333.342592849801,4,1,0,50,1,0
45052,331.500870189784,4,1,0,50,1,0
45384,329.679386796341,4,1,0,50,1,0
45714,327.877810869149,4,1,0,50,1,0
46042,326.095817821136,4,1,0,50,1,0
46368,324.333090083516,4,1,0,50,1,0
46692,322.589316917121,4,1,0,50,1,0
47015,320.864194229792,4,1,0,50,1,0
47336,319.157424399585,4,1,0,50,1,0
47655,317.468716103601,4,1,0,50,1,0
47972,315.797784152215,4,1,0,50,1,0
48288,314.144349328516,4,1,0,50,1,0
48602,312.508138232766,4,1,0,50,1,0
48915,310.888883131687,4,1,0,50,1,0
49226,309.286321812418,4,1,0,50,1,0
49535,307.70019744096,4,1,0,50,1,0
49843,306.13025842496,4,1,0,50,1,0
50149,304.576258280667,4,1,0,55,1,1
50454,303.037955503927,4,1,0,55,1,1
50757,301.515113445061,4,1,0,55,1,1
50983,-100,4,1,0,55,0,0
51059,300.007500187505,4,1,0,55,1,1
51359,298.51488843006,4,1,0,55,1,1
51658,297.037055372658,4,1,0,55,1,1
51955,295.573782605483,4,1,0,55,1,1
52251,294.124856001373,4,1,0,55,1,1
52545,292.690065611356,4,1,0,55,1,1
52838,291.269205563242,4,1,0,55,1,1
53129,289.862073963139,4,1,0,55,1,1
53419,288.468472799827,4,1,0,55,1,1
53707,287.088207851862,4,1,0,55,1,1
53994,285.721088597348,4,1,0,55,1,1
54280,284.366928126259,4,1,0,55,1,1
54564,283.025543055261,4,1,0,55,1,1
54847,281.696753444917,4,1,0,55,1,1
55129,280.380382719222,4,1,0,55,1,1
55409,279.076257587386,4,1,0,55,1,1
55688,277.784207967777,4,1,0,55,1,1
55966,276.504066913984,4,1,0,55,1,1
56243,275.235670542902,4,1,0,55,1,1
56518,273.978857964794,4,1,0,55,1,1
56792,272.733471215255,4,1,0,55,1,1
57065,271.499355189031,4,1,0,55,1,1
57336,270.276357575621,4,1,0,55,1,1
57606,269.06432879661,4,1,0,55,1,1
57875,267.863121944686,4,1,0,55,1,1
58143,266.672592724283,4,1,0,55,1,1
58410,265.492599393792,4,1,0,55,1,1
58675,264.323002709311,4,1,0,55,1,1
58939,263.163665869866,4,1,0,55,1,1
59202,262.014454464071,4,1,0,60,1,1
59464,260.875236418183,4,1,0,60,1,0
59725,259.745881945497,4,1,0,60,1,0
59985,258.626263497058,4,1,0,60,1,0
60244,257.516255713642,4,1,0,60,1,0
60502,256.415735378961,4,1,0,60,1,0
60758,255.324581374072,4,1,0,60,1,0
61013,254.242674632937,4,1,0,60,1,0
61267,253.169898099116,4,1,0,60,1,0
61520,252.106136683544,4,1,0,60,1,0
61772,251.051277223373,4,1,0,60,1,0
62023,250.005208441843,4,1,0,60,1,0
62273,248.967820909147,4,1,0,60,1,0
62522,247.939007004277,4,1,0,60,1,0
62769,246.918660877796,4,1,0,60,1,0
63017,245.906678415541,4,1,0,60,1,0
63263,244.902957203208,4,1,0,60,1,0
63508,243.907396491799,4,1,0,60,1,0
63752,242.91989716391,4,1,0,60,1,0
63995,241.940361700841,4,1,0,60,1,0
64237,240.968694150485,4,1,0,60,1,0
64478,240.004800096002,4,1,0,60,1,0
64718,239.048586625232,4,1,0,60,1,0
64957,238.099962300839,4,1,0,60,1,0
65195,237.158837131169,4,1,0,60,1,0
65432,236.225122541782,4,1,0,60,1,0
65668,235.298731347673,4,1,0,60,1,0
65903,234.379577726127,4,1,0,60,1,0
66137,233.467577190218,4,1,0,60,1,0
66370,232.562646562918,4,1,0,60,1,0
66602,231.664703951814,4,1,0,60,1,0
66835,230.773668724399,4,1,0,60,1,0
67066,229.889461483936,4,1,0,60,1,0
67296,229.012004045879,4,1,0,60,1,0
67525,228.141219414818,4,1,0,60,1,0
67753,227.277031761965,4,1,0,60,1,0
67980,226.41936640314,4,1,0,60,1,0
68206,225.568149777251,4,1,0,60,1,0
68432,224.72330942527,4,1,0,60,1,0
68657,223.884773969664,4,1,0,60,1,0
68881,223.052473094295,4,1,0,60,1,0
69104,222.226337524769,4,1,0,60,1,0
69326,221.406299009207,4,1,0,60,1,0
69547,220.592290299454,4,1,0,60,1,0
69768,219.784245132695,4,1,0,60,1,0
69988,218.982098213471,4,1,0,60,1,0
70207,218.185785196094,4,1,0,60,1,0
70425,217.39524266744,4,1,0,60,1,0
70642,216.610408130111,4,1,0,60,1,0
70859,215.831219985971,4,1,0,60,1,0
71075,215.057617520027,4,1,0,60,1,0
71290,214.289540884659,4,1,0,60,1,0
71504,213.526931084183,4,1,0,60,1,0
71718,212.769729959751,4,1,0,60,1,0
71931,212.017880174561,4,1,0,60,1,0
72143,211.271325199387,4,1,0,60,1,0
72354,210.530009298409,4,1,0,60,1,0
72565,209.793877515341,4,1,0,60,1,0
72775,209.062875659855,4,1,0,60,1,0
72984,208.336950294276,4,1,0,60,1,0
73192,207.616048720566,4,1,0,60,1,0
73400,206.900118967568,4,1,0,60,1,0
73607,206.189109778519,4,1,0,60,1,0
73813,205.482970598812,4,1,0,60,1,0
74018,204.78165156402,4,1,0,65,1,0
74223,204.085103488155,4,1,1,65,1,0
74427,203.393277852167,4,1,1,65,1,0
74630,202.706126792682,4,1,1,65,1,0
74833,202.023603090961,4,1,1,65,1,0
75035,201.345660162083,4,1,1,65,1,0
75236,200.672252044349,4,1,1,65,1,0
75437,200.00333338889,4,1,1,65,1,1
75637,199.338859449493,4,1,1,65,1,0
75836,198.678786072617,4,1,1,65,1,0
76035,198.023069687619,4,1,1,65,1,0
76233,197.371667297159,4,1,1,65,1,0
76430,196.724536467811,4,1,1,65,1,0
76627,196.081635320839,4,1,1,65,1,0
76823,195.442922523168,4,1,1,65,1,0
77018,194.808357278527,4,1,1,65,1,0
77213,194.177899318759,4,1,1,65,1,0
77407,193.551508895305,4,1,1,65,1,0
77601,192.929146770848,4,1,1,65,1,0
77794,192.310774211125,4,1,1,65,1,0
77986,191.696352976885,4,1,1,65,1,0
78178,191.085845316008,4,1,1,65,1,0
78369,190.479213955777,4,1,1,65,1,0
78559,189.876422095286,4,1,1,65,1,0
78749,189.277433398003,4,1,1,65,1,0
78938,188.682211984465,4,1,1,65,1,0
79127,188.090722425116,4,1,1,65,1,0
79315,187.502929733277,4,1,1,65,1,0
79503,186.918799358245,4,1,1,65,1,0
79690,186.338297178528,4,1,1,65,1,0
79876,185.761389495193,4,1,1,65,1,0
80062,185.188043025355,4,1,1,65,1,0
80247,184.618224895768,4,1,1,65,1,0
80431,184.051902636544,4,1,1,65,1,0
80616,183.489044174987,4,1,1,65,1,0
80798,182.92961782954,4,1,1,65,1,0
80982,182.373592303834,4,1,1,65,1,0
81164,181.820936680859,4,1,1,65,1,0
81346,181.271620417227,4,1,1,65,1,0
81527,180.72561333755,4,1,1,65,1,0
81708,180.182885628913,4,1,1,65,1,0
81888,179.643407835447,4,1,1,65,1,0
82068,179.107150852998,4,1,1,65,1,0
82247,178.574085923898,4,1,1,65,1,0
82426,178.044184631819,4,1,1,65,1,0
82604,177.517418896729,4,1,1,65,1,0
82782,176.993760969926,4,1,1,65,1,0
82959,176.473183429168,4,1,1,65,1,0
83135,175.955659173888,4,1,1,65,1,0
83311,175.441161420489,4,1,1,65,1,0
83486,174.929663697722,4,1,1,65,1,0
83661,174.421139842149,4,1,1,65,1,0
83835,173.915563993681,4,1,1,65,1,0
84009,173.412910591194,4,1,1,65,1,0
84182,172.913154368219,4,1,1,65,1,0
84355,172.416270348712,4,1,1,65,1,0
84527,171.922233842892,4,1,1,65,1,0
84699,171.431020443149,4,1,1,65,1,0
84870,170.942606020029,4,1,1,65,1,0
85041,170.456966718277,4,1,1,65,1,0
85211,169.97407895296,4,1,1,65,1,0
85381,169.493919405641,4,1,1,65,1,0
85550,169.016465020634,4,1,1,65,1,0
85719,168.541693001306,4,1,1,65,1,0
85888,168.069580806454,4,1,1,70,1,0
86056,167.600106146734,4,1,1,70,1,0
86224,167.133246981156,4,1,1,70,1,0
86391,166.668981513632,4,1,1,70,1,0
86558,166.207288189587,4,1,1,70,1,0
86724,165.74814569262,4,1,1,70,1,0
86890,165.291532941225,4,1,1,70,1,0
87055,164.837429085564,4,1,1,70,1,0
87220,164.385813504295,4,1,1,70,1,0
87384,163.936665801445,4,1,1,70,1,0
87548,163.489965803349,4,1,1,70,1,0
87711,163.045693555619,4,1,1,70,1,0
87874,162.60382932018,4,1,1,70,1,0
88037,162.164353572346,4,1,1,70,1,0
88199,161.727246997938,4,1,1,70,1,0
88361,161.292490490464,4,1,1,70,1,0
88522,160.860065148326,4,1,1,70,1,0
88683,160.429952272089,4,1,1,70,1,0
88843,160.002133361778,4,1,1,70,1,0
89003,159.57659011423,4,1,1,70,1,0
89163,159.153304420483,4,1,1,70,1,0
89322,158.732258363206,4,1,1,70,1,0
89481,158.313434214172,4,1,1,70,1,0
89639,157.896814431769,4,1,1,70,1,0
89797,157.482381658552,4,1,1,70,1,0
89954,157.070118718831,4,1,1,70,1,0
90111,156.6600086163,4,1,1,70,1,0
90268,156.2520345317,4,1,1,70,1,0
90424,155.846179820517,4,1,1,70,1,0
90580,155.442428010726,4,1,1,70,1,0
90735,155.040762800553,4,1,1,70,1,0
90890,154.641168056289,4,1,1,70,1,0
91045,154.243627810126,4,1,1,70,1,0
91199,153.848126258029,4,1,1,70,1,0
91353,153.454647757644,4,1,1,70,1,0
91506,153.063176826235,4,1,1,70,1,0
91659,152.673698138653,4,1,1,70,1,0
91812,152.286196525337,4,1,1,70,1,0
91964,151.900656970341,4,1,1,70,1,0
92116,151.517064609402,4,1,1,70,1,0
92268,151.135404728019,4,1,1,70,1,0
92419,150.755662759582,4,1,1,70,1,0
92570,150.377824283512,4,1,1,70,1,0
92720,150.001875023438,4,1,1,70,1,1
92870,149.627800845397,4,1,1,70,1,0
93020,149.255587756067,4,1,1,70,1,0
93169,148.885221901016,4,1,1,70,1,0
93318,148.51668956299,4,1,1,70,1,0
93467,148.149977160212,4,1,1,70,1,0
93615,147.78507124472,4,1,1,70,1,0
93763,147.421958500719,4,1,1,70,1,0
93910,147.060625742963,4,1,1,70,1,0
94057,146.701059915158,4,1,1,70,1,0
94204,146.343248088391,4,1,1,70,1,0
94350,145.98717745958,4,1,1,70,1,0
94496,145.632835349944,4,1,1,70,1,0
94642,145.280209203501,4,1,1,70,1,0
94787,144.929286585587,4,1,1,70,1,0
94932,144.580055181388,4,1,1,70,1,0
95077,144.232502794505,4,1,1,70,1,0
95221,143.886617345532,4,1,1,70,1,0
95365,143.542386870656,4,1,1,70,1,0
95509,143.199799520281,4,1,1,70,1,0
95652,142.858843557661,4,1,1,70,1,0
95795,142.51950735757,4,1,1,75,1,0
95938,142.181779404969,4,1,1,75,1,0
96080,141.845648293715,4,1,1,75,1,0
96222,141.511102725268,4,1,1,75,1,0
96364,141.178131507429,4,1,1,75,1,0
96505,140.846723553093,4,1,1,75,1,0
96646,140.516867879015,4,1,1,75,1,0
96787,140.188553604598,4,1,1,75,1,0
96927,139.861769950699,4,1,1,75,1,0
97067,139.536506238445,4,1,1,75,1,0
97207,139.212751888073,4,1,1,75,1,0
97346,138.890496417783,4,1,1,75,1,0
97485,138.569729442603,4,1,1,75,1,0
97624,138.25044067328,4,1,1,75,1,0
97762,137.932619915171,4,1,1,75,1,0
97900,137.616257067168,4,1,1,75,1,0
98038,137.301342120619,4,1,1,75,1,0
98175,136.987865158278,4,1,1,75,1,0
98312,136.675816353261,4,1,1,75,1,0
98449,136.365185968022,4,1,1,75,1,0
98585,136.055964353337,4,1,1,75,1,0
98721,135.748141947307,4,1,1,75,1,0
98857,135.441709274371,4,1,1,75,1,0
98992,135.136656944335,4,1,1,75,1,0
99127,134.832975651412,4,1,1,75,1,0
99262,134.530656173275,4,1,1,75,1,0
99397,134.229689370127,4,1,1,75,1,0
99531,133.930066183774,4,1,1,75,1,0
99665,133.631777636722,4,1,1,75,1,0
99799,133.334814831276,4,1,1,75,1,0
99932,133.039168948658,4,1,1,75,1,0
100065,132.744831248133,4,1,1,75,1,0
100198,132.451793066149,4,1,1,75,1,0
100330,132.160045815483,4,1,1,75,1,0
100462,131.869580984406,4,1,1,75,1,0
100594,131.580390135857,4,1,1,75,1,0
100726,131.292464906618,4,1,1,75,1,0
100857,131.005797006518,4,1,1,75,1,0
100988,130.720378217628,4,1,1,75,1,0
101119,130.436200393483,4,1,1,75,1,0
101249,130.153255458302,4,1,1,75,1,0
101379,129.871535406227,4,1,1,75,1,0
101509,129.591032300565,4,1,1,75,1,0
101639,129.311738273042,4,1,1,75,1,0
101768,129.03364552307,4,1,1,75,1,0
101897,128.756746317021,4,1,1,75,1,0
102026,128.481032987505,4,1,1,75,1,0
102154,128.20649793267,4,1,1,75,1,0
102282,127.933133615497,4,1,1,75,1,0
102410,127.660932563112,4,1,1,75,1,0
102538,127.389887366108,4,1,1,75,1,0
102665,127.119990677867,4,1,1,75,1,0
102792,126.851235213903,4,1,1,75,1,0
102919,126.5836137512,4,1,1,75,1,0
103046,126.31711912757,4,1,1,75,1,0
103172,126.051744241011,4,1,1,75,1,0
103298,125.787482049078,4,1,1,75,1,0
103424,125.524325568259,4,1,1,75,1,0
103550,125.26226787336,4,1,1,75,1,0
103675,125.001302096897,4,1,1,75,1,0
103800,124.741421428497,4,1,1,75,1,0
103925,124.482619114306,4,1,1,75,1,0
104049,124.224888456402,4,1,1,75,1,0
104173,123.968222812219,4,1,1,75,1,0
104297,123.712615593975,4,1,1,80,1,0
104421,123.45806026811,4,1,1,80,1,0
104544,123.204550354726,4,1,1,80,1,0
104667,122.952079427043,4,1,1,80,1,0
104790,122.70064111085,4,1,1,80,1,0
104913,122.45022908397,4,1,1,80,1,0
105035,122.200837075734,4,1,1,80,1,0
105157,121.952458866452,4,1,1,80,1,0
105279,121.705088286899,4,1,1,80,1,0
105401,121.458719217806,4,1,1,80,1,0
105522,121.213345589349,4,1,1,80,1,0
105643,120.968961380659,4,1,1,80,1,0
105764,120.725560619322,4,1,1,80,1,0
105885,120.483137380897,4,1,1,80,1,0
106005,120.241685788435,4,1,1,80,1,0
106125,120.001200012,4,1,1,80,1,1
106245,119.761674268206,4,1,1,80,1,0
106365,119.523102819749,4,1,1,80,1,0
106485,119.28547997495,4,1,1,80,1,0
106604,119.048800087302,4,1,1,80,1,0
106723,118.813057555025,4,1,1,80,1,0
106842,118.578246820621,4,1,1,80,1,0
106961,118.344362370438,4,1,1,80,1,0
107079,118.11139873424,4,1,1,80,1,0
107197,117.879350484779,4,1,1,80,1,0
107315,117.648212237375,4,1,1,80,1,0
107433,117.417978649498,4,1,1,80,1,0
107550,117.188644420356,4,1,1,80,1,0
107667,116.96020429049,4,1,1,80,1,0
107784,116.732653041372,4,1,1,80,1,0
107901,116.505985495005,4,1,1,80,1,0
108018,116.280196513532,4,1,1,80,1,0
108134,116.055280998849,4,1,1,80,1,0
108250,115.831233892219,4,1,1,80,1,0
108366,115.608050173894,4,1,1,80,1,0
108482,115.385724862739,4,1,1,80,1,0
108597,115.164253015864,4,1,1,80,1,0
108712,114.943629728254,4,1,1,80,1,0
108827,114.72385013241,4,1,1,80,1,0
108942,114.50490939799,4,1,1,80,1,0
109057,114.286802731455,4,1,1,80,1,0
109171,114.069525375716,4,1,1,80,1,0
109285,113.853072609797,4,1,1,80,1,0
109399,113.637439748482,4,1,1,80,1,0
109513,113.422622141986,4,1,1,80,1,0
109626,113.208615175615,4,1,1,80,1,0
109739,112.995414269438,4,1,1,80,1,0
109852,112.783014877959,4,1,1,80,1,0
109965,112.571412489798,4,1,1,80,1,0
110078,112.360602627365,4,1,1,80,1,0
110190,112.15058084655,4,1,1,80,1,0
110302,111.941342736406,4,1,1,80,1,0
110414,111.732883918845,4,1,1,80,1,0
110526,111.525200048328,4,1,1,80,1,0
110638,111.318286811566,4,1,1,80,1,0
110749,111.112139927222,4,1,1,80,1,0
110860,110.906755145611,4,1,1,80,1,0
110971,110.702128248416,4,1,1,80,1,0
111082,110.498255048389,4,1,1,80,1,0
111192,110.295131389075,4,1,1,80,1,0
111302,110.092753144524,4,1,1,80,1,0
111412,109.891116219013,4,1,1,80,1,0
111522,109.690216546769,4,1,1,80,1,0
111632,109.490050091698,4,1,1,80,1,0
111741,109.290612847112,4,1,1,90,1,0
111850,109.091900835462,4,1,1,90,1,0
111959,108.893910108077,4,1,1,90,1,0
112068,108.696636744898,4,1,1,90,1,0
112177,108.500076854221,4,1,1,90,1,0
112286,108.304226572442,4,1,1,90,1,0
112394,108.109082063802,4,1,1,90,1,0
112502,107.91463952014,4,1,1,90,1,0
112610,107.720895160639,4,1,1,90,1,0
112718,107.527845231588,4,1,1,90,1,0
112826,107.335486006136,4,1,1,90,1,0
112933,107.143813784052,4,1,1,90,1,0
113040,106.952824891487,4,1,1,90,1,0
113147,106.762515680744,4,1,1,90,1,0
113254,106.57288253004,4,1,1,90,1,0
113361,106.383921843279,4,1,1,90,1,0
113467,106.195630049823,4,1,0,90,1,0
113573,106.008003604272,4,1,0,90,1,0
113679,105.821038986234,4,1,0,90,1,0
113785,105.634732700112,4,1,0,90,1,0
113891,105.449081274879,4,1,0,90,1,0
113996,105.264081263871,4,1,0,90,1,0
114101,105.079729244564,4,1,0,90,1,0
114206,104.896021818373,4,1,0,90,1,0
114311,104.712955610433,4,1,0,100,1,1
114348,-100,4,1,1,100,0,0

[Colours]
Combo1 : 255,255,255
Combo2 : 244,0,6
Combo3 : 129,69,252

[HitObjects]
448,80,315,1,4,0:0:0:0:
480,80,7515,5,4,0:0:0:0:
464,112,9015,1,0,0:0:0:0:
448,144,9165,1,0,0:0:0:0:
432,176,9315,1,0,0:0:0:0:
416,208,9615,1,0,0:0:0:0:
128,304,9915,6,2,B|216:256|320:288,1,187.5,6|2,0:0|0:0,0:0:0:0:
309,285,10509,2,0,B|344:160,1,125,8|0,0:0|0:0,0:0:0:0:
368,80,11097,1,0,0:0:0:0:
144,80,11388,1,0,0:0:0:0:
184,88,11533,1,0,0:0:0:0:
224,80,11679,1,8,0:0:0:0:
96,160,11968,5,2,0:0:0:0:
96,160,12256,2,2,B|58:240|120:303|192:256,1,187.5
224,280,12828,2,0,B|352:280,1,125,8|2,0:0|0:0,0:0:0:0:
392,296,13252,1,0,0:0:0:0:
432,279,13394,2,2,B|480:173|399:93|307:154,1,250,2|10,0:0|0:0,0:0:0:0:
314,149,14232,1,0,0:0:0:0:
256,80,14510,6,2,B|176:32|72:56,1,187.5
32,72,15061,2,0,B|104:88|112:160,1,125,8|0,0:0|0:0,0:0:0:0:
32,344,15606,1,0,0:0:0:0:
112,288,15876,1,0,0:0:0:0:
144,208,16146,1,10,0:0:0:0:
144,208,16280,1,2,0:0:0:0:
144,208,16414,1,2,0:0:0:0:
224,240,16683,6,2,B|328:232|384:320,1,187.5
424,304,17214,2,0,B|464:184,1,125,8|0,0:0|0:0,0:0:0:0:
360,104,17740,2,2,B|272:56|176:96,1,187.5
144,120,18261,2,0,B|24:72,1,125,8|0,0:0|0:0,0:0:0:0:
64,312,18779,6,2,B|160:336|248:280,1,187.5
243,282,19292,2,0,B|368:328,1,125,8|0,0:0|0:0,0:0:0:0:
448,336,19800,5,0,0:0:0:0:
480,348,19926,1,2,0:0:0:0:
376,192,20304,1,10,0:0:0:0:
256,40,20554,1,2,0:0:0:0:
136,192,20804,2,2,B|48:176|48:176|16:280,1,187.5
19,269,21300,1,8,0:0:0:0:
376,192,21791,2,2,B|464:176|464:176|496:280,1,187.5
480,228,22280,2,0,B|440:104,1,125,8|0,0:0|0:0,0:0:0:0:
368,64,22764,6,0,B|176:64,1,187.5,2|2,0:0|0:0,0:0:0:0:
112,72,23244,1,8,0:0:0:0:
48,192,23482,1,0,0:0:0:0:
88,328,23720,6,0,B|280:328,1,187.5,2|2,0:0|0:0,0:0:0:0:
344,320,24192,1,8,0:0:0:0:
408,200,24426,1,0,0:0:0:0:
368,64,24661,6,0,B|176:88,1,187.5,2|2,0:0|0:0,0:0:0:0:
120,120,25126,1,8,0:0:0:0:
368,168,25356,1,2,0:0:0:0:
120,224,25588,1,0,0:0:0:0:
120,224,25702,1,2,0:0:0:0:
120,224,25817,1,0,0:0:0:0:
368,280,26046,1,10,0:0:0:0:
368,64,26273,1,2,0:0:0:0:
64,88,26501,6,2,B|120:168|72:288,1,187.5,2|2,0:0|0:0,0:0:0:0:
56,336,26952,1,8,0:0:0:0:
464,96,27400,1,0,0:0:0:0:
480,192,27622,1,0,0:0:0:0:
480,192,27733,1,0,0:0:0:0:
480,192,27844,1,8,0:0:0:0:
456,288,28064,1,2,0:0:0:0:
368,240,28285,6,2,B|272:208|176:232,1,187.5,2|2,0:0|0:0,0:0:0:0:
144,240,28722,1,8,0:0:0:0:
40,168,28940,1,2,0:0:0:0:
132,84,29157,2,2,B|256:44|380:84,1,250,2|10,0:0|0:0,0:0:0:0:
377,83,29804,1,0,0:0:0:0:
424,320,30018,6,2,B|480:240|432:136,1,187.5,2|2,0:0|0:0,0:0:0:0:
434,141,30444,1,8,0:0:0:0:
256,192,30656,1,0,0:0:0:0:
80,248,30868,2,0,B|48:128,1,125
200,312,31288,5,10,0:0:0:0:
200,312,31392,1,2,0:0:0:0:
200,312,31496,1,2,0:0:0:0:
200,312,31705,6,2,B|272:240|376:272,1,187.5
372,271,32118,2,0,B|432:160,1,125,8|0,0:0|0:0,0:0:0:0:
312,72,32530,6,2,B|240:144|136:112,1,187.5
139,112,32938,2,0,B|80:224,1,125,8|0,0:0|0:0,0:0:0:0:
139,112,33343,6,2,B|240:104|304:200,1,187.5
298,192,33746,1,8,0:0:0:0:
80,320,34146,5,0,0:0:0:0:
136,280,34245,1,2,0:0:0:0:
204,288,34344,1,0,0:0:0:0:
432,232,34543,1,10,0:0:0:0:
432,232,34740,1,2,0:0:0:0:
472,96,34938,6,2,B|280:72,1,187.5
216,88,35330,2,0,B|80:96,1,125,8|0,0:0|0:0,0:0:0:0:
40,320,35720,6,2,B|232:304,1,187.5
296,320,36107,1,8,0:0:0:0:
360,296,36203,1,0,0:0:0:0:
424,328,36299,1,0,0:0:0:0:
472,104,36491,6,0,B|384:136|384:136|280:120,1,187.5,2|2,0:0|0:0,0:0:0:0:
256,96,36874,2,0,B|163:81|163:81|75:113,1,187.5,10|2,0:0|0:0,0:0:0:0:
96,72,37254,6,0,B|110:164|110:164|78:252,1,187.5,2|2,0:0|0:0,0:0:0:0:
40,232,37631,2,0,B|168:216,1,125,10|0,0:0|0:0,0:0:0:0:
232,204,37913,1,2,0:0:0:0:
232,204,38006,6,0,B|344:176|392:288,1,187.5,2|2,0:0|0:0,0:0:0:0:
440,232,38378,2,0,B|384:112,1,125,10|0,0:0|0:0,0:0:0:0:
352,56,38656,1,2,0:0:0:0:
312,64,38749,5,10,0:0:0:0:
272,56,38841,1,8,0:0:0:0:
240,64,38933,1,8,0:0:0:0:
200,56,39025,1,2,0:0:0:0:
160,64,39117,1,10,0:0:0:0:
120,56,39208,1,0,0:0:0:0:
80,64,39299,1,8,0:0:0:0:
40,56,39391,1,10,0:0:0:0:
0,64,39482,1,4,0:0:0:0:
8,192,39664,6,0,B|144:192|240:288,1,250
312,384,40208,2,0,B|432:336,2,125,0|0|8,0:0|0:0|0:0,0:0:0:0:
456,224,40745,1,0,0:0:0:0:
456,224,40924,6,0,B|320:224|224:128,1,250,0|8,0:0|0:0,0:0:0:0:
152,40,41455,1,0,0:0:0:0:
152,40,41543,1,0,0:0:0:0:
152,40,41631,2,0,B|72:72|16:184,2,187.5
272,64,42331,5,0,0:0:0:0:
320,176,42505,1,0,0:0:0:0:
320,176,42592,1,0,0:0:0:0:
320,176,42678,2,0,B|264:144|192:152,1,125,8|0,0:0|0:0,0:0:0:0:
272,256,43024,2,0,B|383:319|512:305,1,250,0|8,0:0|0:0,0:0:0:0:
176,264,43537,1,0,0:0:0:0:
176,264,43708,2,0,B|48:272,2,125,0|0|8,0:0|0:0|0:0,0:0:0:0:
464,48,44384,6,0,B|384:104|272:80,1,187.5
216,64,44719,2,0,B|88:72,1,125,8|0,0:0|0:0,0:0:0:0:
91,71,45052,1,0,0:0:0:0:
91,71,45217,6,0,B|120:136|88:192,1,125,0|8,0:0|0:0,0:0:0:0:
192,280,45548,1,0,0:0:0:0:
192,280,45713,2,0,B|163:215|195:159,1,125,0|0,0:0|0:0,0:0:0:0:
264,224,46042,1,8,0:0:0:0:
389,224,46205,2,0,B|264:224,1,125
389,224,46530,1,0,0:0:0:0:
389,224,46611,1,0,0:0:0:0:
389,224,46692,2,0,B|416:160|384:104,1,125,8|0,0:0|0:0,0:0:0:0:
496,40,47015,2,0,B|384:112|248:80,1,250,0|8,0:0|0:0,0:0:0:0:
136,48,47495,1,0,0:0:0:0:
32,120,47655,5,0,0:0:0:0:
72,240,47813,1,0,0:0:0:0:
72,240,47893,1,0,0:0:0:0:
72,240,47972,1,8,0:0:0:0:
32,120,48128,1,0,0:0:0:0:
152,152,48288,1,0,0:0:0:0:
200,272,48445,1,0,0:0:0:0:
200,272,48602,2,0,B|320:304,1,125,8|0,0:0|0:0,0:0:0:0:
440,336,48915,1,0,0:0:0:0:
488,216,49070,1,0,0:0:0:0:
440,336,49225,1,8,0:0:0:0:
392,216,49380,1,0,0:0:0:0:
392,216,49457,1,0,0:0:0:0:
392,216,49535,2,0,B|312:152|352:48,1,187.5
352,47,49843,2,0,B|224:64,1,125,8|0,0:0|0:0,0:0:0:0:
0,96,50149,5,4,0:0:0:0:
136,76,50301,2,0,B|172:132|148:196,1,125,0|8,0:0|0:0,0:0:0:0:
88,320,50605,1,0,0:0:0:0:
148,195,50757,2,0,B|224:200|240:272,1,125
376,256,51059,1,12,0:0:0:0:
376,256,51209,2,0,B|300:251|284:179,1,125
272,48,51508,1,0,0:0:0:0:
285,184,51657,2,0,B|376:80,1,125,8|0,0:0|0:0,0:0:0:0:
285,184,51955,2,0,B|152:160|72:296,1,250,0|8,0:0|0:0,0:0:0:0:
76,288,52398,1,0,0:0:0:0:
76,288,52545,1,0,0:0:0:0:
32,48,52691,5,0,0:0:0:0:
32,48,52764,1,0,0:0:0:0:
32,48,52837,1,8,0:0:0:0:
128,144,52983,1,0,0:0:0:0:
128,144,53129,2,0,B|224:88|328:116|368:160,1,250,0|8,0:0|0:0,0:0:0:0:
362,154,53563,2,0,B|472:88,1,125
368,320,53850,1,0,0:0:0:0:
368,320,53994,2,0,B|258:253,1,125,8|0,0:0|0:0,0:0:0:0:
261,255,54280,2,0,B|192:328|80:304,1,187.5
89,305,54564,2,0,B|-32:344,2,125,8|0|0,0:0|0:0|0:0,0:0:0:0:
144,176,54987,6,0,B|160:112|120:56,1,125,0|8,0:0|0:0,0:0:0:0:
248,112,55269,1,0,0:0:0:0:
248,112,55409,2,0,B|316:108|376:128|420:176|432:256,1,250,0|8,0:0|0:0,0:0:0:0:
447,366,55826,2,0,B|416:312|430:245,1,125
312,320,56104,1,0,0:0:0:0:
312,320,56173,1,0,0:0:0:0:
312,320,56242,2,0,B|184:312,1,125,8|0,0:0|0:0,0:0:0:0:
62,303,56518,2,0,B|187:312,1,125
192,176,56792,1,8,0:0:0:0:
196,44,56928,1,0,0:0:0:0:
192,176,57065,6,0,B|128:160|104:88,1,125
192,176,57336,1,8,0:0:0:0:
272,128,57471,6,0,B|338:105|354:41,1,125
480,96,57740,1,0,0:0:0:0:
354,41,57875,2,0,B|288:64|272:128,1,125,8|0,0:0|0:0,0:0:0:0:
320,208,58143,5,0,0:0:0:0:
320,208,58275,2,0,B|384:224|406:290,1,125,0|8,0:0|0:0,0:0:0:0:
240,256,58542,5,0,0:0:0:0:
240,256,58609,1,0,0:0:0:0:
240,256,58675,2,0,B|224:320|152:344,1,125,4|0,0:0|0:0,0:0:0:0:
157,342,58873,1,0,0:0:0:0:
157,341,58939,2,0,B|173:278|240:256,1,125,4|0,0:0|0:0,0:0:0:0:
64,312,59202,6,2,B|24:56,1,250,6|10,0:0|0:0,0:0:0:0:
448,80,59724,2,0,B|392:112|328:104,1,125,0|2,0:0|0:0,0:0:0:0:
240,216,59985,2,0,B|296:184|360:192,1,125,0|2,0:0|0:0,0:0:0:0:
296,312,60243,2,0,B|184:376|48:352,3,250,2|10|2|2,0:0|0:0|0:0|0:0,0:0:0:0:
400,336,61267,6,2,B|464:96,1,250,2|10,0:0|0:0,0:0:0:0:
80,48,61772,1,0,0:0:0:0:
208,88,61897,1,2,0:0:0:0:
200,224,62023,1,0,0:0:0:0:
72,184,62148,1,2,0:0:0:0:
200,224,62273,5,2,0:0:0:0:
336,200,62397,1,2,0:0:0:0:
440,288,62521,1,10,0:0:0:0:
440,288,62769,1,6,0:0:0:0:
48,336,63262,6,2,B|304:320,1,250,6|10,0:0|0:0,0:0:0:0:
432,80,63751,2,0,B|376:48|304:72,1,125,0|2,0:0|0:0,0:0:0:0:
184,96,63995,2,0,B|120:120|56:96,1,125,0|2,0:0|0:0,0:0:0:0:
136,200,64237,2,0,B|264:168|376:248,3,250,2|10|2|2,0:0|0:0|0:0|0:0,0:0:0:0:
136,200,65195,6,2,B|264:232|376:152,1,250,2|10,0:0|0:0,0:0:0:0:
176,312,65668,1,0,0:0:0:0:
56,288,65785,1,2,0:0:0:0:
136,200,65903,1,0,0:0:0:0:
96,88,66021,1,2,0:0:0:0:
216,112,66137,5,2,0:0:0:0:
328,56,66253,1,2,0:0:0:0:
416,144,66370,1,10,0:0:0:0:
360,256,66486,1,2,0:0:0:0:
240,232,66602,6,0,B|252:108|388:136|360:256,1,250,6|0,0:0|0:0,0:0:0:0:
24,328,67066,6,2,B|96:208|0:80,1,250,6|10,0:0|0:0,0:0:0:0:
456,56,67525,1,0,0:0:0:0:
456,56,67639,2,2,B|384:176|480:304,1,250,2|2,0:0|0:0,0:0:0:0:
352,264,67980,2,0,B|216:224|104:296,1,250,2|10,0:0|0:0,0:0:0:0:
120,120,68431,2,0,B|256:160|368:88,1,250,2|2,0:0|0:0,0:0:0:0:
360,92,68880,5,2,0:0:0:0:
40,56,69104,2,0,B|112:176|40:292,1,250,10|0,0:0|0:0,0:0:0:0:
40,292,69437,2,0,B|159:220|275:293,1,250,2|2,0:0|0:0,0:0:0:0:
376,368,69768,1,2,0:0:0:0:
472,296,69877,1,2,0:0:0:0:
472,176,69987,1,10,0:0:0:0:
17,104,70207,2,0,B|264:144,1,250,6|0,0:0|0:0,0:0:0:0:
488,32,70642,6,2,B|240:64,1,250,6|10,0:0|0:0,0:0:0:0:
280,312,71075,1,0,0:0:0:0:
264,192,71182,1,2,0:0:0:0:
136,208,71290,1,0,0:0:0:0:
152,328,71397,1,2,0:0:0:0:
280,312,71504,5,2,0:0:0:0:
334,67,71717,1,10,0:0:0:0:
89,11,71930,1,2,0:0:0:0:
34,256,72143,1,2,0:0:0:0:
280,312,72354,5,2,0:0:0:0:
416,112,72565,2,0,B|392:248|280:312,1,250,10|0,0:0|0:0,0:0:0:0:
176,240,72879,2,0,B|200:104|312:40,1,250,2|2,0:0|0:0,0:0:0:0:
192,64,73192,5,6,0:0:0:0:
72,72,73295,1,2,0:0:0:0:
24,192,73399,1,10,0:0:0:0:
152,184,73503,1,2,0:0:0:0:
272,144,73606,5,6,0:0:0:0:
392,168,73710,1,2,0:0:0:0:
424,288,73813,1,10,0:0:0:0:
304,256,73915,1,2,0:0:0:0:
208,352,74018,5,4,0:0:0:0:
208,352,74223,1,8,0:0:0:0:
208,352,74427,1,0,0:0:0:0:
208,352,74630,1,8,0:0:0:0:
208,352,74832,1,0,0:0:0:0:
208,352,75035,1,8,0:0:0:0:
208,352,75236,1,0,0:0:0:0:
208,352,75436,1,12,0:0:0:0:
208,352,75637,1,0,0:0:0:0:
208,352,75836,1,8,0:0:0:0:
208,352,76034,1,0,0:0:0:0:
208,352,76233,1,10,0:0:0:0:
208,352,76430,2,2,B|320:288|456:320,1,250,2|8,0:0|0:0,0:0:0:0:
400,200,76726,2,2,B|288:264|152:232,1,250,2|0,0:0|0:0,0:0:0:0:
56,296,77018,6,0,B|16:48,1,250,10|2,0:0|0:0,0:0:0:0:
64,56,77407,1,8,0:0:0:0:
112,48,77600,1,0,0:0:0:0:
160,56,77794,1,8,0:0:0:0:
208,48,77986,1,0,0:0:0:0:
256,56,78177,1,8,0:0:0:0:
304,48,78369,1,0,0:0:0:0:
352,56,78559,1,8,0:0:0:0:
400,48,78748,1,0,0:0:0:0:
448,56,78938,1,8,0:0:0:0:
496,48,79127,1,0,0:0:0:0:
496,48,79315,1,10,0:0:0:0:
424,288,79503,6,2,B|168:320,1,250,2|10,0:0|0:0,0:0:0:0:
72,248,79783,2,2,B|320:216,1,250
444,200,80062,1,10,0:0:0:0:
208,120,80247,5,2,0:0:0:0:
136,88,80431,1,8,0:0:0:0:
104,160,80615,1,0,0:0:0:0:
176,192,80798,1,8,0:0:0:0:
208,120,80980,1,0,0:0:0:0:
264,64,81164,1,8,0:0:0:0:
320,120,81346,1,0,0:0:0:0:
264,176,81527,1,8,0:0:0:0:
320,120,81707,1,0,0:0:0:0:
392,144,81888,1,8,0:0:0:0:
416,72,82067,1,0,0:0:0:0:
344,48,82247,1,10,0:0:0:0:
432,208,82426,6,0,B|312:192|208:344|80:320,2,375,2|10|2,0:0|0:0|0:0,0:0:0:0:
360,312,83135,5,2,0:0:0:0:
288,248,83310,1,8,0:0:0:0:
200,200,83486,1,0,0:0:0:0:
104,184,83660,1,8,0:0:0:0:
200,200,83835,5,0,0:0:0:0:
296,184,84009,1,8,0:0:0:0:
384,136,84182,1,0,0:0:0:0:
456,72,84355,1,8,0:0:0:0:
384,136,84527,5,0,0:0:0:0:
384,136,84612,1,0,0:0:0:0:
384,136,84698,1,8,0:0:0:0:
288,120,84870,1,0,0:0:0:0:
288,120,84955,1,0,0:0:0:0:
288,120,85040,1,10,0:0:0:0:
200,72,85211,1,2,0:0:0:0:
200,72,85295,1,2,0:0:0:0:
200,72,85380,1,10,0:0:0:0:
200,72,85465,1,2,0:0:0:0:
128,8,85634,1,2,0:0:0:0:
128,8,85719,1,10,0:0:0:0:
48,72,85888,5,6,0:0:0:0:
48,72,85972,1,0,0:0:0:0:
48,72,86056,1,0,0:0:0:0:
16,320,86223,2,0,B|120:240|256:272,1,250,10|0,0:0|0:0,0:0:0:0:
496,344,86558,1,0,0:0:0:0:
424,104,86724,1,2,0:0:0:0:
424,104,86806,1,0,0:0:0:0:
424,104,86890,2,0,B|320:184|184:152,1,250,8|0,0:0|0:0,0:0:0:0:
424,240,87220,5,2,0:0:0:0:
424,240,87302,1,0,0:0:0:0:
424,240,87384,1,0,0:0:0:0:
152,296,87546,1,8,0:0:0:0:
248,64,87710,1,2,0:0:0:0:
424,240,87874,2,0,B|312:104|168:280|80:128,2,375,6|6|6,0:0|0:0|0:0,0:0:0:0:
56,328,88522,5,6,0:0:0:0:
56,328,88602,1,0,0:0:0:0:
56,328,88682,1,0,0:0:0:0:
105,89,88843,2,2,B|128:224|56:328,1,250,10|0,0:0|0:0,0:0:0:0:
208,128,89162,1,0,0:0:0:0:
443,90,89322,2,2,B|352:176|208:128,1,250,2|8,0:0|0:0,0:0:0:0:
440,224,89639,1,0,0:0:0:0:
276,42,89796,2,2,B|324:162|440:224,1,250,2|0,0:0|0:0,0:0:0:0:
235,341,90111,2,0,B|187:221|72:160,1,250,8|2,0:0|0:0,0:0:0:0:
304,256,90424,5,6,0:0:0:0:
308,132,90501,1,2,0:0:0:0:
384,232,90579,1,6,0:0:0:0:
260,192,90657,1,2,0:0:0:0:
380,156,90735,1,14,0:0:0:0:
136,152,90890,1,6,0:0:0:0:
16,376,91045,5,6,0:0:0:0:
16,376,91122,1,0,0:0:0:0:
16,376,91199,1,0,0:0:0:0:
32,128,91353,2,2,B|168:160|264:56,1,250,10|0,0:0|0:0,0:0:0:0:
32,128,91659,1,0,0:0:0:0:
480,256,91811,2,2,B|344:224|248:328,1,250,2|8,0:0|0:0,0:0:0:0:
480,256,92117,1,0,0:0:0:0:
124,156,92268,6,2,B|223:248|192:384,1,250,2|0,0:0|0:0,0:0:0:0:
387,227,92569,2,0,B|288:135|320:0,1,250,8|6,0:0|0:0,0:0:0:0:
48,304,92870,1,6,0:0:0:0:
464,80,93094,1,6,0:0:0:0:
256,192,93318,1,6,0:0:0:0:
40,64,93467,6,2,B|296:72,1,250,6|0,0:0|0:0,0:0:0:0:
472,320,93763,2,0,B|216:312,2,250,10|0|0,0:0|0:0|0:0,0:0:0:0:
400,32,94204,2,0,B|376:160|496:248,2,250,2|8|0,0:0|0:0|0:0,0:0:0:0:
112,352,94641,2,0,B|136:224|16:136,2,250,2|0|8,0:0|0:0|0:0,0:0:0:0:
8,280,95077,5,2,0:0:0:0:
384,144,95221,1,6,0:0:0:0:
128,240,95366,1,6,0:0:0:0:
504,104,95509,1,2,0:0:0:0:
256,192,95653,1,6,0:0:0:0:
96,96,95795,5,6,0:0:0:0:
416,288,95938,1,2,0:0:0:0:
352,32,96080,1,10,0:0:0:0:
160,352,96223,1,2,0:0:0:0:
92,282,96505,5,2,0:0:0:0:
346,355,96645,1,8,0:0:0:0:
419,101,96786,1,2,0:0:0:0:
165,28,96927,1,6,0:0:0:0:
419,101,97067,1,2,0:0:0:0:
346,355,97206,1,10,0:0:0:0:
92,282,97346,1,2,0:0:0:0:
464,256,97623,5,6,0:0:0:0:
48,128,97762,1,14,0:0:0:0:
248,96,98037,5,6,0:0:0:0:
264,288,98176,1,2,0:0:0:0:
32,216,98311,1,10,0:0:0:0:
480,168,98451,1,2,0:0:0:0:
132,176,98721,6,0,B|256:192|376:240,2,250,2|8|2,0:0|0:0|0:0,0:0:0:0:
352,304,99127,6,2,B|352:160|456:88,1,250,6|2,0:0|0:0,0:0:0:0:
160,80,99396,2,2,B|160:224|56:296,1,250,10|2,0:0|0:0,0:0:0:0:
72,40,99665,1,6,0:0:0:0:
320,72,99798,1,2,0:0:0:0:
440,288,99932,1,14,0:0:0:0:
432,96,100197,5,6,0:0:0:0:
184,144,100330,1,2,0:0:0:0:
328,240,100462,1,10,0:0:0:0:
80,288,100595,1,2,0:0:0:0:
432,96,100857,2,0,B|488:344,2,250,2|8|2,0:0|0:0|0:0,0:0:0:0:
128,56,101249,5,6,0:0:0:0:
384,216,101379,1,2,0:0:0:0:
120,360,101508,1,10,0:0:0:0:
384,216,101638,1,2,0:0:0:0:
48,128,101897,5,6,0:0:0:0:
464,256,102025,1,14,0:0:0:0:
32,320,102282,6,2,B|152:232|112:96,1,250,6|2,0:0|0:0,0:0:0:0:
398,282,102537,2,2,B|360:152|480:64,1,250,10|2,0:0|0:0,0:0:0:0:
216,72,102918,2,0,B|296:312,2,250,2|8|2,0:0|0:0|0:0,0:0:0:0:
184,320,103298,5,6,0:0:0:0:
112,80,103424,1,2,0:0:0:0:
360,96,103549,1,10,0:0:0:0:
432,336,103675,1,2,0:0:0:0:
112,264,103800,5,6,0:0:0:0:
304,40,103924,1,2,0:0:0:0:
488,280,104049,1,14,0:0:0:0:
48,40,104296,5,6,0:0:0:0:
48,40,104358,1,0,0:0:0:0:
48,40,104420,1,6,0:0:0:0:
2,269,104544,2,2,B|104:160|48:40,1,250,10|2,0:0|0:0,0:0:0:0:
463,343,104912,2,0,B|408:224|509:114,2,250,2|8|2,0:0|0:0|0:0,0:0:0:0:
296,96,105279,5,6,0:0:0:0:
216,288,105400,1,2,0:0:0:0:
144,48,105522,1,10,0:0:0:0:
368,336,105643,1,2,0:0:0:0:
368,336,105703,1,0,0:0:0:0:
368,336,105763,1,4,0:0:0:0:
64,312,105885,5,6,0:0:0:0:
448,72,106005,1,14,0:0:0:0:
40,144,106245,5,6,0:0:0:0:
40,144,106304,1,4,0:0:0:0:
40,144,106364,1,6,0:0:0:0:
376,168,106484,2,2,B|288:152|224:240|128:208,1,250,10|2,0:0|0:0,0:0:0:0:
432,296,106842,2,0,B|480:176|432:48,2,250,2|8|2,0:0|0:0|0:0,0:0:0:0:
136,312,107197,5,6,0:0:0:0:
136,312,107255,1,0,0:0:0:0:
136,312,107314,1,2,0:0:0:0:
88,40,107432,1,10,0:0:0:0:
288,264,107550,5,2,0:0:0:0:
424,40,107667,1,6,0:0:0:0:
424,40,107725,1,0,0:0:0:0:
424,40,107784,1,6,0:0:0:0:
424,40,107842,1,0,0:0:0:0:
424,40,107900,1,10,0:0:0:0:
48,240,108134,5,6,0:0:0:0:
48,240,108192,1,0,0:0:0:0:
48,240,108250,1,2,0:0:0:0:
312,96,108365,2,2,B|448:136|480:272,1,250,10|2,0:0|0:0,0:0:0:0:
40,88,108712,2,0,B|176:128|208:264,2,250,2|8|2,0:0|0:0|0:0,0:0:0:0:
256,192,109057,5,6,0:0:0:0:
256,192,109114,1,0,0:0:0:0:
256,192,109171,1,6,0:0:0:0:
28,164,109285,5,10,0:0:0:0:
484,220,109399,2,2,B|408:320|264:344,1,250,2|0,0:0|0:0,0:0:0:0:
28,164,109626,1,6,0:0:0:0:
239,41,109739,1,14,0:0:0:0:
32,336,109964,5,6,0:0:0:0:
32,336,110021,1,0,0:0:0:0:
32,336,110077,1,2,0:0:0:0:
32,336,110078,1,6,0:0:0:0:
32,336,110134,1,0,0:0:0:0:
32,336,110190,2,2,B|176:304|184:160,1,250,10|2,0:0|0:0,0:0:0:0:
480,48,110525,6,2,B|336:80|328:224,1,250,2|10,0:0|0:0,0:0:0:0:
480,48,110749,1,2,0:0:0:0:
48,64,110860,5,6,0:0:0:0:
48,64,110915,1,0,0:0:0:0:
48,64,110970,1,2,0:0:0:0:
464,320,111082,5,14,0:0:0:0:
464,320,111137,1,0,0:0:0:0:
464,320,111192,1,2,0:0:0:0:
248,216,111302,5,6,0:0:0:0:
252,208,111357,1,0,0:0:0:0:
256,200,111412,1,6,0:0:0:0:
260,192,111466,1,0,0:0:0:0:
264,184,111521,1,14,0:0:0:0:
136,296,111740,5,6,0:0:0:0:
136,296,111795,1,0,0:0:0:0:
136,296,111849,1,2,0:0:0:0:
24,312,111959,5,10,0:0:0:0:
48,64,112068,1,2,0:0:0:0:
136,296,112176,1,2,0:0:0:0:
472,64,112610,5,6,0:0:0:0:
472,64,112663,1,0,0:0:0:0:
472,64,112717,1,2,0:0:0:0:
372,319,112825,5,10,0:0:0:0:
372,319,112879,1,0,0:0:0:0:
372,319,112933,1,2,0:0:0:0:
372,319,112986,1,0,0:0:0:0:
372,319,113040,1,2,0:0:0:0:
264,32,113467,5,6,0:0:0:0:
264,32,113520,1,0,0:0:0:0:
264,32,113573,1,2,0:0:0:0:
248,352,113679,5,14,0:0:0:0:
248,352,113732,1,0,0:0:0:0:
248,352,113785,1,2,0:0:0:0:
8,200,113891,5,2,0:0:0:0:
488,184,113996,1,2,0:0:0:0:
0,184,114101,1,2,0:0:0:0:
496,200,114206,1,2,0:0:0:0:
256,192,114310,5,4,0:0:0:0:
