osu file format v14

[General]
AudioFilename: deltaMAX.mp3
AudioLeadIn: 1000
PreviewTime: 50149
Countdown: 1
SampleSet: None
StackLeniency: 0.7
Mode: 1
LetterboxInBreaks: 0
WidescreenStoryboard: 0

[Editor]
Bookmarks: 11850,65173
DistanceSpacing: 0.8
BeatDivisor: 2
GridSize: 8
TimelineZoom: 1

[Metadata]
Title:deltaMAX
TitleUnicode:
Artist:DM Ashura
ArtistUnicode:
Creator:Sprosive
Version:Taiko Oni
Source:DDR Forever
Tags:Dance Dance Revolution Universe 3 stepmania ignorethis lzy Doomsday tsuka Frank7654321
BeatmapID:790099
BeatmapSetID:359335

[Difficulty]
HPDrainRate:7
CircleSize:5
OverallDifficulty:6
ApproachRate:6
SliderMultiplier:1.05
SliderTickRate:1

[Events]
//Background and Video events
0,0,"deltaMAX-bg.png",0,0
Video,350,"deltaMAX.avi"
//Break Periods
//Storyboard Layer 0 (Background)
//Storyboard Layer 1 (Fail)
//Storyboard Layer 2 (Pass)
//Storyboard Layer 3 (Foreground)
//Storyboard Sound Samples

[TimingPoints]
315,600,4,1,0,100,1,0
9915,594.088816278034,4,1,0,100,1,0
12257,571.455783608743,4,1,0,100,1,0
14511,550.483967154457,4,1,0,100,1,0
16683,530.996946767556,4,1,0,100,1,0
18779,512.84242916364,4,1,0,100,1,0
20804,495.888259845448,4,1,0,100,1,0
22764,480.019200768031,4,1,0,100,1,0
24661,465.1343075313,4,1,0,100,1,0
26501,451.144779878943,4,1,0,100,1,0
28285,437.972188766013,4,1,0,100,1,0
30019,425.547005212951,4,1,0,100,1,0
31705,413.807372668023,4,1,0,100,1,0
33343,402.698077116682,4,1,0,100,1,0
34938,392.169678747671,4,1,0,100,1,0
36492,382.177776362305,4,1,0,100,1,0
38006,372.682381440417,4,1,0,100,1,0
39483,363.647383254038,4,1,0,100,1,0
40924,355.040089943489,4,1,0,100,1,0
42332,346.830833261077,4,1,0,100,1,0
43708,338.992626910365,4,1,0,100,1,0
45052,331.500870189784,4,1,0,100,1,0
46368,324.333090083516,4,1,0,100,1,0
47655,317.468716103601,4,1,0,100,1,0
48915,310.888883131687,4,1,0,100,1,0
50149,304.576258280667,4,1,0,100,1,0
51359,298.51488843006,4,1,0,100,1,0
52545,292.690065611356,4,1,0,100,1,0
53707,287.088207851862,4,1,0,100,1,0
54847,281.696753444917,4,1,0,100,1,0
55966,276.504066913984,4,1,0,100,1,0
57065,271.499355189031,4,1,0,100,1,0
58143,266.672592724283,4,1,0,100,1,0
59202,262.014454464071,4,1,0,100,1,0
60244,257.516255713642,4,1,0,100,1,0
61267,253.169898099116,4,1,0,100,1,0
62273,248.967820909147,4,1,0,100,1,0
63263,244.902957203208,4,1,0,100,1,0
64237,240.968694150485,4,1,0,100,1,0
65195,237.158837131169,4,1,0,100,1,0
66137,233.467577190218,4,1,0,100,1,0
67066,229.889461483936,4,1,0,100,1,0
67980,226.41936640314,4,1,0,100,1,0
68881,223.052473094295,4,1,0,100,1,0
69768,219.784245132695,4,1,0,100,1,0
70642,216.610408130111,4,1,0,100,1,0
71504,213.526931084183,4,1,0,100,1,0
72354,210.530009298409,4,1,0,100,1,0
73192,207.616048720566,4,1,0,100,1,0
74018,204.78165156402,4,1,0,100,1,0
74833,202.023603090961,4,1,0,100,1,0
75637,199.338859449493,4,1,0,100,1,0
76430,196.724536467811,4,1,0,100,1,0
77213,194.177899318759,4,1,0,100,1,0
77986,191.696352976885,4,1,0,100,1,0
78749,189.277433398003,4,1,0,100,1,0
79503,186.918799358245,4,1,0,100,1,0
80247,184.618224895768,4,1,0,100,1,0
80982,182.373592303834,4,1,0,100,1,0
81708,180.182885628913,4,1,0,100,1,0
82426,178.044184631819,4,1,0,100,1,0
83135,175.955659173888,4,1,0,100,1,0
83835,173.915563993681,4,1,0,100,1,0
84527,171.922233842892,4,1,0,100,1,0
85211,169.97407895296,4,1,0,100,1,0
85888,168.069580806454,4,1,0,100,1,0
86558,166.207288189587,4,1,0,100,1,0
87220,164.385813504295,4,1,0,100,1,0
87874,162.60382932018,4,1,0,100,1,0
88522,160.860065148326,4,1,0,100,1,0
89163,159.153304420483,4,1,0,100,1,0
89797,157.482381658552,4,1,0,100,1,0
90424,155.846179820517,4,1,0,100,1,0
91045,154.243627810126,4,1,0,100,1,0
91659,152.673698138653,4,1,0,100,1,0
92268,151.135404728019,4,1,0,100,1,0
92870,149.627800845397,4,1,0,100,1,0
93467,148.149977160212,4,1,0,100,1,0
94057,146.701059915158,4,1,0,100,1,0
94642,145.280209203501,4,1,0,100,1,0
95221,143.886617345532,4,1,0,100,1,0
95795,142.51950735757,4,1,0,100,1,1
96364,141.178131507429,4,1,0,100,1,1
96927,139.861769950699,4,1,0,100,1,1
97485,138.569729442603,4,1,0,100,1,1
98038,137.301342120619,4,1,0,100,1,1
98585,136.055964353337,4,1,0,100,1,1
99127,134.832975651412,4,1,0,100,1,1
99665,133.631777636722,4,1,0,100,1,1
100198,132.451793066149,4,1,0,100,1,1
100726,131.292464906618,4,1,0,100,1,1
101249,130.153255458302,4,1,0,100,1,1
101768,129.03364552307,4,1,0,100,1,1
102282,127.933133615497,4,1,0,100,1,1
102792,126.851235213903,4,1,0,100,1,1
103298,125.787482049078,4,1,0,100,1,1
103800,124.741421428497,4,1,0,100,1,1
104297,123.712615593975,4,1,0,100,1,1
104790,122.70064111085,4,1,0,100,1,1
105279,121.705088286899,4,1,0,100,1,1
105764,120.725560619322,4,1,0,100,1,1
106245,119.761674268206,4,1,0,100,1,1
106723,118.813057555025,4,1,0,100,1,1
107197,117.879350484779,4,1,0,100,1,1
107667,116.96020429049,4,1,0,100,1,1
108134,116.055280998849,4,1,0,100,1,1
108597,115.164253015864,4,1,0,100,1,1
109057,114.286802731455,4,1,0,100,1,1
109513,113.422622141986,4,1,0,100,1,1
109965,112.571412489798,4,1,0,100,1,1
110414,111.732883918845,4,1,0,100,1,1
110860,110.906755145611,4,1,0,100,1,1
111302,110.092753144524,4,1,0,100,1,1
111741,109.290612847112,4,1,0,100,1,1
112177,108.500076854221,4,1,0,100,1,1
112610,107.720895160639,4,1,0,100,1,1
113040,106.952824891487,4,1,0,100,1,1
113467,106.195630049823,4,1,0,100,1,1
113891,105.449081274879,4,1,0,100,1,1
114311,104.712955610433,4,1,0,100,1,1
114363,-100,4,1,0,100,0,0

[HitObjects]
32,32,9915,1,12,0:0:0:0:
96,32,10360,1,0,0:0:0:0:
144,32,10803,1,0,0:0:0:0:
160,32,11097,1,0,0:0:0:0:
152,48,11242,1,8,0:0:0:0:
128,88,11533,1,0,0:0:0:0:
224,32,11680,1,8,0:0:0:0:
288,32,11968,1,0,0:0:0:0:
272,40,12112,1,0,0:0:0:0:
352,32,12257,1,8,0:0:0:0:
416,32,12685,1,0,0:0:0:0:
480,32,13111,1,0,0:0:0:0:
480,96,13394,1,8,0:0:0:0:
416,96,13955,1,0,0:0:0:0:
288,96,14511,5,12,0:0:0:0:
224,96,14923,1,0,0:0:0:0:
176,96,15333,1,0,0:0:0:0:
160,96,15606,1,8,0:0:0:0:
128,96,15876,1,8,0:0:0:0:
96,96,16147,1,8,0:0:0:0:
112,96,16280,1,8,0:0:0:0:
32,96,16414,1,0,0:0:0:0:
32,160,16683,5,8,0:0:0:0:
96,160,17081,1,0,0:0:0:0:
160,160,17477,1,0,0:0:0:0:
192,160,17608,1,0,0:0:0:0:
224,160,17740,1,8,0:0:0:0:
288,160,18131,1,0,0:0:0:0:
352,160,18520,1,0,0:0:0:0:
416,160,18779,5,12,0:0:0:0:
480,160,19163,1,0,0:0:0:0:
392,160,19546,1,0,0:0:0:0:
480,224,19800,1,0,0:0:0:0:
480,224,19926,1,8,0:0:0:0:
416,224,20178,1,0,0:0:0:0:
416,224,20304,1,8,0:0:0:0:
387,221,20429,1,0,0:0:0:0:
352,224,20554,1,8,0:0:0:0:
352,252,20679,1,8,0:0:0:0:
331,273,20804,5,8,0:0:0:0:
195,227,21175,1,8,0:0:0:0:
144,198,21422,1,0,0:0:0:0:
160,224,21545,1,0,0:0:0:0:
100,195,21792,1,8,0:0:0:0:
32,224,22157,1,0,0:0:0:0:
76,185,22400,1,0,0:0:0:0:
32,288,22521,1,0,0:0:0:0:
96,288,22764,5,8,0:0:0:0:
123,236,23004,1,8,0:0:0:0:
160,288,23124,1,0,0:0:0:0:
158,229,23363,1,0,0:0:0:0:
224,288,23482,1,8,0:0:0:0:
288,288,23720,1,8,0:0:0:0:
242,251,23956,1,0,0:0:0:0:
352,288,24074,1,8,0:0:0:0:
300,260,24309,1,8,0:0:0:0:
416,288,24426,1,0,0:0:0:0:
480,288,24661,5,0,0:0:0:0:
451,286,24777,1,8,0:0:0:0:
480,352,25009,1,0,0:0:0:0:
453,338,25126,1,8,0:0:0:0:
416,352,25356,1,0,0:0:0:0:
391,335,25472,1,8,0:0:0:0:
352,352,25702,1,0,0:0:0:0:
288,352,25817,1,8,0:0:0:0:
288,352,26046,1,0,0:0:0:0:
259,348,26159,1,0,0:0:0:0:
224,352,26273,1,8,0:0:0:0:
214,324,26386,1,8,0:0:0:0:
160,352,26501,5,0,0:0:0:0:
96,352,26839,1,8,0:0:0:0:
32,352,27175,1,8,0:0:0:0:
32,288,27400,1,0,0:0:0:0:
32,288,27511,1,8,0:0:0:0:
32,224,27733,1,0,0:0:0:0:
32,224,27844,1,8,0:0:0:0:
32,160,28064,1,8,0:0:0:0:
60,155,28174,1,8,0:0:0:0:
32,96,28285,1,0,0:0:0:0:
103,145,28613,1,0,0:0:0:0:
32,32,28722,1,8,0:0:0:0:
96,32,28940,1,0,0:0:0:0:
96,96,29158,1,0,0:0:0:0:
156,34,29481,1,0,0:0:0:0:
96,160,29589,1,8,0:0:0:0:
96,224,29804,1,0,0:0:0:0:
96,288,30019,5,0,0:0:0:0:
96,352,30338,1,8,0:0:0:0:
149,283,30656,1,0,0:0:0:0:
184,237,30867,1,0,0:0:0:0:
220,192,31077,1,0,0:0:0:0:
272,216,31288,1,0,0:0:0:0:
272,216,31392,1,0,0:0:0:0:
272,216,31496,1,8,0:0:0:0:
272,216,31600,1,8,0:0:0:0:
272,216,31704,1,0,0:0:0:0:
160,32,32015,1,0,0:0:0:0:
146,57,32118,1,8,0:0:0:0:
224,32,32324,1,0,0:0:0:0:
224,96,32530,1,0,0:0:0:0:
224,160,32836,1,0,0:0:0:0:
242,137,32938,1,8,0:0:0:0:
224,224,33140,1,0,0:0:0:0:
224,288,33343,5,4,0:0:0:0:
221,201,33645,1,8,0:0:0:0:
186,120,33946,1,0,0:0:0:0:
186,120,34146,1,0,0:0:0:0:
186,120,34245,1,8,0:0:0:0:
186,120,34444,1,0,0:0:0:0:
186,120,34543,1,8,0:0:0:0:
213,126,34641,1,0,0:0:0:0:
241,133,34740,1,8,0:0:0:0:
269,140,34839,1,8,0:0:0:0:
288,96,34937,5,0,0:0:0:0:
200,94,35232,1,0,0:0:0:0:
288,32,35330,1,8,0:0:0:0:
352,32,35524,1,0,0:0:0:0:
352,96,35720,1,0,0:0:0:0:
352,96,35816,1,8,0:0:0:0:
352,160,36010,1,0,0:0:0:0:
352,160,36107,1,8,0:0:0:0:
352,224,36299,1,0,0:0:0:0:
352,288,36492,5,0,0:0:0:0:
286,230,36746,1,0,0:0:0:0:
264,210,36874,1,8,0:0:0:0:
199,151,37127,1,8,0:0:0:0:
199,151,37253,1,0,0:0:0:0:
199,151,37505,1,0,0:0:0:0:
199,151,37631,1,8,0:0:0:0:
117,180,37881,1,0,0:0:0:0:
117,180,38006,1,8,0:0:0:0:
117,180,38254,1,0,0:0:0:0:
117,180,38378,1,8,0:0:0:0:
117,180,38625,1,0,0:0:0:0:
117,180,38749,1,8,0:0:0:0:
117,180,38994,1,0,0:0:0:0:
117,180,39117,1,8,0:0:0:0:
480,96,39299,1,8,0:0:0:0:
480,160,39483,5,4,0:0:0:0:
480,224,39664,1,0,0:0:0:0:
480,224,39755,1,0,0:0:0:0:
480,224,39847,1,8,0:0:0:0:
480,288,40027,1,0,0:0:0:0:
480,352,40208,1,8,0:0:0:0:
424,328,40387,1,0,0:0:0:0:
416,352,40567,1,0,0:0:0:0:
416,288,40745,1,8,0:0:0:0:
416,224,41101,1,0,0:0:0:0:
384,216,41190,1,0,0:0:0:0:
416,160,41279,1,8,0:0:0:0:
360,160,41455,1,0,0:0:0:0:
416,96,41632,1,8,0:0:0:0:
416,32,41983,1,0,0:0:0:0:
352,32,42332,5,4,0:0:0:0:
352,96,42505,1,0,0:0:0:0:
352,96,42592,1,0,0:0:0:0:
352,96,42679,1,8,0:0:0:0:
352,160,42851,1,0,0:0:0:0:
352,224,43024,1,8,0:0:0:0:
296,216,43195,1,0,0:0:0:0:
352,288,43367,1,0,0:0:0:0:
352,352,43537,1,8,0:0:0:0:
288,352,43877,1,0,0:0:0:0:
264,328,43962,1,0,0:0:0:0:
288,288,44047,1,8,0:0:0:0:
240,256,44215,1,0,0:0:0:0:
288,224,44384,1,8,0:0:0:0:
288,160,44719,1,8,0:0:0:0:
288,96,45052,5,4,0:0:0:0:
232,112,45217,1,8,0:0:0:0:
224,32,45548,1,0,0:0:0:0:
176,64,45714,1,8,0:0:0:0:
224,160,46042,1,0,0:0:0:0:
224,160,46205,1,8,0:0:0:0:
224,224,46530,1,8,0:0:0:0:
224,224,46611,1,8,0:0:0:0:
224,224,46692,1,8,0:0:0:0:
224,288,47015,1,8,0:0:0:0:
224,352,47336,5,0,0:0:0:0:
112,336,47655,1,12,0:0:0:0:
160,288,47972,1,0,0:0:0:0:
160,224,48129,1,8,0:0:0:0:
160,160,48445,1,0,0:0:0:0:
160,96,48602,1,8,0:0:0:0:
160,32,48915,1,0,0:0:0:0:
96,32,49070,1,8,0:0:0:0:
96,96,49380,1,8,0:0:0:0:
96,96,49457,1,8,0:0:0:0:
96,96,49535,1,8,0:0:0:0:
96,160,49843,1,8,0:0:0:0:
96,224,50149,5,4,0:0:0:0:
96,288,50301,1,0,0:0:0:0:
96,288,50377,1,0,0:0:0:0:
96,288,50454,1,8,0:0:0:0:
96,352,50605,1,0,0:0:0:0:
160,352,50757,1,8,0:0:0:0:
136,296,50907,1,0,0:0:0:0:
160,288,51059,1,0,0:0:0:0:
160,288,51209,1,8,0:0:0:0:
128,240,51359,1,0,0:0:0:0:
160,224,51508,1,0,0:0:0:0:
136,208,51582,1,0,0:0:0:0:
160,224,51658,1,8,0:0:0:0:
120,184,51806,1,0,0:0:0:0:
160,160,51955,1,8,0:0:0:0:
160,96,52251,1,0,0:0:0:0:
160,32,52545,5,4,0:0:0:0:
224,32,52691,1,0,0:0:0:0:
224,32,52764,1,0,0:0:0:0:
224,32,52838,1,8,0:0:0:0:
224,96,52983,1,0,0:0:0:0:
224,160,53129,1,8,0:0:0:0:
160,160,53273,1,0,0:0:0:0:
224,224,53419,1,0,0:0:0:0:
224,224,53563,1,8,0:0:0:0:
168,200,53707,1,0,0:0:0:0:
224,288,53850,1,0,0:0:0:0:
200,272,53922,1,0,0:0:0:0:
224,288,53994,1,8,0:0:0:0:
184,248,54136,1,0,0:0:0:0:
224,352,54280,1,8,0:0:0:0:
288,352,54564,1,8,0:0:0:0:
288,288,54847,5,0,0:0:0:0:
232,264,54987,1,8,0:0:0:0:
128,216,55269,1,0,0:0:0:0:
72,192,55409,1,8,0:0:0:0:
288,96,55688,1,0,0:0:0:0:
288,96,55826,1,8,0:0:0:0:
288,32,56104,1,8,0:0:0:0:
288,32,56173,1,8,0:0:0:0:
288,32,56243,1,8,0:0:0:0:
352,32,56518,1,8,0:0:0:0:
352,96,56792,1,0,0:0:0:0:
352,160,57065,5,12,0:0:0:0:
352,224,57336,1,0,0:0:0:0:
352,224,57471,1,8,0:0:0:0:
352,288,57740,1,0,0:0:0:0:
352,288,57875,1,8,0:0:0:0:
352,352,58143,1,0,0:0:0:0:
352,352,58276,1,8,0:0:0:0:
416,352,58542,1,8,0:0:0:0:
416,352,58609,1,8,0:0:0:0:
416,352,58675,1,8,0:0:0:0:
416,288,58939,1,8,0:0:0:0:
416,224,59202,5,4,0:0:0:0:
416,160,59464,1,0,0:0:0:0:
416,96,59725,1,0,0:0:0:0:
416,96,59854,1,8,0:0:0:0:
416,32,60114,1,0,0:0:0:0:
416,32,60244,1,8,0:0:0:0:
480,32,60502,1,0,0:0:0:0:
480,96,60758,1,0,0:0:0:0:
480,160,61013,1,8,0:0:0:0:
480,224,61267,5,4,0:0:0:0:
480,288,61520,1,0,0:0:0:0:
480,352,61772,1,0,0:0:0:0:
480,352,61897,1,8,0:0:0:0:
416,352,62148,1,0,0:0:0:0:
416,352,62273,1,8,0:0:0:0:
416,288,62397,1,0,0:0:0:0:
416,288,62522,1,8,0:0:0:0:
416,224,62770,1,8,0:0:0:0:
416,96,63263,5,4,0:0:0:0:
416,32,63508,1,0,0:0:0:0:
352,32,63752,1,0,0:0:0:0:
352,32,63873,1,8,0:0:0:0:
352,96,64115,1,0,0:0:0:0:
352,96,64237,1,8,0:0:0:0:
352,160,64478,1,0,0:0:0:0:
352,224,64718,1,0,0:0:0:0:
352,288,64957,1,8,0:0:0:0:
352,352,65195,5,4,0:0:0:0:
288,352,65432,1,0,0:0:0:0:
288,288,65668,1,0,0:0:0:0:
288,288,65785,1,8,0:0:0:0:
288,224,66020,1,0,0:0:0:0:
288,224,66137,1,8,0:0:0:0:
288,160,66253,1,8,0:0:0:0:
288,160,66370,1,0,0:0:0:0:
232,144,66486,1,0,0:0:0:0:
288,96,66603,1,8,0:0:0:0:
288,32,66835,1,0,0:0:0:0:
224,32,67066,5,4,0:0:0:0:
224,96,67296,1,0,0:0:0:0:
224,160,67525,1,0,0:0:0:0:
224,160,67639,1,8,0:0:0:0:
224,224,67866,1,0,0:0:0:0:
224,224,67980,1,8,0:0:0:0:
168,200,68093,1,8,0:0:0:0:
224,288,68206,1,0,0:0:0:0:
224,352,68432,1,0,0:0:0:0:
160,352,68657,1,8,0:0:0:0:
144,312,68768,1,8,0:0:0:0:
160,288,68881,5,4,0:0:0:0:
160,224,69104,1,0,0:0:0:0:
160,160,69326,1,0,0:0:0:0:
160,160,69436,1,8,0:0:0:0:
160,96,69657,1,8,0:0:0:0:
160,96,69767,1,8,0:0:0:0:
160,96,69877,1,0,0:0:0:0:
160,96,69988,1,8,0:0:0:0:
160,32,70207,1,8,0:0:0:0:
96,32,70425,1,0,0:0:0:0:
96,96,70642,5,4,0:0:0:0:
96,160,70859,1,0,0:0:0:0:
96,224,71075,1,0,0:0:0:0:
96,224,71182,1,8,0:0:0:0:
96,288,71397,1,0,0:0:0:0:
96,288,71504,1,8,0:0:0:0:
128,240,71610,1,8,0:0:0:0:
96,352,71718,1,0,0:0:0:0:
32,352,71931,1,0,0:0:0:0:
32,288,72143,1,8,0:0:0:0:
56,256,72248,1,8,0:0:0:0:
32,224,72354,5,4,0:0:0:0:
32,160,72565,1,0,0:0:0:0:
32,96,72775,1,0,0:0:0:0:
32,96,72879,1,8,0:0:0:0:
32,32,73088,1,0,0:0:0:0:
32,32,73192,1,8,0:0:0:0:
96,32,73295,1,8,0:0:0:0:
96,32,73400,1,0,0:0:0:0:
104,88,73503,1,0,0:0:0:0:
160,32,73607,1,8,0:0:0:0:
160,88,73710,1,8,0:0:0:0:
224,32,73813,1,0,0:0:0:0:
192,80,73915,1,0,0:0:0:0:
288,32,74018,5,0,0:0:0:0:
352,32,74223,1,0,0:0:0:0:
416,32,74427,1,8,0:0:0:0:
480,32,74630,1,0,0:0:0:0:
432,48,74731,1,0,0:0:0:0:
480,96,74833,1,0,0:0:0:0:
416,96,75035,1,0,0:0:0:0:
352,96,75236,1,8,0:0:0:0:
288,96,75437,1,0,0:0:0:0:
240,120,75537,1,0,0:0:0:0:
224,96,75637,1,8,0:0:0:0:
160,96,75836,1,0,0:0:0:0:
96,96,76035,1,8,0:0:0:0:
32,96,76233,1,0,0:0:0:0:
32,160,76430,1,12,0:0:0:0:
96,160,76725,1,12,0:0:0:0:
160,160,77018,1,4,0:0:0:0:
224,160,77213,5,4,0:0:0:0:
288,160,77407,1,0,0:0:0:0:
352,160,77601,1,8,0:0:0:0:
416,160,77794,1,0,0:0:0:0:
360,160,77890,1,0,0:0:0:0:
480,160,77986,1,0,0:0:0:0:
480,224,78178,1,8,0:0:0:0:
416,224,78369,1,8,0:0:0:0:
352,224,78559,1,8,0:0:0:0:
312,192,78653,1,8,0:0:0:0:
288,224,78749,5,0,0:0:0:0:
224,224,78938,1,0,0:0:0:0:
160,224,79127,1,8,0:0:0:0:
96,224,79315,1,0,0:0:0:0:
32,224,79503,1,8,0:0:0:0:
72,112,79690,1,8,0:0:0:0:
32,288,79783,1,0,0:0:0:0:
96,192,79968,1,0,0:0:0:0:
96,288,80062,1,8,0:0:0:0:
160,288,80247,5,4,0:0:0:0:
224,288,80432,1,0,0:0:0:0:
288,288,80616,1,8,0:0:0:0:
352,288,80799,1,0,0:0:0:0:
312,272,80890,1,0,0:0:0:0:
416,288,80982,1,0,0:0:0:0:
480,288,81164,1,8,0:0:0:0:
480,352,81346,1,8,0:0:0:0:
416,352,81527,1,8,0:0:0:0:
376,328,81617,1,8,0:0:0:0:
352,352,81708,1,0,0:0:0:0:
288,352,81888,1,0,0:0:0:0:
224,352,82068,1,8,0:0:0:0:
160,352,82247,1,0,0:0:0:0:
112,248,82426,1,8,0:0:0:0:
72,136,82604,1,8,0:0:0:0:
88,192,82692,1,8,0:0:0:0:
40,208,82870,1,8,0:0:0:0:
96,288,82959,1,0,0:0:0:0:
160,288,83135,5,4,0:0:0:0:
224,288,83311,1,0,0:0:0:0:
288,288,83486,1,8,0:0:0:0:
352,288,83661,1,0,0:0:0:0:
320,264,83748,1,0,0:0:0:0:
416,288,83835,1,0,0:0:0:0:
480,288,84009,1,0,0:0:0:0:
480,224,84182,1,8,0:0:0:0:
416,224,84355,1,8,0:0:0:0:
376,208,84441,1,8,0:0:0:0:
352,224,84527,1,0,0:0:0:0:
288,224,84699,1,0,0:0:0:0:
224,224,84870,1,8,0:0:0:0:
160,224,85041,1,0,0:0:0:0:
96,224,85211,1,0,0:0:0:0:
64,176,85295,1,8,0:0:0:0:
32,224,85381,1,8,0:0:0:0:
32,224,85465,1,0,0:0:0:0:
32,160,85634,1,0,0:0:0:0:
32,160,85719,1,8,0:0:0:0:
32,96,85888,5,4,0:0:0:0:
32,32,86056,1,0,0:0:0:0:
32,32,86224,1,8,0:0:0:0:
96,32,86391,1,0,0:0:0:0:
96,96,86724,1,0,0:0:0:0:
96,96,86890,1,8,0:0:0:0:
160,96,87055,1,0,0:0:0:0:
8,224,87384,1,0,0:0:0:0:
160,32,87548,1,8,0:0:0:0:
224,32,87711,1,0,0:0:0:0:
224,96,87874,1,4,0:0:0:0:
288,96,88118,1,12,0:0:0:0:
288,32,88361,1,4,0:0:0:0:
352,32,88522,5,4,0:0:0:0:
352,96,88683,1,0,0:0:0:0:
352,96,88843,1,8,0:0:0:0:
416,96,89003,1,0,0:0:0:0:
416,32,89322,1,0,0:0:0:0:
416,32,89481,1,8,0:0:0:0:
480,32,89639,1,0,0:0:0:0:
480,96,89954,1,0,0:0:0:0:
480,96,90111,1,8,0:0:0:0:
480,160,90268,1,8,0:0:0:0:
416,160,90424,1,8,0:0:0:0:
360,136,90501,1,8,0:0:0:0:
416,224,90580,1,8,0:0:0:0:
416,224,90657,1,8,0:0:0:0:
368,192,90735,1,0,0:0:0:0:
480,224,90890,1,8,0:0:0:0:
480,288,91045,5,4,0:0:0:0:
480,352,91199,1,0,0:0:0:0:
480,352,91353,1,8,0:0:0:0:
416,288,91506,1,0,0:0:0:0:
416,352,91812,1,0,0:0:0:0:
416,352,91964,1,8,0:0:0:0:
352,352,92116,1,0,0:0:0:0:
352,288,92419,1,0,0:0:0:0:
352,288,92570,1,8,0:0:0:0:
352,224,92720,1,8,0:0:0:0:
352,224,92870,1,12,0:0:0:0:
352,160,93094,1,12,0:0:0:0:
416,160,93318,1,4,0:0:0:0:
416,224,93467,5,4,0:0:0:0:
480,224,93615,1,0,0:0:0:0:
480,224,93763,1,8,0:0:0:0:
480,160,93910,1,0,0:0:0:0:
480,96,94204,1,0,0:0:0:0:
480,96,94350,1,8,0:0:0:0:
480,32,94495,1,8,0:0:0:0:
416,32,94787,1,0,0:0:0:0:
416,32,94932,1,8,0:0:0:0:
416,96,95077,1,0,0:0:0:0:
416,96,95221,1,12,0:0:0:0:
352,32,95365,1,12,0:0:0:0:
240,72,95508,1,4,0:0:0:0:
128,112,95652,1,12,0:0:0:0:
288,96,95795,5,12,0:0:0:0:
352,96,95938,1,8,0:0:0:0:
352,160,96080,1,0,0:0:0:0:
288,160,96222,1,8,0:0:0:0:
288,224,96505,1,0,0:0:0:0:
352,224,96787,1,8,0:0:0:0:
240,192,96927,1,8,0:0:0:0:
416,224,97066,1,8,0:0:0:0:
416,224,97207,1,0,0:0:0:0:
416,224,97346,1,8,0:0:0:0:
192,176,97623,1,8,0:0:0:0:
80,160,97762,1,0,0:0:0:0:
128,288,98038,5,12,0:0:0:0:
128,288,98175,1,8,0:0:0:0:
128,288,98312,1,0,0:0:0:0:
128,288,98449,1,8,0:0:0:0:
64,288,98721,1,0,0:0:0:0:
0,288,98992,1,8,0:0:0:0:
72,200,99127,1,8,0:0:0:0:
0,352,99262,1,8,0:0:0:0:
64,352,99397,1,0,0:0:0:0:
128,352,99531,1,0,0:0:0:0:
152,240,99664,1,8,0:0:0:0:
168,128,99798,1,0,0:0:0:0:
168,128,99932,1,8,0:0:0:0:
480,288,100198,5,12,0:0:0:0:
416,288,100330,1,8,0:0:0:0:
352,288,100462,1,0,0:0:0:0:
288,288,100594,1,8,0:0:0:0:
224,288,100857,1,0,0:0:0:0:
160,288,101119,1,8,0:0:0:0:
176,176,101249,1,8,0:0:0:0:
96,288,101379,1,8,0:0:0:0:
32,288,101508,1,0,0:0:0:0:
32,224,101639,1,8,0:0:0:0:
32,224,101897,1,8,0:0:0:0:
56,112,102025,1,0,0:0:0:0:
480,224,102282,5,12,0:0:0:0:
480,160,102410,1,8,0:0:0:0:
480,96,102538,1,0,0:0:0:0:
480,32,102665,1,8,0:0:0:0:
416,32,102919,1,0,0:0:0:0:
416,96,103172,1,8,0:0:0:0:
304,112,103298,1,8,0:0:0:0:
416,160,103423,1,8,0:0:0:0:
416,224,103550,1,0,0:0:0:0:
416,224,103675,1,8,0:0:0:0:
312,168,103800,1,8,0:0:0:0:
216,104,103924,1,0,0:0:0:0:
112,48,104049,1,8,0:0:0:0:
32,224,104297,5,12,0:0:0:0:
32,160,104421,1,8,0:0:0:0:
32,96,104544,1,0,0:0:0:0:
32,32,104667,1,8,0:0:0:0:
96,32,104913,1,0,0:0:0:0:
96,96,105157,1,8,0:0:0:0:
168,184,105278,1,8,0:0:0:0:
96,160,105401,1,8,0:0:0:0:
96,192,105522,1,0,0:0:0:0:
96,224,105643,1,8,0:0:0:0:
128,112,105763,1,0,0:0:0:0:
216,176,105884,1,8,0:0:0:0:
72,136,106005,1,0,0:0:0:0:
480,224,106245,5,12,0:0:0:0:
480,288,106365,1,8,0:0:0:0:
480,352,106485,1,0,0:0:0:0:
416,352,106604,1,8,0:0:0:0:
416,288,106842,1,0,0:0:0:0:
352,288,107079,1,8,0:0:0:0:
248,232,107197,1,8,0:0:0:0:
352,352,107315,1,8,0:0:0:0:
288,352,107433,1,0,0:0:0:0:
288,288,107550,1,8,0:0:0:0:
192,224,107667,1,8,0:0:0:0:
288,176,107783,1,0,0:0:0:0:
88,168,107900,1,8,0:0:0:0:
32,96,108134,5,12,0:0:0:0:
32,32,108250,1,8,0:0:0:0:
96,32,108366,1,0,0:0:0:0:
96,96,108482,1,8,0:0:0:0:
160,96,108712,1,0,0:0:0:0:
160,32,108942,1,8,0:0:0:0:
120,136,109056,1,8,0:0:0:0:
224,32,109171,1,8,0:0:0:0:
224,96,109285,1,0,0:0:0:0:
224,96,109399,1,8,0:0:0:0:
120,144,109512,1,0,0:0:0:0:
176,232,109626,1,8,0:0:0:0:
16,200,109739,1,0,0:0:0:0:
480,160,109965,5,12,0:0:0:0:
480,224,110078,1,8,0:0:0:0:
480,288,110190,1,0,0:0:0:0:
480,352,110302,1,8,0:0:0:0:
416,352,110526,1,0,0:0:0:0:
416,288,110749,1,8,0:0:0:0:
320,216,110860,1,8,0:0:0:0:
416,224,110971,1,8,0:0:0:0:
416,160,111082,1,0,0:0:0:0:
352,160,111192,1,8,0:0:0:0:
240,160,111302,1,8,0:0:0:0:
128,152,111412,1,0,0:0:0:0:
128,152,111521,1,8,0:0:0:0:
128,352,111741,5,8,0:0:0:0:
96,352,111850,1,8,0:0:0:0:
64,352,111959,1,8,0:0:0:0:
32,352,112068,1,8,0:0:0:0:
24,240,112176,2,0,B|376:208|376:208,1,315
0,288,112610,1,8,0:0:0:0:
32,288,112718,1,8,0:0:0:0:
64,288,112826,1,8,0:0:0:0:
96,288,112933,1,8,0:0:0:0:
32,192,113040,2,0,B|352:176,1,315
128,224,113467,1,8,0:0:0:0:
160,224,113573,1,8,0:0:0:0:
192,224,113679,1,8,0:0:0:0:
224,224,113785,1,8,0:0:0:0:
152,216,113890,2,0,B|456:24,1,315
288,112,114310,1,4,0:0:0:0:
