osu file format v14

[General]
AudioFilename: deltaMAX.mp3
AudioLeadIn: 1000
PreviewTime: 50149
Countdown: 0
SampleSet: None
StackLeniency: 0.7
Mode: 0
LetterboxInBreaks: 1
WidescreenStoryboard: 0

[Editor]
Bookmarks: 11850,28439,41420,52084,61137,75952,87824,97731,106231,113676,116246
DistanceSpacing: 1
BeatDivisor: 4
GridSize: 4
TimelineZoom: 1

[Metadata]
Title:deltaMAX
TitleUnicode:
Artist:DM Ashura
ArtistUnicode:
Creator:Sprosive
Version:ReMix
Source:DDR Forever
Tags:Dance Dance Revolution Universe 3 stepmania ignorethis lzy Doomsday tsuka Frank7654321
BeatmapID:790098
BeatmapSetID:359335

[Difficulty]
HPDrainRate:5
CircleSize:5
OverallDifficulty:6
ApproachRate:8
SliderMultiplier:1.4
SliderTickRate:0.5

[Events]
//Background and Video events
0,0,"deltaMAX-bg.png",0,0
Video,350,"deltaMAX.avi"
//Break Periods
//Storyboard Layer 0 (Background)
//Storyboard Layer 1 (Fail)
//Storyboard Layer 2 (Pass)
//Storyboard Layer 3 (Foreground)
Sprite,Foreground,Centre,"nothing.png",320,240 F,0,125410,,0
//Storyboard Sound Samples

[TimingPoints]
315,600,4,1,0,80,1,0
315,-200,4,1,0,80,0,0
915,-100,4,1,0,0,0,0
7515,-100,4,1,0,80,0,0
8115,-100,4,1,0,40,0,0
9915,594.088816278034,4,1,0,40,1,0
10509,588.264130594637,4,1,0,40,1,0
11097,582.552551094713,4,1,0,40,1,0
11680,576.950814943026,4,1,0,40,1,0
12257,571.455783608743,4,1,0,40,1,0
12828,566.064437001745,4,1,0,40,1,0
13394,560.773867937754,4,1,0,40,1,0
13955,555.581276910968,4,1,0,40,1,0
14511,550.483967154457,4,1,0,40,1,0
15061,545.479339969999,4,1,0,40,1,0
15606,540.564890310374,4,1,0,40,1,0
16147,535.73820259833,4,1,0,40,1,0
16683,530.996946767556,4,1,0,40,1,0
17214,526.33887451204,4,1,0,40,1,0
17740,521.761815731119,4,1,0,40,1,0
18262,517.263675158412,4,1,0,40,1,0
18779,512.84242916364,4,1,0,40,1,0
19292,508.496122717064,4,1,0,40,1,0
19800,504.222866506996,4,1,0,40,1,0
20304,500.020834201425,4,1,0,40,1,0
20804,495.888259845448,4,1,0,40,1,0
21300,491.823435386696,4,1,0,40,1,0
21792,487.824708321476,4,1,0,40,1,0
22280,483.890479454817,4,1,0,40,1,0
22764,480.019200768031,4,1,0,40,1,0
23244,476.209373387833,4,1,0,40,1,0
23720,472.459545651404,4,1,0,40,1,0
24192,468.768311262159,4,1,0,40,1,0
24661,465.1343075313,4,1,0,40,1,0
25126,461.556213700527,4,1,0,40,1,0
25588,458.032749341578,4,1,0,40,1,0
26046,454.562672828516,4,1,0,40,1,0
26501,451.144779878943,4,1,0,45,1,0
26952,447.777902160528,4,1,0,45,1,0
27400,444.46090595948,4,1,0,45,1,0
27844,441.192690907754,4,1,0,45,1,0
28285,437.972188766013,4,1,0,45,1,0
28723,434.798362259502,4,1,0,45,1,0
29158,431.670203964171,4,1,0,45,1,0
29590,428.586735240544,4,1,0,45,1,0
30019,425.547005212951,4,1,0,45,1,0
30445,422.550089791894,4,1,0,45,1,0
30868,419.595090737438,4,1,0,45,1,0
31288,416.681134761624,4,1,0,45,1,0
31705,413.807372668023,4,1,0,45,1,0
32119,410.972978526662,4,1,0,45,1,0
32530,408.177148882615,4,1,0,45,1,0
32938,405.419101996689,4,1,0,45,1,0
33343,402.698077116682,4,1,0,45,1,0
33746,400.013333777793,4,1,0,45,1,0
34146,397.364151130832,4,1,0,45,1,0
34543,394.749827296951,4,1,0,45,1,0
34938,392.169678747671,4,1,0,45,1,0
35330,389.623039709081,4,1,0,45,1,0
35720,387.109261589084,4,1,0,45,1,0
36107,384.62771242668,4,1,0,45,1,0
36492,382.177776362305,4,1,0,45,1,0
36874,379.758853128264,4,1,0,45,1,0
37254,377.370357558414,4,1,0,45,1,0
37631,375.011719116222,4,1,0,45,1,0
38006,372.682381440417,4,1,0,45,1,0
38379,370.381801907466,4,1,0,45,1,0
38749,368.10945121016,4,1,0,45,1,0
39117,365.864812951614,4,1,0,45,1,0
39483,363.647383254038,4,1,0,50,1,0
39847,361.456670381638,4,1,0,50,1,0
40208,359.292194377077,4,1,0,50,1,0
40567,357.153486710914,4,1,0,50,1,0
40924,355.040089943489,4,1,0,50,1,0
41279,352.951557398747,4,1,0,50,1,0
41632,350.887452849499,4,1,0,50,1,0
41983,348.847350213669,4,1,0,50,1,0
42332,346.830833261077,4,1,0,50,1,0
42679,344.837495330326,4,1,0,50,1,0
43024,342.866939055402,4,1,0,50,1,0
43367,340.918776101594,4,1,0,50,1,0
43708,338.992626910365,4,1,0,50,1,0
44047,337.088120452822,4,1,0,50,1,0
44384,335.204893991452,4,1,0,50,1,0
44719,333.342592849801,4,1,0,50,1,0
45052,331.500870189784,4,1,0,50,1,0
45384,329.679386796341,4,1,0,50,1,0
45714,327.877810869149,4,1,0,50,1,0
46042,326.095817821136,4,1,0,50,1,0
46368,324.333090083516,4,1,0,50,1,0
46692,322.589316917121,4,1,0,50,1,0
47015,320.864194229792,4,1,0,50,1,0
47336,319.157424399585,4,1,0,50,1,0
47655,317.468716103601,4,1,0,50,1,0
47972,315.797784152215,4,1,0,50,1,0
48288,314.144349328516,4,1,0,50,1,0
48602,312.508138232766,4,1,0,50,1,0
48915,310.888883131687,4,1,0,50,1,0
49226,309.286321812418,4,1,0,50,1,0
49535,307.70019744096,4,1,0,50,1,0
49843,306.13025842496,4,1,0,50,1,0
50149,304.576258280667,4,1,0,55,1,0
50454,303.037955503927,4,2,0,55,1,0
50757,301.515113445061,4,1,0,55,1,0
51059,300.007500187505,4,2,0,55,1,0
51359,298.51488843006,4,1,0,55,1,0
51658,297.037055372658,4,2,0,55,1,0
51955,295.573782605483,4,1,0,55,1,0
52251,294.124856001373,4,2,0,55,1,0
52545,292.690065611356,4,1,0,55,1,0
52838,291.269205563242,4,2,0,55,1,0
53129,289.862073963139,4,1,0,55,1,0
53419,288.468472799827,4,2,0,55,1,0
53707,287.088207851862,4,1,0,55,1,0
53994,285.721088597348,4,2,0,55,1,0
54280,284.366928126259,4,1,0,55,1,0
54564,283.025543055261,4,2,0,55,1,0
54847,281.696753444917,4,1,0,55,1,0
55129,280.380382719222,4,2,0,55,1,0
55409,279.076257587386,4,1,0,55,1,0
55688,277.784207967777,4,2,0,55,1,0
55966,276.504066913984,4,1,0,55,1,0
56243,275.235670542902,4,2,0,55,1,0
56518,273.978857964794,4,1,0,55,1,0
56792,272.733471215255,4,2,0,55,1,0
57065,271.499355189031,4,1,0,55,1,0
57336,270.276357575621,4,2,0,55,1,0
57606,269.06432879661,4,1,0,55,1,0
57875,267.863121944686,4,1,0,55,1,0
58143,266.672592724283,4,2,0,55,1,0
58410,265.492599393792,4,1,0,55,1,0
58675,264.323002709311,4,1,0,55,1,0
58939,263.163665869866,4,1,0,55,1,0
59202,262.014454464071,4,1,0,60,1,0
59464,260.875236418183,4,1,0,60,1,0
59725,259.745881945497,4,1,0,60,1,0
59839,-200,4,1,0,60,0,0
59985,258.626263497058,4,1,0,60,1,0
60244,257.516255713642,4,1,0,60,1,0
60502,256.415735378961,4,1,0,60,1,0
60758,255.324581374072,4,1,0,60,1,0
61013,254.242674632937,4,1,0,60,1,0
61267,253.169898099116,4,1,0,60,1,0
61520,252.106136683544,4,1,0,60,1,0
61772,251.051277223373,4,1,0,60,1,0
61882,-200,4,1,0,60,0,0
62023,250.005208441843,4,1,0,60,1,0
62273,248.967820909147,4,1,0,60,1,0
62522,247.939007004277,4,1,0,60,1,0
62770,246.918660877796,4,1,0,60,1,0
63017,245.906678415541,4,1,0,60,1,0
63263,244.902957203208,4,1,0,60,1,0
63508,243.907396491799,4,1,0,60,1,0
63752,242.91989716391,4,1,0,60,1,0
63858,-200,4,1,0,60,0,0
63995,241.940361700841,4,1,0,60,1,0
64237,240.968694150485,4,1,0,60,1,0
64478,240.004800096002,4,1,0,60,1,0
64718,239.048586625232,4,1,0,60,1,0
64957,238.099962300839,4,1,0,60,1,0
65195,237.158837131169,4,1,0,60,1,0
65432,236.225122541782,4,1,0,60,1,0
65668,235.298731347673,4,1,0,60,1,0
65770,-200,4,1,0,60,0,0
65903,234.379577726127,4,1,0,60,1,0
66137,233.467577190218,4,1,0,60,1,0
66370,232.562646562918,4,1,0,60,1,0
66603,231.664703951814,4,1,0,60,1,0
66835,230.773668724399,4,1,0,60,1,0
67066,229.889461483936,4,1,0,60,1,0
67296,229.012004045879,4,1,0,60,1,0
67525,228.141219414818,4,1,0,60,1,0
67753,227.277031761965,4,1,0,60,1,0
67980,226.41936640314,4,1,0,60,1,0
68206,225.568149777251,4,1,0,60,1,0
68432,224.72330942527,4,1,0,60,1,0
68657,223.884773969664,4,1,0,60,1,0
68881,223.052473094295,4,1,0,60,1,0
69104,222.226337524769,4,1,0,60,1,0
69326,221.406299009207,4,1,0,60,1,0
69547,220.592290299454,4,1,0,60,1,0
69768,219.784245132695,4,1,0,60,1,0
69988,218.982098213471,4,1,0,60,1,0
70207,218.185785196094,4,1,0,60,1,0
70425,217.39524266744,4,1,0,60,1,0
70642,216.610408130111,4,1,0,60,1,0
70859,215.831219985971,4,1,0,60,1,0
71075,215.057617520027,4,1,0,60,1,0
71290,214.289540884659,4,1,0,60,1,0
71504,213.526931084183,4,1,0,60,1,0
71718,212.769729959751,4,1,0,60,1,0
71931,212.017880174561,4,1,0,60,1,0
72143,211.271325199387,4,1,0,60,1,0
72354,210.530009298409,4,1,0,60,1,0
72565,209.793877515341,4,1,0,60,1,0
72775,209.062875659855,4,1,0,60,1,0
72984,208.336950294276,4,1,0,60,1,0
73192,207.616048720566,4,1,0,60,1,0
73400,206.900118967568,4,1,0,60,1,0
73607,206.189109778519,4,1,0,60,1,0
73813,205.482970598812,4,1,0,60,1,0
74018,204.78165156402,4,1,0,65,1,0
74223,204.085103488155,4,1,1,65,1,0
74427,203.393277852167,4,1,1,65,1,0
74630,202.706126792682,4,1,1,65,1,0
74833,202.023603090961,4,1,1,65,1,0
75035,201.345660162083,4,1,1,65,1,0
75236,200.672252044349,4,1,1,65,1,0
75437,200.00333338889,4,1,1,65,1,0
75637,199.338859449493,4,1,1,65,1,0
75836,198.678786072617,4,1,1,65,1,0
76035,198.023069687619,4,1,1,65,1,0
76233,197.371667297159,4,1,1,65,1,0
76430,196.724536467811,4,2,0,65,1,0
76627,196.081635320839,4,2,0,65,1,0
76823,195.442922523168,4,2,0,65,1,0
77018,194.808357278527,4,2,0,65,1,0
77213,194.177899318759,4,1,1,65,1,0
77407,193.551508895305,4,1,1,65,1,0
77601,192.929146770848,4,1,1,65,1,0
77794,192.310774211125,4,1,1,65,1,0
77986,191.696352976885,4,1,1,65,1,0
78178,191.085845316008,4,1,1,65,1,0
78369,190.479213955777,4,1,1,65,1,0
78559,189.876422095286,4,1,1,65,1,0
78749,189.277433398003,4,1,1,65,1,0
78938,188.682211984465,4,1,1,65,1,0
79127,188.090722425116,4,1,1,65,1,0
79315,187.502929733277,4,1,1,65,1,0
79503,186.918799358245,4,2,0,65,1,0
79690,186.338297178528,4,2,0,65,1,0
79876,185.761389495193,4,2,0,65,1,0
80062,185.188043025355,4,2,0,65,1,0
80247,184.618224895768,4,1,1,65,1,0
80432,184.051902636544,4,1,1,65,1,0
80616,183.489044174987,4,1,1,65,1,0
80799,182.92961782954,4,1,1,65,1,0
80982,182.373592303834,4,1,1,65,1,0
81164,181.820936680859,4,1,1,65,1,0
81346,181.271620417227,4,1,1,65,1,0
81527,180.72561333755,4,1,1,65,1,0
81708,180.182885628913,4,1,1,65,1,0
81888,179.643407835447,4,1,1,65,1,0
82068,179.107150852998,4,1,1,65,1,0
82247,178.574085923898,4,1,1,65,1,0
82426,178.044184631819,4,2,0,65,1,0
82604,177.517418896729,4,2,0,65,1,0
82782,176.993760969926,4,2,0,65,1,0
82959,176.473183429168,4,2,0,65,1,0
83135,175.955659173888,4,1,1,65,1,0
83311,175.441161420489,4,1,1,65,1,0
83486,174.929663697722,4,1,1,65,1,0
83661,174.421139842149,4,1,1,65,1,0
83835,173.915563993681,4,1,1,65,1,0
84009,173.412910591194,4,1,1,65,1,0
84182,172.913154368219,4,1,1,65,1,0
84355,172.416270348712,4,1,1,65,1,0
84527,171.922233842892,4,1,1,65,1,0
84699,171.431020443149,4,1,1,65,1,0
84870,170.942606020029,4,1,1,65,1,0
85041,170.456966718277,4,1,1,65,1,0
85211,169.97407895296,4,1,1,65,1,0
85381,169.493919405641,4,1,1,65,1,0
85550,169.016465020634,4,1,1,65,1,0
85719,168.541693001306,4,1,1,65,1,0
85888,168.069580806454,4,1,1,70,1,0
86056,167.600106146734,4,1,1,70,1,0
86224,167.133246981156,4,1,1,70,1,0
86391,166.668981513632,4,1,1,70,1,0
86558,166.207288189587,4,1,1,70,1,0
86724,165.74814569262,4,1,1,70,1,0
86890,165.291532941225,4,1,1,70,1,0
87055,164.837429085564,4,1,1,70,1,0
87220,164.385813504295,4,1,1,70,1,0
87384,163.936665801445,4,1,1,70,1,0
87548,163.489965803349,4,1,1,70,1,0
87711,163.045693555619,4,1,1,70,1,0
87874,162.60382932018,4,1,1,70,1,0
88037,162.164353572346,4,1,1,70,1,0
88199,161.727246997938,4,1,1,70,1,0
88361,161.292490490464,4,1,1,70,1,0
88522,160.860065148326,4,1,1,70,1,0
88683,160.429952272089,4,1,1,70,1,0
88843,160.002133361778,4,1,1,70,1,0
89003,159.57659011423,4,1,1,70,1,0
89163,159.153304420483,4,1,1,70,1,0
89322,158.732258363206,4,1,1,70,1,0
89481,158.313434214172,4,1,1,70,1,0
89639,157.896814431769,4,1,1,70,1,0
89797,157.482381658552,4,1,1,70,1,0
89954,157.070118718831,4,1,1,70,1,0
90111,156.6600086163,4,1,1,70,1,0
90268,156.2520345317,4,1,1,70,1,0
90424,155.846179820517,4,1,1,70,1,0
90580,155.442428010726,4,1,1,70,1,0
90735,155.040762800553,4,1,1,70,1,0
90890,154.641168056289,4,1,1,70,1,0
91045,154.243627810126,4,1,1,70,1,0
91199,153.848126258029,4,1,1,70,1,0
91353,153.454647757644,4,1,1,70,1,0
91506,153.063176826235,4,1,1,70,1,0
91659,152.673698138653,4,1,1,70,1,0
91812,152.286196525337,4,1,1,70,1,0
91964,151.900656970341,4,1,1,70,1,0
92116,151.517064609402,4,1,1,70,1,0
92268,151.135404728019,4,1,1,70,1,0
92419,150.755662759582,4,1,1,70,1,0
92570,150.377824283512,4,1,1,70,1,0
92720,150.001875023438,4,1,1,70,1,0
92870,149.627800845397,4,1,1,70,1,0
93020,149.255587756067,4,1,1,70,1,0
93169,148.885221901016,4,1,1,70,1,0
93318,148.51668956299,4,1,1,70,1,0
93467,148.149977160212,4,1,1,70,1,0
93615,147.78507124472,4,1,1,70,1,0
93763,147.421958500719,4,1,1,70,1,0
93910,147.060625742963,4,1,1,70,1,0
94057,146.701059915158,4,1,1,70,1,0
94204,146.343248088391,4,1,1,70,1,0
94350,145.98717745958,4,1,1,70,1,0
94496,145.632835349944,4,1,1,70,1,0
94642,145.280209203501,4,1,1,70,1,0
94787,144.929286585587,4,1,1,70,1,0
94932,144.580055181388,4,1,1,70,1,0
95077,144.232502794505,4,1,1,70,1,0
95221,143.886617345532,4,1,1,70,1,0
95365,143.542386870656,4,1,1,70,1,0
95509,143.199799520281,4,1,1,70,1,0
95652,142.858843557661,4,1,1,70,1,0
95795,142.51950735757,4,1,1,75,1,0
95938,142.181779404969,4,1,1,75,1,0
96080,141.845648293715,4,1,1,75,1,0
96222,141.511102725268,4,1,1,75,1,0
96364,141.178131507429,4,1,1,75,1,0
96505,140.846723553093,4,1,1,75,1,0
96646,140.516867879015,4,1,1,75,1,0
96787,140.188553604598,4,1,1,75,1,0
96927,139.861769950699,4,1,1,75,1,0
97067,139.536506238445,4,1,1,75,1,0
97207,139.212751888073,4,1,1,75,1,0
97346,138.890496417783,4,1,1,75,1,0
97485,138.569729442603,4,1,1,75,1,0
97624,138.25044067328,4,1,1,75,1,0
97762,137.932619915171,4,1,1,75,1,0
97900,137.616257067168,4,1,1,75,1,0
98038,137.301342120619,4,1,1,75,1,0
98175,136.987865158278,4,1,1,75,1,0
98312,136.675816353261,4,1,1,75,1,0
98449,136.365185968022,4,1,1,75,1,0
98585,136.055964353337,4,1,1,75,1,0
98721,135.748141947307,4,1,1,75,1,0
98857,135.441709274371,4,1,1,75,1,0
98992,135.136656944335,4,1,1,75,1,0
99127,134.832975651412,4,1,1,75,1,0
99262,134.530656173275,4,1,1,75,1,0
99397,134.229689370127,4,1,1,75,1,0
99531,133.930066183774,4,1,1,75,1,0
99665,133.631777636722,4,1,1,75,1,0
99799,133.334814831276,4,1,1,75,1,0
99932,133.039168948658,4,1,1,75,1,0
100065,132.744831248133,4,1,1,75,1,0
100198,132.451793066149,4,1,1,75,1,0
100330,132.160045815483,4,1,1,75,1,0
100462,131.869580984406,4,1,1,75,1,0
100594,131.580390135857,4,1,1,75,1,0
100726,131.292464906618,4,1,1,75,1,0
100857,131.005797006518,4,1,1,75,1,0
100988,130.720378217628,4,1,1,75,1,0
101119,130.436200393483,4,1,1,75,1,0
101249,130.153255458302,4,1,1,75,1,0
101379,129.871535406227,4,1,1,75,1,0
101509,129.591032300565,4,1,1,75,1,0
101639,129.311738273042,4,1,1,75,1,0
101768,129.03364552307,4,1,1,75,1,0
101897,128.756746317021,4,1,1,75,1,0
102026,128.481032987505,4,1,1,75,1,0
102154,128.20649793267,4,1,1,75,1,0
102282,127.933133615497,4,1,1,75,1,0
102410,127.660932563112,4,1,1,75,1,0
102538,127.389887366108,4,1,1,75,1,0
102665,127.119990677867,4,1,1,75,1,0
102792,126.851235213903,4,1,1,75,1,0
102919,126.5836137512,4,1,1,75,1,0
103046,126.31711912757,4,1,1,75,1,0
103172,126.051744241011,4,1,1,75,1,0
103298,125.787482049078,4,1,1,75,1,0
103424,125.524325568259,4,1,1,75,1,0
103550,125.26226787336,4,1,1,75,1,0
103675,125.001302096897,4,1,1,75,1,0
103800,124.741421428497,4,1,1,75,1,0
103925,124.482619114306,4,1,1,75,1,0
104049,124.224888456402,4,1,1,75,1,0
104173,123.968222812219,4,1,1,75,1,0
104297,123.712615593975,4,1,1,80,1,0
104421,123.45806026811,4,1,1,80,1,0
104544,123.204550354726,4,1,1,80,1,0
104667,122.952079427043,4,1,1,80,1,0
104790,122.70064111085,4,1,1,80,1,0
104913,122.45022908397,4,1,1,80,1,0
105035,122.200837075734,4,1,1,80,1,0
105157,121.952458866452,4,1,1,80,1,0
105279,121.705088286899,4,1,1,80,1,0
105401,121.458719217806,4,1,1,80,1,0
105522,121.213345589349,4,1,1,80,1,0
105643,120.968961380659,4,1,1,80,1,0
105764,120.725560619322,4,1,1,80,1,0
105885,120.483137380897,4,1,1,80,1,0
106005,120.241685788435,4,1,1,80,1,0
106125,120.001200012,4,1,1,80,1,0
106245,119.761674268206,4,1,1,80,1,0
106365,119.523102819749,4,1,1,80,1,0
106485,119.28547997495,4,1,1,80,1,0
106604,119.048800087302,4,1,1,80,1,0
106723,118.813057555025,4,1,1,80,1,0
106842,118.578246820621,4,1,1,80,1,0
106961,118.344362370438,4,1,1,80,1,0
107079,118.11139873424,4,1,1,80,1,0
107197,117.879350484779,4,1,1,80,1,0
107315,117.648212237375,4,1,1,80,1,0
107433,117.417978649498,4,1,1,80,1,0
107550,117.188644420356,4,1,1,80,1,0
107667,116.96020429049,4,1,1,80,1,0
107784,116.732653041372,4,1,1,80,1,0
107901,116.505985495005,4,1,1,80,1,0
108018,116.280196513532,4,1,1,80,1,0
108134,116.055280998849,4,1,1,80,1,0
108250,115.831233892219,4,1,1,80,1,0
108366,115.608050173894,4,1,1,80,1,0
108482,115.385724862739,4,1,1,80,1,0
108597,115.164253015864,4,1,1,80,1,0
108712,114.943629728254,4,1,1,80,1,0
108827,114.72385013241,4,1,1,80,1,0
108942,114.50490939799,4,1,1,80,1,0
109057,114.286802731455,4,1,1,80,1,0
109171,114.069525375716,4,1,1,80,1,0
109285,113.853072609797,4,1,1,80,1,0
109399,113.637439748482,4,1,1,80,1,0
109513,113.422622141986,4,1,1,80,1,0
109626,113.208615175615,4,1,1,80,1,0
109739,112.995414269438,4,1,1,80,1,0
109852,112.783014877959,4,1,1,80,1,0
109965,112.571412489798,4,1,1,80,1,0
110078,112.360602627365,4,1,1,80,1,0
110190,112.15058084655,4,1,1,80,1,0
110302,111.941342736406,4,1,1,80,1,0
110414,111.732883918845,4,1,1,80,1,0
110526,111.525200048328,4,1,1,80,1,0
110638,111.318286811566,4,1,1,80,1,0
110749,111.112139927222,4,1,1,80,1,0
110860,110.906755145611,4,1,1,80,1,0
110971,110.702128248416,4,1,1,80,1,0
111082,110.498255048389,4,1,1,80,1,0
111192,110.295131389075,4,1,1,80,1,0
111302,110.092753144524,4,1,1,80,1,0
111412,109.891116219013,4,1,1,80,1,0
111522,109.690216546769,4,1,1,80,1,0
111632,109.490050091698,4,1,1,80,1,0
111741,109.290612847112,4,1,1,90,1,0
111850,109.091900835462,4,1,1,90,1,0
111959,108.893910108077,4,1,1,90,1,0
112068,108.696636744898,4,1,1,90,1,0
112177,108.500076854221,4,1,1,90,1,0
112286,108.304226572442,4,1,1,90,1,0
112394,108.109082063802,4,1,1,90,1,0
112502,107.91463952014,4,1,1,90,1,0
112610,107.720895160639,4,1,1,90,1,0
112718,107.527845231588,4,1,1,90,1,0
112826,107.335486006136,4,1,1,90,1,0
112933,107.143813784052,4,1,1,90,1,0
113040,106.952824891487,4,1,1,90,1,0
113147,106.762515680744,4,1,1,90,1,0
113254,106.57288253004,4,1,1,90,1,0
113361,106.383921843279,4,1,1,90,1,0
113467,106.195630049823,4,1,1,90,1,0
113573,106.008003604272,4,1,1,90,1,0
113679,105.821038986234,4,1,1,90,1,0
113785,105.634732700112,4,1,1,90,1,0
113891,105.449081274879,4,1,1,90,1,0
113996,105.264081263871,4,1,1,90,1,0
114101,105.079729244564,4,1,1,90,1,0
114206,104.896021818373,4,1,1,90,1,0
114311,104.712955610433,4,1,1,100,1,0
114348,-100,4,1,1,100,0,0

[Colours]
Combo1 : 255,255,255
Combo2 : 244,0,6
Combo3 : 129,69,252

[HitObjects]
256,64,315,2,0,B|376:312|376:312|136:312|136:312|224:136|224:136|280:252|280:252,1,840,0|4,0:0|0:0,0:0:0:0:
48,48,9015,5,0,0:0:0:0:
80,80,9165,1,0,0:0:0:0:
48,112,9315,1,0,0:0:0:0:
48,256,9615,1,0,0:0:0:0:
160,336,9915,6,0,L|208:320|272:336,1,105
336,336,10509,1,0,0:0:0:0:
432,240,10803,1,0,0:0:0:0:
432,240,11097,2,0,L|352:240,1,70
304,272,11680,1,0,0:0:0:0:
304,272,11968,5,0,0:0:0:0:
384,96,12257,2,0,L|368:144|384:208,1,105,4|0,0:0|0:0,0:0:0:0:
368,272,12828,1,0,0:0:0:0:
256,192,13111,1,0,0:0:0:0:
240,368,13394,6,0,L|256:320|240:256,1,105,4|0,0:0|0:0,0:0:0:0:
256,192,13955,1,0,0:0:0:0:
256,192,14232,1,0,0:0:0:0:
48,48,14511,6,0,L|16:96|48:144,1,105,4|0,0:0|0:0,0:0:0:0:
112,128,15061,2,0,L|192:128,1,70
256,80,15606,1,0,0:0:0:0:
336,128,15876,1,0,0:0:0:0:
416,80,16147,2,0,L|416:32,2,35
448,272,16683,6,0,L|480:224|448:176,1,105,4|0,0:0|0:0,0:0:0:0:
384,192,17214,1,0,0:0:0:0:
256,192,17477,1,0,0:0:0:0:
128,192,17740,2,0,L|96:240|128:288,1,105,4|0,0:0|0:0,0:0:0:0:
192,272,18262,1,0,0:0:0:0:
320,272,18520,1,0,0:0:0:0:
320,272,18779,6,0,L|448:272,1,105,4|0,0:0|0:0,0:0:0:0:
480,304,19292,1,0,0:0:0:0:
352,352,19546,1,0,0:0:0:0:
224,304,19800,1,0,0:0:0:0:
224,304,19926,1,0,0:0:0:0:
96,352,20178,1,0,0:0:0:0:
96,352,20304,1,0,0:0:0:0:
32,304,20554,1,0,0:0:0:0:
80,240,20804,6,0,L|80:128,1,105,4|0,0:0|0:0,0:0:0:0:
32,96,21300,1,0,0:0:0:0:
160,48,21545,1,0,0:0:0:0:
256,288,21792,6,0,L|256:176,1,105,4|0,0:0|0:0,0:0:0:0:
208,144,22280,1,0,0:0:0:0:
336,96,22521,1,0,0:0:0:0:
464,272,22764,6,0,L|352:320,1,105,6|2,0:0|0:0,0:0:0:0:
367,313,23244,1,0,0:0:0:0:
256,192,23720,2,0,L|144:240,1,105,2|2,0:0|0:0,0:0:0:0:
159,233,24192,1,0,0:0:0:0:
256,32,24661,5,2,0:0:0:0:
256,352,25009,1,2,0:0:0:0:
256,96,25356,1,2,0:0:0:0:
256,288,25702,1,2,0:0:0:0:
256,160,26046,1,2,0:0:0:0:
256,160,26273,6,0,L|256:230,1,70,2|0,0:0|0:0,0:0:0:0:
464,272,26839,1,0,0:0:0:0:
480,272,26952,1,0,0:0:0:0:
464,64,27400,1,0,0:0:0:0:
400,64,27622,1,0,0:0:0:0:
336,64,27844,1,0,0:0:0:0:
272,64,28064,1,0,0:0:0:0:
256,128,28285,5,0,0:0:0:0:
48,112,28613,1,0,0:0:0:0:
32,144,28723,2,0,L|32:224,1,70
0,280,29158,1,0,0:0:0:0:
168,344,29481,1,0,0:0:0:0:
192,320,29590,2,0,L|272:320,1,70
320,288,30019,5,0,0:0:0:0:
320,80,30338,2,0,L|320:32,1,35
416,128,30656,1,0,0:0:0:0:
320,192,30868,1,0,0:0:0:0:
416,240,31077,1,0,0:0:0:0:
416,128,31288,1,0,0:0:0:0:
416,128,31392,2,0,L|416:72,1,35
416,240,31705,6,0,L|368:240|368:240|400:304,2,105
428,320,32530,2,0,L|476:320|476:320|444:256,2,105
352,352,33343,6,0,L|240:352,1,105
192,320,33746,1,0,0:0:0:0:
96,272,33946,1,0,0:0:0:0:
192,224,34146,1,0,0:0:0:0:
192,224,34245,2,0,L|192:176,1,35
96,176,34543,1,0,0:0:0:0:
96,176,34740,1,0,0:0:0:0:
144,112,34938,6,0,L|192:96|256:112,1,105
304,96,35330,1,0,0:0:0:0:
432,208,35720,2,0,L|384:192|320:208,1,105
272,192,36107,1,0,0:0:0:0:
96,304,36492,6,0,L|144:320|192:304,1,70
224,304,36778,2,0,L|272:304,1,35
224,208,37158,2,0,L|200:249,1,35
304,256,37537,2,0,L|280:214,1,35
304,352,37912,2,0,L|352:352,1,35
160,240,38285,2,0,L|136:281,1,35
368,163,38656,2,0,L|344:122,1,35
96,352,39025,2,0,L|144:352,1,35
64,58,39391,1,0,0:0:0:0:
64,58,39483,5,0,0:0:0:0:
96,160,39664,2,0,L|96:90,1,70
200,80,40027,1,0,0:0:0:0:
224,184,40208,2,0,L|224:114,1,70
336,40,40567,1,0,0:0:0:0:
352,148,40745,2,0,L|352:78,1,70
464,172,41101,1,0,0:0:0:0:
464,172,41279,2,0,L|464:102,1,70
512,268,41632,2,0,L|512:188,1,70
512,198,41983,1,0,0:0:0:0:
64,320,42332,5,0,0:0:0:0:
32,224,42505,2,0,L|32:272,2,35
160,272,42851,1,0,0:0:0:0:
192,360,43024,2,0,L|192:290,1,70
304,208,43367,1,0,0:0:0:0:
320,312,43537,2,0,L|320:242,1,70
448,342,43877,1,0,0:0:0:0:
448,342,44047,2,0,L|448:272,1,70
416,224,44384,2,0,L|416:144,1,70
448,112,44719,2,0,L|448:32,1,70
32,80,45217,6,0,L|124:104,1,70
202,125,45548,1,0,0:0:0:0:
109,183,45714,2,0,L|41:164,1,70
212,211,46042,1,0,0:0:0:0:
52,251,46205,2,0,L|144:275,1,70
222,296,46530,1,0,0:0:0:0:
222,296,46611,1,0,0:0:0:0:
222,296,46692,2,0,L|361:333,2,140
245,290,47655,6,0,L|266:212,1,70
290,120,47972,1,0,0:0:0:0:
330,280,48129,2,0,L|351:202,1,70
376,110,48445,1,0,0:0:0:0:
376,110,48602,2,0,L|397:32,1,70
480,32,48915,1,0,0:0:0:0:
480,32,49070,2,0,L|461:100,1,70
437,192,49380,1,0,0:0:0:0:
437,192,49457,1,0,0:0:0:0:
437,192,49535,2,0,L|400:331,1,140
48,336,50149,5,0,0:0:0:0:
144,224,50454,1,8,0:0:0:0:
256,336,50757,1,0,0:0:0:0:
368,224,51059,1,8,0:0:0:0:
256,336,51359,2,0,B|272:256|384:272,1,140,0|8,0:0|0:0,0:0:0:0:
240,208,51806,1,0,0:0:0:0:
128,128,51955,2,0,B|189:181|119:270,1,140,0|8,0:0|0:0,0:0:0:0:
464,48,52545,5,0,0:0:0:0:
368,160,52838,1,8,0:0:0:0:
256,48,53129,1,0,0:0:0:0:
144,160,53419,1,8,0:0:0:0:
256,48,53707,2,0,B|240:128|128:112,1,140,0|8,0:0|0:0,0:0:0:0:
272,176,54136,1,0,0:0:0:0:
384,256,54280,2,0,B|323:203|393:114,1,140,0|8,0:0|0:0,0:0:0:0:
48,336,54847,5,0,0:0:0:0:
96,288,54987,2,0,B|176:288,1,70,0|8,0:0|0:0,0:0:0:0:
224,320,55269,1,0,0:0:0:0:
224,320,55339,1,0,0:0:0:0:
224,320,55409,1,0,0:0:0:0:
256,192,55688,1,8,0:0:0:0:
256,192,55826,1,0,0:0:0:0:
288,64,56104,1,0,0:0:0:0:
288,64,56173,1,0,0:0:0:0:
288,64,56243,1,8,0:0:0:0:
80,64,56518,2,0,L|144:96|208:64,1,140,0|8,0:0|0:0,0:0:0:0:
480,64,57065,5,0,0:0:0:0:
288,64,57336,1,8,0:0:0:0:
336,112,57471,2,0,L|336:272,1,140
288,304,57875,1,0,0:0:0:0:
288,304,58143,5,8,0:0:0:0:
240,252,58276,2,0,L|240:112,1,140
240,112,58609,1,0,0:0:0:0:
240,112,58675,1,0,0:0:0:0:
320,192,58939,1,0,0:0:0:0:
112,80,59202,5,4,0:0:0:0:
400,304,59464,1,4,0:0:0:0:
256,192,59854,6,0,L|256:112,1,70
304,80,60244,1,0,0:0:0:0:
512,144,60502,1,2,0:0:0:0:
304,240,60758,1,0,0:0:0:0:
512,304,61013,1,2,0:0:0:0:
400,80,61267,5,4,0:0:0:0:
112,304,61520,1,4,0:0:0:0:
256,192,61897,6,0,L|256:272,1,70
256,352,62273,1,0,0:0:0:0:
256,336,62397,1,0,0:0:0:0:
256,320,62522,1,0,0:0:0:0:
256,192,62770,1,2,0:0:0:0:
32,192,63263,5,4,0:0:0:0:
480,192,63508,1,4,0:0:0:0:
80,128,63873,6,0,L|160:128,1,70
208,96,64237,1,0,0:0:0:0:
208,256,64478,1,2,0:0:0:0:
400,160,64718,1,0,0:0:0:0:
400,320,64957,1,2,0:0:0:0:
480,192,65195,5,0,0:0:0:0:
32,192,65432,1,0,0:0:0:0:
144,240,65785,6,0,L|64:240,1,70
32,192,66137,1,2,0:0:0:0:
80,160,66253,1,2,0:0:0:0:
128,192,66370,1,0,0:0:0:0:
176,160,66486,1,0,0:0:0:0:
224,192,66603,1,2,0:0:0:0:
448,48,67066,6,0,L|448:192,1,140
320,192,67639,2,0,L|288:128|256:192,1,140
256,192,67980,2,0,L|224:128|192:192,1,140
192,192,68432,2,0,L|160:128|128:192,1,140
48,288,68881,6,0,L|193:355,1,140
291,295,69436,2,0,L|160:234,1,140
152,177,69768,1,0,0:0:0:0:
155,170,69877,1,0,0:0:0:0:
159,163,69988,1,0,0:0:0:0:
213,47,70207,1,0,0:0:0:0:
64,336,70642,6,0,L|64:192,1,140
352,192,71182,2,0,L|320:256|288:192,1,140
288,192,71504,2,0,L|256:256|224:192,1,140
224,192,71931,2,0,L|192:256|160:192,1,140
456,64,72354,6,0,L|296:64,1,140
108,56,72879,2,0,L|64:36|72:80|116:100,1,140
176,128,73192,1,0,0:0:0:0:
176,136,73295,1,0,0:0:0:0:
176,144,73400,1,0,0:0:0:0:
176,152,73503,1,0,0:0:0:0:
176,160,73607,1,0,0:0:0:0:
176,168,73710,1,0,0:0:0:0:
176,176,73813,1,0,0:0:0:0:
176,184,73915,1,0,0:0:0:0:
176,192,74018,5,0,0:0:0:0:
256,160,74223,1,0,0:0:0:0:
336,192,74427,1,0,0:0:0:0:
416,160,74630,1,0,0:0:0:0:
448,240,74833,5,0,0:0:0:0:
368,272,75035,1,0,0:0:0:0:
288,240,75236,1,0,0:0:0:0:
208,272,75437,1,0,0:0:0:0:
272,144,75637,5,0,0:0:0:0:
192,176,75836,1,0,0:0:0:0:
112,144,76035,1,0,0:0:0:0:
32,176,76233,1,0,0:0:0:0:
0,96,76430,5,10,0:0:0:0:
256,96,76725,1,10,0:0:0:0:
512,96,77018,1,10,0:0:0:0:
432,144,77213,5,0,0:0:0:0:
432,224,77407,1,0,0:0:0:0:
352,224,77601,1,0,0:0:0:0:
352,144,77794,1,0,0:0:0:0:
272,208,77986,5,0,0:0:0:0:
272,128,78178,1,0,0:0:0:0:
192,128,78369,1,0,0:0:0:0:
192,208,78559,1,0,0:0:0:0:
112,160,78749,5,0,0:0:0:0:
112,240,78938,1,0,0:0:0:0:
32,240,79127,1,0,0:0:0:0:
32,160,79315,1,0,0:0:0:0:
0,96,79503,5,10,0:0:0:0:
160,96,79690,1,10,0:0:0:0:
168,88,79783,1,10,0:0:0:0:
352,96,79968,1,10,0:0:0:0:
360,104,80062,1,10,0:0:0:0:
512,96,80247,5,0,0:0:0:0:
464,160,80432,1,0,0:0:0:0:
512,224,80616,1,0,0:0:0:0:
464,288,80799,1,0,0:0:0:0:
416,352,80982,5,0,0:0:0:0:
464,288,81164,1,0,0:0:0:0:
416,224,81346,1,0,0:0:0:0:
464,160,81527,1,0,0:0:0:0:
416,96,81708,5,0,0:0:0:0:
368,160,81888,1,0,0:0:0:0:
416,224,82068,1,0,0:0:0:0:
368,288,82247,1,0,0:0:0:0:
288,256,82426,5,10,0:0:0:0:
160,32,82692,1,10,0:0:0:0:
32,256,82959,1,10,0:0:0:0:
48,112,83135,6,0,L|192:112,1,140
240,144,83486,2,0,L|384:144,1,140
464,272,83835,2,0,L|320:272,1,140
272,240,84182,2,0,L|128:240,1,140
160,336,84527,2,0,L|160:192,1,140
208,160,84870,2,0,L|208:16,1,140
320,96,85211,5,0,0:0:0:0:
336,80,85295,1,0,0:0:0:0:
352,80,85381,1,0,0:0:0:0:
368,96,85465,1,0,0:0:0:0:
448,160,85634,1,0,0:0:0:0:
432,160,85719,1,0,0:0:0:0:
432,304,85888,6,0,L|368:288|304:336,1,140
176,304,86224,2,0,L|208:144,1,140
144,160,86558,1,0,0:0:0:0:
144,160,86724,2,0,L|304:160,1,140
320,240,87055,1,0,0:0:0:0:
320,240,87220,2,0,L|480:240,1,140
460,240,87548,1,0,0:0:0:0:
384,64,87711,5,0,0:0:0:0:
384,64,87874,2,0,B|272:144|384:240,2,210
432,112,88522,6,0,L|368:128|304:80,1,140
176,112,88843,2,0,L|208:272,1,140
144,256,89163,1,0,0:0:0:0:
144,256,89322,2,0,L|304:256,1,140
320,176,89639,1,0,0:0:0:0:
320,176,89797,2,0,L|480:176,1,140
460,176,90111,1,0,0:0:0:0:
416,256,90268,5,0,0:0:0:0:
368,336,90424,1,0,0:0:0:0:
336,320,90501,1,0,0:0:0:0:
312,328,90580,1,0,0:0:0:0:
288,320,90657,1,0,0:0:0:0:
256,336,90735,1,0,0:0:0:0:
176,320,90890,1,0,0:0:0:0:
80,336,91045,6,0,L|48:272|80:208,1,140
184,224,91353,2,0,L|328:224,1,140
184,224,91659,1,0,0:0:0:0:
324,160,91812,2,0,L|184:160,1,140
80,160,92116,1,0,0:0:0:0:
80,160,92268,2,0,L|48:96|80:32,1,140
160,96,92570,1,0,0:0:0:0:
256,64,92720,1,0,0:0:0:0:
352,96,92870,2,0,L|408:96|444:120|444:128|408:156|352:156,2,210
432,336,93467,6,0,L|464:272|432:208,1,140
328,224,93763,2,0,L|184:224,1,140
316,304,94057,1,0,0:0:0:0:
176,304,94204,2,0,L|316:304,1,140
80,224,94496,1,0,0:0:0:0:
80,224,94642,2,0,L|48:288|80:352,1,140
176,304,94932,1,0,0:0:0:0:
256,240,95077,5,0,0:0:0:0:
224,144,95221,1,0,0:0:0:0:
304,200,95365,1,0,0:0:0:0:
208,200,95509,1,0,0:0:0:0:
288,144,95652,1,0,0:0:0:0:
112,144,95795,5,0,0:0:0:0:
99,190,95938,1,0,0:0:0:0:
87,236,96080,1,0,0:0:0:0:
74,283,96222,1,0,0:0:0:0:
400,192,96505,1,0,0:0:0:0:
464,368,96787,5,0,0:0:0:0:
420,347,96927,1,0,0:0:0:0:
376,327,97067,1,0,0:0:0:0:
333,307,97207,1,0,0:0:0:0:
289,286,97346,1,0,0:0:0:0:
112,112,97624,5,0,0:0:0:0:
112,272,97762,1,0,0:0:0:0:
400,240,98038,5,0,0:0:0:0:
413,194,98175,1,0,0:0:0:0:
425,148,98312,1,0,0:0:0:0:
438,101,98449,1,0,0:0:0:0:
112,192,98721,1,0,0:0:0:0:
48,368,98992,5,0,0:0:0:0:
92,347,99127,1,0,0:0:0:0:
136,327,99262,1,0,0:0:0:0:
179,307,99397,1,0,0:0:0:0:
223,286,99531,1,0,0:0:0:0:
208,336,99665,2,0,L|368:352,2,140
80,116,100198,6,0,L|80:256,3,140
16,192,100857,1,0,0:0:0:0:
272,80,101118,5,0,0:0:0:0:
272,80,101249,2,0,L|144:144,1,140
176,224,101509,2,0,L|301:161,1,140
16,192,101897,5,0,0:0:0:0:
176,224,102026,1,0,0:0:0:0:
464,336,102282,6,0,L|324:336,3,140
388,272,102919,1,0,0:0:0:0:
144,48,103172,6,0,L|96:96|144:160,1,140
228,153,103424,2,0,L|272:96|224:48,1,140
184,104,103675,1,0,0:0:0:0:
184,104,103800,2,0,L|40:104,2,140
416,48,104297,5,0,0:0:0:0:
416,112,104421,1,0,0:0:0:0:
480,80,104544,1,0,0:0:0:0:
480,144,104667,1,0,0:0:0:0:
256,192,104913,1,0,0:0:0:0:
160,368,105158,5,0,0:0:0:0:
224,336,105280,1,0,0:0:0:0:
160,304,105402,1,0,0:0:0:0:
96,336,105523,1,0,0:0:0:0:
32,336,105644,1,0,0:0:0:0:
32,52,105886,2,0,L|32:192,1,140
288,32,106245,5,0,0:0:0:0:
288,96,106365,1,0,0:0:0:0:
224,96,106485,1,0,0:0:0:0:
224,32,106604,1,0,0:0:0:0:
256,192,106842,1,0,0:0:0:0:
480,128,107079,5,0,0:0:0:0:
416,160,107197,1,0,0:0:0:0:
480,192,107314,1,0,0:0:0:0:
480,256,107432,1,0,0:0:0:0:
416,224,107550,1,0,0:0:0:0:
416,288,107667,1,0,0:0:0:0:
416,352,107783,1,0,0:0:0:0:
480,320,107900,1,0,0:0:0:0:
32,320,108134,6,0,L|60:256|88:320,1,140
152,320,108366,2,0,L|180:256|208:320,1,140
256,192,108712,1,0,0:0:0:0:
64,48,108942,5,0,0:0:0:0:
64,48,109057,2,0,L|32:112|64:176,1,140
128,144,109285,2,0,L|192:112|256:144,1,140
480,192,109626,2,0,L|336:192,1,140
480,192,109965,6,0,L|452:128|424:192,1,140
360,192,110190,2,0,L|332:128|300:192,1,140
256,64,110526,1,0,0:0:0:0:
80,224,110749,1,0,0:0:0:0:
80,224,110860,2,0,L|48:288|80:352,1,140
144,320,111082,2,0,L|208:288|272:320,1,140
352,192,111302,2,0,L|288:224|224:192,1,140
144,192,111522,1,0,0:0:0:0:
256,112,111741,5,0,0:0:0:0:
256,48,111850,1,0,0:0:0:0:
192,80,111959,1,0,0:0:0:0:
256,48,112068,1,0,0:0:0:0:
320,80,112177,1,0,0:0:0:0:
112,272,112610,5,0,0:0:0:0:
176,240,112718,1,0,0:0:0:0:
208,304,112826,1,0,0:0:0:0:
144,336,112933,1,0,0:0:0:0:
112,272,113040,1,0,0:0:0:0:
400,272,113467,5,0,0:0:0:0:
336,240,113573,1,0,0:0:0:0:
304,304,113679,1,0,0:0:0:0:
368,336,113785,1,0,0:0:0:0:
400,272,113891,1,0,0:0:0:0:
256,192,114311,5,4,0:0:0:0:
