osu file format v14

[General]
AudioFilename: deltaMAX.mp3
AudioLeadIn: 0
PreviewTime: 50145
Countdown: 1
SampleSet: None
StackLeniency: 0.7
Mode: 0
LetterboxInBreaks: 1
WidescreenStoryboard: 0

[Editor]
Bookmarks: 11850,28439,41420,52084,61137,75952,87824,97731,106231,113676,116246
DistanceSpacing: 1
BeatDivisor: 2
GridSize: 8
TimelineZoom: 1

[Metadata]
Title:deltaMAX
TitleUnicode:
Artist:DM Ashura
ArtistUnicode:
Creator:Sprosive
Version:Plagiarized
Source:DDR Forever
Tags:Dance Dance Revolution Universe 3 stepmania ignorethis lzy Doomsday DJNightmare tsuka
BeatmapID:790097
BeatmapSetID:359335

[Difficulty]
HPDrainRate:7
CircleSize:5
OverallDifficulty:5
ApproachRate:8
SliderMultiplier:1.6
SliderTickRate:0.5

[Events]
//Background and Video events
0,0,"deltaMAX-bg.png",0,0
//Break Periods
//Storyboard Layer 0 (Background)
//Storyboard Layer 1 (Fail)
//Storyboard Layer 2 (Pass)
//Storyboard Layer 3 (Foreground)
//Storyboard Sound Samples

[TimingPoints]
315,600,4,1,0,30,1,0
9915,594.059405940594,4,1,0,40,1,0
10509,588.235294117647,4,1,0,40,1,0
11097,582.52427184466,4,1,0,40,1,0
11679,576.923076923077,4,1,0,40,1,0
12256,571.428571428571,4,1,0,40,1,0
12828,566.037735849057,4,1,0,40,1,0
13394,560.747663551402,4,1,0,40,1,0
13954,555.555555555556,4,1,0,40,1,0
14510,550.45871559633,4,1,0,40,1,0
15060,545.454545454545,4,1,0,40,1,0
15606,540.540540540541,4,1,0,40,1,0
16146,535.714285714286,4,1,0,40,1,0
16682,530.973451327434,4,1,0,40,1,0
17213,526.315789473684,4,1,0,40,1,0
17739,521.739130434783,4,1,0,40,1,0
18261,517.241379310345,4,1,0,40,1,0
18778,512.820512820513,4,1,0,40,1,0
19291,508.474576271186,4,1,0,40,1,0
19800,504.201680672269,4,1,0,40,1,0
20304,500,4,1,0,40,1,0
20804,495.867768595041,4,1,0,40,1,0
21300,491.803278688525,4,1,0,40,1,0
21792,487.80487804878,4,1,0,40,1,0
22279,483.870967741935,4,1,0,40,1,0
22763,480,4,1,0,40,1,0
23243,476.190476190476,4,1,0,40,1,0
23719,472.44094488189,4,1,0,40,1,0
24192,468.75,4,1,0,40,1,0
24661,465.116279069767,4,1,0,40,1,0
25126,461.538461538462,4,1,0,40,1,0
25587,458.015267175572,4,1,0,40,1,0
26045,454.545454545455,4,1,0,40,1,0
26500,451.127819548872,4,1,0,45,1,0
26951,447.761194029851,4,1,0,45,1,0
27399,444.444444444444,4,1,0,45,1,0
27843,441.176470588235,4,1,0,45,1,0
28284,437.956204379562,4,1,0,45,1,0
28722,434.782608695652,4,1,0,45,1,0
29157,431.654676258993,4,1,0,45,1,0
29589,428.571428571429,4,1,0,45,1,0
30017,425.531914893617,4,1,0,45,1,0
30443,422.535211267606,4,1,0,45,1,0
30865,419.58041958042,4,1,0,45,1,0
31285,416.666666666667,4,1,0,45,1,0
31702,413.793103448276,4,1,0,45,1,0
32115,410.958904109589,4,1,0,45,1,0
32526,408.163265306122,4,1,0,45,1,0
32935,405.405405405405,4,1,0,45,1,0
33340,402.684563758389,4,1,0,45,1,0
33743,400,4,1,0,45,1,0
34143,397.350993377483,4,1,0,45,1,0
34540,394.736842105263,4,1,0,45,1,0
34935,392.156862745098,4,1,0,45,1,0
35327,389.61038961039,4,1,0,45,1,0
35717,387.096774193548,4,1,0,45,1,0
36104,384.615384615385,4,1,0,45,1,0
36488,382.165605095541,4,1,0,45,1,0
36870,379.746835443038,4,1,0,45,1,0
37250,377.358490566038,4,1,0,45,1,0
37628,375,4,1,0,45,1,0
38003,372.670807453416,4,1,0,45,1,0
38375,370.37037037037,4,1,0,45,1,0
38746,368.098159509202,4,1,0,45,1,0
39114,365.853658536585,4,1,0,45,1,0
39480,363.636363636364,4,1,0,50,1,0
39843,361.44578313253,4,1,0,50,1,0
40205,359.281437125748,4,1,0,50,1,0
40564,357.142857142857,4,1,0,50,1,0
40921,355.029585798817,4,1,0,50,1,0
41276,352.941176470588,4,1,0,50,1,0
41629,350.877192982456,4,1,0,50,1,0
41980,348.837209302326,4,1,0,50,1,0
42329,346.820809248555,4,1,0,50,1,0
42676,344.827586206897,4,1,0,50,1,0
43020,342.857142857143,4,1,0,50,1,0
43363,340.909090909091,4,1,0,50,1,0
43704,338.983050847458,4,1,0,50,1,0
44043,337.078651685393,4,1,0,50,1,0
44380,335.195530726257,4,1,0,50,1,0
44715,333.333333333333,4,1,0,50,1,0
45049,331.491712707182,4,1,0,50,1,0
45380,329.67032967033,4,1,0,50,1,0
45710,327.868852459016,4,1,0,50,1,0
46038,326.086956521739,4,1,0,50,1,0
46364,324.324324324324,4,1,0,50,1,0
46688,322.58064516129,4,1,0,50,1,0
47011,320.855614973262,4,1,0,50,1,0
47332,319.148936170213,4,1,0,50,1,0
47651,317.460317460317,4,1,0,50,1,0
47968,315.789473684211,4,1,0,50,1,0
48284,314.13612565445,4,1,0,50,1,0
48598,312.5,4,1,0,50,1,0
48911,310.880829015544,4,1,0,50,1,0
49222,309.278350515464,4,1,0,50,1,0
49531,307.692307692308,4,1,0,50,1,0
49838,306.122448979592,4,1,0,50,1,0
50145,304.568527918782,4,1,0,55,1,0
50449,303.030303030303,4,1,0,55,1,0
50752,301.507537688442,4,1,0,55,1,0
51054,300,4,1,0,55,1,0
51354,298.507462686567,4,1,0,55,1,0
51652,297.029702970297,4,1,0,55,1,0
51949,295.566502463054,4,1,0,55,1,0
52245,294.117647058824,4,1,0,55,1,0
52539,292.682926829268,4,1,0,55,1,0
52832,291.26213592233,4,1,0,55,1,0
53123,289.855072463768,4,1,0,55,1,0
53413,288.461538461538,4,1,0,55,1,0
53701,287.081339712919,4,1,0,55,1,0
53988,285.714285714286,4,1,0,55,1,0
54274,284.36018957346,4,1,0,55,1,0
54558,283.018867924528,4,1,0,55,1,0
54841,281.69014084507,4,1,0,55,1,0
55123,280.373831775701,4,1,0,55,1,0
55403,279.06976744186,4,1,0,55,1,0
55682,277.777777777778,4,1,0,55,1,0
55960,276.497695852535,4,1,0,55,1,0
56237,275.229357798165,4,1,0,55,1,0
56512,273.972602739726,4,1,0,55,1,0
56786,272.727272727273,4,1,0,55,1,0
57059,271.493212669683,4,1,0,55,1,0
57330,270.27027027027,4,1,0,55,1,0
57600,269.058295964126,4,1,0,55,1,0
57870,267.857142857143,4,1,0,55,1,0
58137,266.666666666667,4,1,0,55,1,0
58404,265.486725663717,4,1,0,55,1,0
58670,264.31718061674,4,1,0,55,1,0
58934,263.157894736842,4,1,0,55,1,0
59197,262.008733624454,4,1,0,60,1,0
59459,260.869565217391,4,1,0,40,1,0
59720,259.74025974026,4,1,0,60,1,0
59980,258.620689655172,4,1,0,60,1,0
60238,257.510729613734,4,1,0,60,1,0
60496,256.410256410256,4,1,0,60,1,0
60752,255.31914893617,4,1,0,60,1,0
61007,254.237288135593,4,1,0,60,1,0
61262,253.164556962025,4,1,0,60,1,0
61515,252.100840336134,4,1,0,60,1,0
61767,251.046025104603,4,1,0,40,1,0
61893,-100,4,1,0,60,0,0
62018,250,4,1,0,60,1,0
62268,248.96265560166,4,1,0,60,1,0
62517,247.933884297521,4,1,0,60,1,0
62765,246.913580246914,4,1,0,40,1,0
63012,245.901639344262,4,1,0,60,1,0
63258,244.897959183673,4,1,0,60,1,0
63503,243.90243902439,4,1,0,60,1,0
63747,242.914979757085,4,1,0,40,1,0
63868,-100,4,1,0,60,0,0
63989,241.935483870968,4,1,0,60,1,0
64231,240.963855421687,4,1,0,60,1,0
64472,240,4,1,0,60,1,0
64712,239.043824701195,4,1,0,40,1,0
64951,238.095238095238,4,1,0,60,1,0
65190,237.154150197628,4,1,0,60,1,0
65427,236.220472440945,4,1,0,60,1,0
65663,235.294117647059,4,1,0,40,1,0
65780,-100,4,1,0,60,0,0
65898,234.375,4,1,0,60,1,0
66133,233.463035019455,4,1,0,60,1,0
66366,232.558139534884,4,1,0,60,1,0
66599,231.660231660232,4,1,0,40,1,0
66830,230.769230769231,4,1,0,60,1,0
67061,229.885057471264,4,1,0,60,1,0
67291,229.007633587786,4,1,0,60,1,0
67520,228.136882129278,4,1,0,40,1,0
67634,-100,4,1,0,60,0,0
67748,227.272727272727,4,1,0,60,1,0
67975,226.415094339623,4,1,0,60,1,0
68202,225.563909774436,4,1,0,60,1,0
68427,224.719101123595,4,1,0,40,1,0
68652,223.880597014925,4,1,0,60,1,0
68876,223.048327137546,4,1,0,60,1,0
69099,222.222222222222,4,1,0,60,1,0
69321,221.40221402214,4,1,0,40,1,0
69431,-100,4,1,0,60,0,0
69543,220.588235294118,4,1,0,60,1,0
69763,219.78021978022,4,1,0,60,1,0
69983,218.978102189781,4,1,0,60,1,0
70202,218.181818181818,4,1,0,40,1,0
70420,217.391304347826,4,1,0,60,1,0
70637,216.606498194946,4,1,0,60,1,0
70854,215.827338129496,4,1,0,60,1,0
71070,215.05376344086,4,1,0,45,1,0
71177,-100,4,1,0,60,0,0
71285,214.285714285714,4,1,0,60,1,0
71499,213.523131672598,4,1,0,60,1,0
71713,212.765957446808,4,1,0,60,1,0
71926,212.014134275618,4,1,0,40,1,0
72138,211.267605633803,4,1,0,60,1,0
72349,210.526315789474,4,1,0,60,1,0
72559,209.79020979021,4,1,0,60,1,0
72769,209.059233449477,4,1,0,50,1,0
72873,-100,4,1,0,60,0,0
72978,208.333333333333,4,1,0,60,1,0
73187,207.612456747405,4,1,0,60,1,0
73394,206.896551724138,4,1,0,60,1,0
73601,206.185567010309,4,1,0,60,1,0
73807,205.479452054795,4,1,0,60,1,0
74013,204.778156996587,4,1,0,65,1,0
74217,204.081632653061,4,1,1,65,1,0
74422,203.389830508475,4,1,1,65,1,0
74625,202.702702702703,4,1,1,65,1,0
74828,202.020202020202,4,1,1,65,1,0
75030,201.342281879195,4,1,1,65,1,0
75231,200.66889632107,4,1,1,65,1,0
75432,200,4,1,1,65,1,0
75632,199.335548172757,4,1,1,65,1,0
75831,198.675496688742,4,1,1,65,1,0
76030,198.019801980198,4,1,1,65,1,0
76228,197.368421052632,4,1,1,65,1,0
76425,196.72131147541,4,1,1,65,1,0
76622,196.078431372549,4,1,1,65,1,0
76818,195.439739413681,4,1,1,65,1,0
77013,194.805194805195,4,1,1,65,1,0
77208,194.174757281553,4,1,1,65,1,0
77402,193.548387096774,4,1,1,65,1,0
77596,192.926045016077,4,1,1,65,1,0
77789,192.307692307692,4,1,1,65,1,0
77981,191.693290734824,4,1,1,65,1,0
78173,191.082802547771,4,1,1,65,1,0
78364,190.47619047619,4,1,1,65,1,0
78554,189.873417721519,4,1,1,65,1,0
78744,189.274447949527,4,1,1,65,1,0
78933,188.679245283019,4,1,1,65,1,0
79122,188.087774294671,4,1,1,65,1,0
79310,187.5,4,1,1,65,1,0
79498,186.915887850467,4,1,1,65,1,0
79685,186.335403726708,4,1,1,65,1,0
79871,185.758513931889,4,1,1,65,1,0
80057,185.185185185185,4,1,1,65,1,0
80242,184.615384615385,4,1,1,65,1,0
80427,184.049079754601,4,1,1,65,1,0
80611,183.48623853211,4,1,1,65,1,0
80794,182.926829268293,4,1,1,65,1,0
80977,182.370820668693,4,1,1,65,1,0
81159,181.818181818182,4,1,1,65,1,0
81341,181.268882175227,4,1,1,65,1,0
81522,180.722891566265,4,1,1,65,1,0
81703,180.18018018018,4,1,1,65,1,0
81883,179.640718562874,4,1,1,65,1,0
82063,179.10447761194,4,1,1,65,1,0
82242,178.571428571429,4,1,1,65,1,0
82421,178.041543026706,4,1,1,65,1,0
82599,177.514792899408,4,1,1,65,1,0
82776,176.991150442478,4,1,1,65,1,0
82953,176.470588235294,4,1,1,65,1,0
83130,175.953079178886,4,1,1,65,1,0
83306,175.438596491228,4,1,1,65,1,0
83481,174.927113702624,4,1,1,65,1,0
83656,174.418604651163,4,1,1,65,1,0
83830,173.913043478261,4,1,1,65,1,0
84004,173.410404624277,4,1,1,65,1,0
84178,172.910662824207,4,1,1,65,1,0
84351,172.413793103448,4,1,1,65,1,0
84523,171.919770773639,4,1,1,65,1,0
84695,171.428571428571,4,1,1,65,1,0
84866,170.940170940171,4,1,1,65,1,0
85037,170.454545454545,4,1,1,65,1,0
85208,169.971671388102,4,1,1,65,1,0
85378,169.491525423729,4,1,1,65,1,0
85547,169.014084507042,4,1,1,65,1,0
85716,168.539325842697,4,1,1,65,1,0
85885,168.067226890756,4,1,1,70,1,0
86053,167.597765363129,4,1,1,70,1,0
86221,167.130919220056,4,1,1,70,1,0
86388,166.666666666667,4,1,1,70,1,0
86554,166.204986149584,4,1,1,70,1,0
86721,165.745856353591,4,1,1,70,1,0
86886,165.289256198347,4,1,1,70,1,0
87052,164.835164835165,4,1,1,70,1,0
87216,164.383561643836,4,1,1,70,1,0
87381,163.934426229508,4,1,1,70,1,0
87545,163.487738419619,4,1,1,70,1,0
87708,163.04347826087,4,1,1,70,1,0
87871,162.60162601626,4,1,1,70,1,0
88034,162.162162162162,4,1,1,70,1,0
88196,161.725067385445,4,1,1,70,1,0
88358,161.290322580645,4,1,1,70,1,0
88519,160.857908847185,4,1,1,70,1,0
88680,160.427807486631,4,1,1,70,1,0
88840,160,4,1,1,70,1,0
89000,159.574468085106,4,1,1,70,1,0
89160,159.151193633952,4,1,1,70,1,0
89319,158.730158730159,4,1,1,70,1,0
89478,158.311345646438,4,1,1,70,1,0
89636,157.894736842105,4,1,1,70,1,0
89794,157.48031496063,4,1,1,70,1,0
89951,157.068062827225,4,1,1,70,1,0
90109,156.657963446475,4,1,1,70,1,0
90265,156.25,4,1,1,70,1,0
90421,155.844155844156,4,1,1,70,1,0
90577,155.440414507772,4,1,1,70,1,0
90733,155.038759689922,4,1,1,70,1,0
90888,154.639175257732,4,1,1,70,1,0
91042,154.241645244216,4,1,1,70,1,0
91197,153.846153846154,4,1,1,70,1,0
91350,153.452685421995,4,1,1,70,1,0
91504,153.061224489796,4,1,1,70,1,0
91657,152.671755725191,4,1,1,70,1,0
91810,152.284263959391,4,1,1,70,1,0
91962,151.898734177215,4,1,1,70,1,0
92114,151.515151515152,4,1,1,70,1,0
92265,151.133501259446,4,1,1,70,1,0
92417,150.753768844221,4,1,1,70,1,0
92567,150.375939849624,4,1,1,70,1,0
92718,150,4,1,1,70,1,0
92868,149.625935162095,4,1,1,70,1,0
93017,149.253731343284,4,1,1,70,1,0
93167,148.883374689826,4,1,1,70,1,0
93315,148.514851485149,4,1,1,70,1,0
93464,148.148148148148,4,1,1,70,1,0
93612,147.783251231527,4,1,1,70,1,0
93760,147.420147420147,4,1,1,70,1,0
93907,147.058823529412,4,1,1,70,1,0
94054,146.699266503667,4,1,1,70,1,0
94201,146.341463414634,4,1,1,70,1,0
94347,145.985401459854,4,1,1,70,1,0
94493,145.631067961165,4,1,1,70,1,0
94639,145.278450363196,4,1,1,70,1,0
94784,144.927536231884,4,1,1,70,1,0
94929,144.578313253012,4,1,1,70,1,0
95074,144.230769230769,4,1,1,70,1,0
95218,143.884892086331,4,1,1,70,1,0
95362,143.540669856459,4,1,1,70,1,0
95505,143.198090692124,4,1,1,70,1,0
95649,142.857142857143,4,1,1,70,1,0
95791,142.517814726841,4,1,1,75,1,0
95934,142.18009478673,4,1,1,75,1,0
96076,141.843971631206,4,1,1,75,1,0
96218,141.509433962264,4,1,1,75,1,0
96360,141.176470588235,4,1,1,75,1,0
96501,140.845070422535,4,1,1,75,1,0
96642,140.515222482436,4,1,1,75,1,0
96782,140.18691588785,4,1,1,75,1,0
96922,139.86013986014,4,1,1,75,1,0
97062,139.53488372093,4,1,1,75,1,0
97202,139.211136890951,4,1,1,75,1,0
97341,138.888888888889,4,1,1,75,1,0
97480,138.568129330254,4,1,1,75,1,0
97618,138.248847926267,4,1,1,75,1,0
97757,137.931034482759,4,1,1,75,1,0
97894,137.614678899083,4,1,1,75,1,0
98032,137.299771167048,4,1,1,75,1,0
98169,136.986301369863,4,1,1,75,1,0
98306,136.674259681093,4,1,1,75,1,0
98443,136.363636363636,4,1,1,75,1,0
98579,136.054421768707,4,1,1,75,1,0
98715,135.746606334842,4,1,1,75,1,0
98851,135.440180586907,4,1,1,75,1,0
98987,135.135135135135,4,1,1,75,1,0
99122,134.831460674157,4,1,1,75,1,0
99257,134.529147982063,4,1,1,75,1,0
99391,134.228187919463,4,1,1,75,1,0
99525,133.928571428571,4,1,1,75,1,0
99659,133.630289532294,4,1,1,75,1,0
99793,133.333333333333,4,1,1,75,1,0
99926,133.037694013304,4,1,1,75,1,0
100059,132.743362831858,4,1,1,75,1,0
100192,132.450331125828,4,1,1,75,1,0
100325,132.15859030837,4,1,1,75,1,0
100457,131.868131868132,4,1,1,75,1,0
100589,131.578947368421,4,1,1,75,1,0
100720,131.29102844639,4,1,1,75,1,0
100851,131.004366812227,4,1,1,75,1,0
100982,130.718954248366,4,1,1,75,1,0
101113,130.434782608696,4,1,1,75,1,0
101244,130.151843817787,4,1,1,75,1,0
101374,129.87012987013,4,1,1,75,1,0
101504,129.589632829374,4,1,1,75,1,0
101633,129.310344827586,4,1,1,75,1,0
101762,129.032258064516,4,1,1,75,1,0
101892,128.755364806867,4,1,1,75,1,0
102020,128.47965738758,4,1,1,75,1,0
102149,128.205128205128,4,1,1,75,1,0
102277,127.931769722814,4,1,1,75,1,0
102405,127.659574468085,4,1,1,75,1,0
102533,127.388535031847,4,1,1,75,1,0
102660,127.118644067797,4,1,1,75,1,0
102787,126.849894291755,4,1,1,75,1,0
102914,126.582278481013,4,1,1,75,1,0
103040,126.315789473684,4,1,1,75,1,0
103167,126.050420168067,4,1,1,75,1,0
103293,125.786163522013,4,1,1,75,1,0
103419,125.523012552301,4,1,1,75,1,0
103544,125.260960334029,4,1,1,75,1,0
103669,125,4,1,1,75,1,0
103794,124.740124740125,4,1,1,75,1,0
103919,124.48132780083,4,1,1,75,1,0
104044,124.223602484472,4,1,1,75,1,0
104168,123.96694214876,4,1,1,75,1,0
104292,123.711340206186,4,1,1,80,1,0
104416,123.456790123457,4,1,1,80,1,0
104539,123.203285420945,4,1,1,80,1,0
104662,122.950819672131,4,1,1,80,1,0
104785,122.699386503067,4,1,1,80,1,0
104908,122.448979591837,4,1,1,80,1,0
105030,122.199592668024,4,1,1,80,1,0
105153,121.951219512195,4,1,1,80,1,0
105274,121.703853955375,4,1,1,80,1,0
105396,121.457489878543,4,1,1,80,1,0
105518,121.212121212121,4,1,1,80,1,0
105639,120.967741935484,4,1,1,80,1,0
105760,120.724346076459,4,1,1,80,1,0
105881,120.481927710843,4,1,1,80,1,0
106001,120.240480961924,4,1,1,80,1,0
106121,120,4,1,1,80,1,0
106241,119.760479041916,4,1,1,80,1,0
106361,119.521912350598,4,1,1,80,1,0
106481,119.284294234592,4,1,1,80,1,0
106600,119.047619047619,4,1,1,80,1,0
106719,118.811881188119,4,1,1,80,1,0
106838,118.577075098814,4,1,1,80,1,0
106956,118.343195266272,4,1,1,80,1,0
107075,118.110236220472,4,1,1,80,1,0
107193,117.878192534381,4,1,1,80,1,0
107311,117.647058823529,4,1,1,80,1,0
107428,117.416829745597,4,1,1,80,1,0
107546,117.1875,4,1,1,80,1,0
107663,116.959064327485,4,1,1,80,1,0
107780,116.731517509728,4,1,1,80,1,0
107897,116.504854368932,4,1,1,80,1,0
108013,116.279069767442,4,1,1,80,1,0
108129,116.05415860735,4,1,1,80,1,0
108245,115.830115830116,4,1,1,80,1,0
108361,115.606936416185,4,1,1,80,1,0
108477,115.384615384615,4,1,1,80,1,0
108592,115.163147792706,4,1,1,80,1,0
108707,114.942528735632,4,1,1,80,1,0
108822,114.72275334608,4,1,1,80,1,0
108937,114.503816793893,4,1,1,80,1,0
109052,114.285714285714,4,1,1,80,1,0
109166,114.068441064639,4,1,1,80,1,0
109280,113.851992409867,4,1,1,80,1,0
109394,113.636363636364,4,1,1,80,1,0
109507,113.421550094518,4,1,1,80,1,0
109621,113.207547169811,4,1,1,80,1,0
109734,112.994350282486,4,1,1,80,1,0
109847,112.781954887218,4,1,1,80,1,0
109960,112.570356472795,4,1,1,80,1,0
110072,112.359550561798,4,1,1,80,1,0
110185,112.14953271028,4,1,1,80,1,0
110297,111.940298507463,4,1,1,80,1,0
110409,111.731843575419,4,1,1,80,1,0
110521,111.524163568773,4,1,1,80,1,0
110632,111.317254174397,4,1,1,80,1,0
110743,111.111111111111,4,1,1,80,1,0
110854,110.90573012939,4,1,1,80,1,0
110965,110.70110701107,4,1,1,80,1,0
111076,110.497237569061,4,1,1,80,1,0
111187,110.294117647059,4,1,1,80,1,0
111297,110.091743119266,4,1,1,80,1,0
111407,109.89010989011,4,1,1,80,1,0
111517,109.689213893967,4,1,1,80,1,0
111627,109.489051094891,4,1,1,80,1,0
111736,109.289617486339,4,1,1,90,1,0
111845,109.090909090909,4,1,1,90,1,0
111954,108.892921960073,4,1,1,90,1,0
112063,108.695652173913,4,1,1,90,1,0
112172,108.499095840868,4,1,1,90,1,0
112281,108.303249097473,4,1,1,90,1,0
112389,108.108108108108,4,1,1,90,1,0
112497,107.913669064748,4,1,1,90,1,0
112605,107.719928186715,4,1,1,90,1,0
112713,107.52688172043,4,1,1,90,1,0
112820,107.334525939177,4,1,1,90,1,0
112927,107.142857142857,4,1,1,90,1,0
113035,106.951871657754,4,1,1,90,1,0
113142,106.761565836299,4,1,1,90,1,0
113248,106.571936056838,4,1,1,90,1,0
113355,106.382978723404,4,1,1,90,1,0
113461,106.194690265487,4,1,1,90,1,0
113567,106.007067137809,4,1,1,90,1,0
113673,105.820105820106,4,1,1,90,1,0
113779,105.633802816901,4,1,1,90,1,0
113885,105.448154657294,4,1,1,90,1,0
113990,105.263157894737,4,1,1,90,1,0
114096,105.07880910683,4,1,1,90,1,0
114201,104.895104895105,4,1,1,90,1,0
114306,104.712041884817,4,1,1,100,1,1
114358,-100,4,1,1,100,0,0

[Colours]
Combo1 : 255,255,255
Combo2 : 244,0,6
Combo3 : 129,69,252

[HitObjects]
96,112,9015,2,0,B|96:64,2,40
80,192,9615,1,0,0:0:0:0:
96,272,9915,2,0,B|224:272,1,120,4|0,0:0|0:0,0:0:0:0:
304,272,10656,1,0,0:0:0:0:
304,272,10803,1,0,0:0:0:0:
384,304,11097,6,0,B|400:264|384:224,1,80
352,152,11679,2,0,B|336:112|352:72,1,80,8|0,0:0|0:0,0:0:0:0:
272,104,12256,1,0,0:0:0:0:
192,128,12541,1,0,0:0:0:0:
192,128,12684,1,0,0:0:0:0:
112,128,12969,1,0,0:0:0:0:
112,128,13111,1,0,0:0:0:0:
32,120,13394,2,0,B|24:184|64:232,1,120
40,264,13954,2,0,B|64:304|56:344,1,80,8|0,0:0|0:0,0:0:0:0:
176,304,14510,6,0,B|296:304,1,120
424,304,15332,1,0,0:0:0:0:
360,256,15605,1,0,0:0:0:0:
424,208,15876,1,0,0:0:0:0:
360,152,16146,1,8,0:0:0:0:
336,132,16279,1,0,0:0:0:0:
312,112,16413,1,0,0:0:0:0:
240,152,16682,6,0,B|184:192|128:152,1,120
48,240,17476,1,0,0:0:0:0:
48,240,17739,2,0,B|104:200|160:240,1,120,0|0,0:0|0:0,0:0:0:0:
160,240,18260,2,0,B|248:224,1,80,8|0,0:0|0:0,0:0:0:0:
280,296,18778,6,0,B|400:328,2,120
336,240,19800,1,0,0:0:0:0:
336,240,19926,1,0,0:0:0:0:
384,176,20178,1,0,0:0:0:0:
384,176,20304,1,8,0:0:0:0:
336,112,20554,1,0,0:0:0:0:
256,96,20804,6,0,B|216:88|196:96|176:104|136:96,1,120
112,224,21422,1,0,0:0:0:0:
112,224,21545,1,0,0:0:0:0:
128,160,21791,2,0,B|168:168|188:160|208:152|248:160,1,120
288,168,22279,2,0,B|272:248,1,80,8|0,0:0|0:0,0:0:0:0:
344,280,22763,5,0,0:0:0:0:
448,344,23123,1,0,0:0:0:0:
448,344,23243,2,0,B|432:304|448:264,1,80,8|0,0:0|0:0,0:0:0:0:
480,144,23719,5,0,0:0:0:0:
376,80,24073,1,0,0:0:0:0:
376,80,24191,2,0,B|392:120|376:160,1,80,8|0,0:0|0:0,0:0:0:0:
304,120,24661,5,0,0:0:0:0:
168,168,25009,1,0,0:0:0:0:
168,168,25125,1,8,0:0:0:0:
256,200,25356,1,0,0:0:0:0:
168,240,25587,1,0,0:0:0:0:
168,240,25701,1,8,0:0:0:0:
168,240,25816,1,0,0:0:0:0:
304,280,26045,1,8,0:0:0:0:
304,120,26272,1,8,0:0:0:0:
152,56,26500,6,0,B|88:64|40:112,1,120,0|0,0:0|0:0,0:0:0:0:
45,106,26951,1,8,0:0:0:0:
24,184,27174,1,0,0:0:0:0:
48,264,27399,2,0,B|128:256,1,80
280,272,27843,2,0,B|200:280,1,80,8|0,0:0|0:0,0:0:0:0:
200,279,28284,6,0,B|176:216|216:160,1,120
212,164,28722,1,8,0:0:0:0:
304,88,28939,1,0,0:0:0:0:
304,88,29157,2,0,B|328:151|288:207,1,120
328,192,29589,2,0,B|360:264,1,80,8|0,0:0|0:0,0:0:0:0:
424,352,30017,6,0,B|464:304|464:240,1,120
432,224,30443,2,0,B|408:144,1,80,8|0,0:0|0:0,0:0:0:0:
472,96,30865,1,0,0:0:0:0:
400,56,31074,1,0,0:0:0:0:
320,72,31284,1,8,0:0:0:0:
320,72,31389,1,0,0:0:0:0:
320,72,31493,1,0,0:0:0:0:
216,176,31701,6,0,B|168:224|104:208,1,120,0|0,0:0|0:0,0:0:0:0:
40,192,32115,1,8,0:0:0:0:
64,112,32320,1,0,0:0:0:0:
144,128,32525,2,0,B|176:248,1,120
192,304,32935,1,8,0:0:0:0:
272,320,33137,1,0,0:0:0:0:
296,240,33340,1,0,0:0:0:0:
384,56,33642,5,0,0:0:0:0:
384,56,33742,2,0,B|432:64|432:112,1,80,8|0,0:0|0:0,0:0:0:0:
352,128,34143,1,0,0:0:0:0:
352,128,34242,2,0,B|240:72,1,120,0|8,0:0|0:0,0:0:0:0:
244,74,34737,1,8,0:0:0:0:
168,72,34934,5,0,0:0:0:0:
48,224,35229,1,0,0:0:0:0:
48,224,35327,1,8,0:0:0:0:
176,208,35522,1,0,0:0:0:0:
208,328,35717,1,0,0:0:0:0:
400,328,36007,1,0,0:0:0:0:
400,328,36104,1,8,0:0:0:0:
360,208,36296,1,0,0:0:0:0:
488,224,36488,1,0,0:0:0:0:
400,56,36774,5,0,0:0:0:0:
400,56,36870,1,8,0:0:0:0:
224,120,37154,1,0,0:0:0:0:
224,120,37249,1,0,0:0:0:0:
176,32,37438,1,0,0:0:0:0:
116,117,37627,1,8,0:0:0:0:
170,205,37815,1,0,0:0:0:0:
170,205,37909,1,0,0:0:0:0:
170,205,38003,1,0,0:0:0:0:
216,288,38189,6,0,B|176:312,2,40,0|0|8,0:0|0:0|0:0,0:0:0:0:
320,288,38560,2,0,B|360:312,2,40
267,197,38930,2,0,B|267:149,2,40,0|0|8,0:0|0:0|0:0,0:0:0:0:
368,64,39296,5,8,0:0:0:0:
368,64,39388,1,0,0:0:0:0:
368,64,39479,1,4,0:0:0:0:
392,136,39661,2,0,B|448:200|416:288,1,160
344,248,40204,2,0,B|280:304|192:272,1,160,0|8,0:0|0:0,0:0:0:0:
144,328,40742,2,0,B|88:264|120:176,1,160
168,112,41276,2,0,B|328:88,2,160,8|0|8,0:0|0:0|0:0,0:0:0:0:
120,48,42154,5,0,0:0:0:0:
48,88,42328,1,0,0:0:0:0:
56,168,42502,1,0,0:0:0:0:
56,168,42589,1,0,0:0:0:0:
56,168,42675,1,8,0:0:0:0:
80,312,42848,1,0,0:0:0:0:
80,312,43020,2,0,B|184:288|128:192,1,160,0|8,0:0|0:0,0:0:0:0:
192,144,43533,2,0,B|352:144,1,160
424,112,44042,2,0,B|424:152|416:192,1,80,8|0,0:0|0:0,0:0:0:0:
392,272,44380,5,0,0:0:0:0:
288,328,44631,1,0,0:0:0:0:
288,328,44715,1,8,0:0:0:0:
208,320,44881,1,0,0:0:0:0:
208,320,45048,1,0,0:0:0:0:
128,344,45214,6,0,B|104:312|112:264,1,80,0|8,0:0|0:0,0:0:0:0:
32,296,45544,1,0,0:0:0:0:
32,296,45710,2,0,B|72:136,1,160,0|8,0:0|0:0,0:0:0:0:
48,64,46201,2,0,B|128:48,1,80
168,120,46526,1,0,0:0:0:0:
168,120,46607,1,0,0:0:0:0:
168,120,46688,2,0,B|248:104,1,80,8|0,0:0|0:0,0:0:0:0:
312,56,47011,1,0,0:0:0:0:
488,104,47251,1,0,0:0:0:0:
488,104,47331,1,8,0:0:0:0:
384,160,47491,1,0,0:0:0:0:
424,232,47651,6,0,B|432:272|424:312,1,80
280,280,47968,1,8,0:0:0:0:
360,280,48125,2,0,B|184:280,1,160
128,320,48598,2,0,B|120:280|128:240,1,80,8|0,0:0|0:0,0:0:0:0:
48,248,48911,5,0,0:0:0:0:
32,168,49066,1,0,0:0:0:0:
104,136,49221,1,8,0:0:0:0:
168,192,49376,1,0,0:0:0:0:
168,192,49453,1,0,0:0:0:0:
168,192,49531,1,0,0:0:0:0:
352,272,49761,1,0,0:0:0:0:
352,272,49838,1,8,0:0:0:0:
296,152,49991,1,0,0:0:0:0:
344,88,50144,5,4,0:0:0:0:
344,88,50297,2,0,B|264:64,1,80,0|8,0:0|0:0,0:0:0:0:
192,96,50600,1,0,0:0:0:0:
192,96,50752,2,0,B|264:64,1,80
112,72,51053,1,12,0:0:0:0:
112,72,51204,2,0,B|192:96,1,80
32,112,51503,1,0,0:0:0:0:
32,112,51652,2,0,B|24:192,1,80,8|0,0:0|0:0,0:0:0:0:
96,224,51949,5,0,0:0:0:0:
256,304,52170,1,0,0:0:0:0:
256,304,52244,1,8,0:0:0:0:
416,224,52392,1,0,0:0:0:0:
416,224,52539,1,0,0:0:0:0:
456,152,52685,6,0,B|432:120,1,40
392,128,52831,2,0,B|400:48,1,80,8|0,0:0|0:0,0:0:0:0:
392,128,53123,2,0,B|352:176|272:160,1,120
216,144,53412,2,0,B|184:224,1,80,8|0,0:0|0:0,0:0:0:0:
128,272,53701,1,0,0:0:0:0:
104,192,53844,1,0,0:0:0:0:
104,192,53916,1,0,0:0:0:0:
104,192,53988,1,8,0:0:0:0:
128,112,54130,1,0,0:0:0:0:
96,40,54274,5,0,0:0:0:0:
256,88,54487,1,0,0:0:0:0:
256,88,54558,1,8,0:0:0:0:
416,40,54699,1,8,0:0:0:0:
416,40,54841,1,0,0:0:0:0:
456,184,54981,6,0,B|472:104,1,80,0|8,0:0|0:0,0:0:0:0:
312,248,55263,1,0,0:0:0:0:
392,240,55403,2,0,B|312:248,1,80
272,320,55682,1,8,0:0:0:0:
192,336,55820,2,0,B|104:344|32:320,1,160
29,332,56167,1,0,0:0:0:0:
25,343,56236,1,8,0:0:0:0:
112,64,56512,1,0,0:0:0:0:
400,88,56786,1,8,0:0:0:0:
432,160,56922,1,8,0:0:0:0:
400,232,57059,6,0,B|320:240|240:216,1,160,0|8,0:0|0:0,0:0:0:0:
304,168,57465,2,0,B|225:144|145:160,1,160
64,144,57870,2,0,B|96:216,1,80,8|0,0:0|0:0,0:0:0:0:
80,320,58137,5,0,0:0:0:0:
80,320,58270,2,0,B|160:288,1,80,0|8,0:0|0:0,0:0:0:0:
232,320,58536,1,0,0:0:0:0:
232,320,58603,1,0,0:0:0:0:
232,320,58669,2,0,B|304:288,1,80,4|0,0:0|0:0,0:0:0:0:
376,320,58934,2,0,B|448:288,1,80,4|0,0:0|0:0,0:0:0:0:
432,152,59197,5,4,0:0:0:0:
432,152,59459,2,0,B|344:192|280:104|192:152,1,240,8|0,0:0|0:0,0:0:0:0:
48,200,60109,1,0,0:0:0:0:
48,200,60238,2,0,B|216:144,1,160
40,128,60752,2,0,B|208:72,1,160
344,24,61261,5,0,0:0:0:0:
456,144,61515,1,0,0:0:0:0:
344,264,61767,1,8,0:0:0:0:
272,304,61892,2,0,B|112:304,1,160
40,272,62268,1,0,0:0:0:0:
72,200,62392,1,0,0:0:0:0:
40,128,62516,1,0,0:0:0:0:
184,56,62765,2,0,B|224:120|320:144|424:120|464:56,1,320,8|0,0:0|0:0,0:0:0:0:
376,192,63503,5,0,0:0:0:0:
464,328,63746,1,8,0:0:0:0:
464,328,63868,2,0,B|320:256,1,160
272,320,64230,1,0,0:0:0:0:
112,344,64471,1,0,0:0:0:0:
88,184,64712,1,8,0:0:0:0:
248,160,64951,1,0,0:0:0:0:
408,136,65190,5,0,0:0:0:0:
128,64,65427,2,0,B|288:64,1,160,0|8,0:0|0:0,0:0:0:0:
368,64,65780,1,0,0:0:0:0:
96,136,66015,1,0,0:0:0:0:
40,176,66133,2,0,B|96:232,1,80
40,272,66366,2,0,B|96:328,1,80
152,280,66599,2,0,B|264:240|352:344|464:280,1,320,8|0,0:0|0:0,0:0:0:0:
384,80,67291,5,0,0:0:0:0:
256,176,67520,1,8,0:0:0:0:
256,176,67634,1,0,0:0:0:0:
128,80,67861,1,0,0:0:0:0:
128,80,67975,1,0,0:0:0:0:
48,224,68202,1,0,0:0:0:0:
176,320,68427,1,8,0:0:0:0:
256,176,68651,1,0,0:0:0:0:
336,320,68876,1,0,0:0:0:0:
464,224,69099,1,0,0:0:0:0:
384,80,69321,1,8,0:0:0:0:
360,80,69431,2,0,B|200:80,1,160
176,80,69763,1,0,0:0:0:0:
152,80,69872,1,0,0:0:0:0:
128,80,69982,1,0,0:0:0:0:
176,232,70202,2,0,B|256:248|336:232,1,160,8|0,0:0|0:0,0:0:0:0:
424,272,70637,5,0,0:0:0:0:
296,176,70853,2,0,B|360:232|336:328,1,160,0|8,0:0|0:0,0:0:0:0:
272,272,71177,2,0,B|208:216|232:120,1,160,0|0,0:0|0:0,0:0:0:0:
160,96,71499,1,0,0:0:0:0:
352,160,71712,1,0,0:0:0:0:
128,256,71925,1,8,0:0:0:0:
384,320,72138,1,0,0:0:0:0:
464,80,72349,5,0,0:0:0:0:
304,48,72559,2,0,B|288:136|200:160,1,160,0|8,0:0|0:0,0:0:0:0:
128,176,72873,2,0,B|42:199|26:287,1,160
104,320,73187,6,0,B|176:280,1,80
248,312,73394,2,0,B|320:272,1,80
392,296,73601,1,8,0:0:0:0:
376,216,73704,1,0,0:0:0:0:
440,160,73807,1,0,0:0:0:0:
424,80,73909,1,0,0:0:0:0:
344,48,74013,5,4,0:0:0:0:
184,48,74217,1,0,0:0:0:0:
184,208,74421,1,0,0:0:0:0:
344,208,74625,1,0,0:0:0:0:
264,128,74827,5,0,0:0:0:0:
104,128,75030,1,0,0:0:0:0:
104,288,75231,1,0,0:0:0:0:
264,288,75432,1,4,0:0:0:0:
184,208,75632,5,0,0:0:0:0:
24,208,75831,1,0,0:0:0:0:
24,368,76029,1,0,0:0:0:0:
184,368,76228,1,8,0:0:0:0:
104,288,76425,5,8,0:0:0:0:
264,288,76621,1,0,0:0:0:0:
264,288,76720,1,8,0:0:0:0:
424,288,76915,1,0,0:0:0:0:
424,288,77013,1,8,0:0:0:0:
480,136,77208,5,8,0:0:0:0:
366,22,77402,1,0,0:0:0:0:
253,136,77595,1,0,0:0:0:0:
366,249,77788,1,0,0:0:0:0:
366,136,77981,5,0,0:0:0:0:
253,22,78172,1,0,0:0:0:0:
140,136,78364,1,0,0:0:0:0:
253,249,78554,1,0,0:0:0:0:
253,136,78743,5,0,0:0:0:0:
140,22,78933,1,0,0:0:0:0:
27,136,79122,1,0,0:0:0:0:
140,249,79310,1,8,0:0:0:0:
88,344,79498,5,8,0:0:0:0:
256,328,79684,1,0,0:0:0:0:
256,328,79778,1,8,0:0:0:0:
424,344,79963,1,0,0:0:0:0:
424,344,80057,1,8,0:0:0:0:
448,192,80242,5,8,0:0:0:0:
352,64,80426,1,0,0:0:0:0:
256,192,80611,1,0,0:0:0:0:
160,64,80794,1,0,0:0:0:0:
64,192,80976,5,0,0:0:0:0:
160,320,81159,1,0,0:0:0:0:
256,192,81340,1,0,0:0:0:0:
352,320,81522,1,0,0:0:0:0:
448,192,81703,5,0,0:0:0:0:
352,64,81883,1,0,0:0:0:0:
160,64,82062,1,0,0:0:0:0:
64,192,82242,1,8,0:0:0:0:
256,32,82421,5,8,0:0:0:0:
256,192,82687,1,8,0:0:0:0:
256,352,82952,1,8,0:0:0:0:
164,258,83130,5,8,0:0:0:0:
322,283,83305,1,0,0:0:0:0:
347,125,83481,1,0,0:0:0:0:
189,100,83655,1,0,0:0:0:0:
184,333,83830,5,0,0:0:0:0:
397,263,84003,1,0,0:0:0:0:
327,50,84177,1,0,0:0:0:0:
114,120,84350,1,0,0:0:0:0:
64,192,84523,6,0,B|16:256,2,80
56,320,84866,2,0,B|104:256,2,80,0|0|8,0:0|0:0|0:0,0:0:0:0:
184,288,85208,1,8,0:0:0:0:
224,288,85292,1,0,0:0:0:0:
264,288,85377,1,0,0:0:0:0:
304,288,85462,1,8,0:0:0:0:
432,288,85631,1,0,0:0:0:0:
432,288,85716,1,8,0:0:0:0:
472,168,85885,5,4,0:0:0:0:
392,192,86053,1,0,0:0:0:0:
408,112,86220,2,0,B|256:48|96:112,1,320,8|0,0:0|0:0,0:0:0:0:
24,136,86720,2,0,B|0:208|24:296,1,160,0|8,0:0|0:0,0:0:0:0:
88,344,87051,1,0,0:0:0:0:
160,312,87216,2,0,B|320:312,1,160
400,336,87544,1,8,0:0:0:0:
456,272,87708,1,0,0:0:0:0:
424,200,87871,2,8,B|368:160|272:256|192:200,2,240,8|8|8,0:0|0:0|0:0,0:0:0:0:
456,128,88519,5,0,0:0:0:0:
424,56,88679,1,0,0:0:0:0:
360,104,88840,2,0,B|280:96|200:104,1,160,8|0,0:0|0:0,0:0:0:0:
128,64,89160,1,0,0:0:0:0:
48,40,89319,2,0,B|40:120|48:200,1,160,0|8,0:0|0:0,0:0:0:0:
64,280,89636,1,0,0:0:0:0:
128,328,89793,2,0,B|208:336|288:328,2,160,0|0|8,0:0|0:0|0:0,0:0:0:0:
176,264,90265,1,0,0:0:0:0:
256,256,90421,6,0,B|304:192,1,80,8|0,0:0|0:0,0:0:0:0:
352,256,90576,2,8,B|400:192,1,80,8|0,0:0|0:0,0:0:0:0:
448,256,90732,2,0,L|496:192|448:128,1,160,8|8,0:0|0:0,0:0:0:0:
392,72,91042,5,0,0:0:0:0:
320,112,91196,1,0,0:0:0:0:
240,96,91350,1,8,0:0:0:0:
168,136,91503,2,0,B|80:112,1,80,8|0,0:0|0:0,0:0:0:0:
56,104,91657,1,0,0:0:0:0:
16,176,91809,1,0,0:0:0:0:
16,176,91886,1,0,0:0:0:0:
16,176,91962,1,8,0:0:0:0:
48,248,92114,5,0,0:0:0:0:
104,312,92265,2,0,B|264:312,1,160
312,248,92567,1,8,0:0:0:0:
312,248,92642,1,0,0:0:0:0:
312,248,92717,1,0,0:0:0:0:
376,304,92868,6,8,B|416:192|376:64,2,240
456,288,93464,5,8,0:0:0:0:
496,216,93612,1,0,0:0:0:0:
432,176,93759,2,0,B|384:104|424:24,1,160,8|0,0:0|0:0,0:0:0:0:
360,80,94054,1,0,0:0:0:0:
304,136,94200,2,0,B|232:184|152:136,1,160,0|8,0:0|0:0,0:0:0:0:
88,96,94493,1,0,0:0:0:0:
24,152,94638,2,0,B|0:232|24:312,2,160,0|0|8,0:0|0:0|0:0,0:0:0:0:
88,224,95074,5,8,0:0:0:0:
168,304,95218,5,8,0:0:0:0:
296,320,95361,5,8,0:0:0:0:
432,272,95505,5,8,0:0:0:0:
496,128,95648,5,8,0:0:0:0:
360,48,95791,6,0,B|192:48,1,160,4|0,0:0|0:0,0:0:0:0:
80,96,96076,1,8,0:0:0:0:
176,184,96218,2,0,B|504:184,1,320
384,120,96641,1,8,0:0:0:0:
368,248,96782,1,0,0:0:0:0:
280,344,96922,6,0,B|112:344,1,160
16,272,97201,1,8,0:0:0:0:
128,208,97341,2,0,B|320:304|384:120,1,320,0|8,0:0|0:0,0:0:0:0:
480,40,97757,1,8,0:0:0:0:
112,64,98032,5,0,0:0:0:0:
232,112,98169,1,0,0:0:0:0:
184,232,98305,1,8,0:0:0:0:
64,184,98442,2,0,B|224:144|376:232,1,320
456,328,98851,1,8,0:0:0:0:
328,352,98986,1,0,0:0:0:0:
200,336,99122,5,0,0:0:0:0:
160,216,99256,1,0,0:0:0:0:
120,336,99391,1,8,0:0:0:0:
224,264,99525,1,0,0:0:0:0:
96,264,99658,1,0,0:0:0:0:
96,136,99792,1,0,0:0:0:0:
224,136,99926,1,8,0:0:0:0:
456,328,100192,5,0,0:0:0:0:
360,248,100325,1,0,0:0:0:0:
456,160,100457,1,8,0:0:0:0:
360,72,100589,2,0,B|208:8|48:72,1,320
24,200,100982,5,8,0:0:0:0:
104,304,101112,1,0,0:0:0:0:
176,200,101243,1,0,0:0:0:0:
248,304,101374,1,0,0:0:0:0:
320,200,101504,1,8,0:0:0:0:
400,304,101633,1,0,0:0:0:0:
472,200,101891,5,8,0:0:0:0:
472,200,102020,5,8,0:0:0:0:
336,64,102277,6,0,B|176:64,1,160
80,88,102532,1,8,0:0:0:0:
96,184,102660,2,0,B|424:184,1,320
448,272,103040,1,8,0:0:0:0:
360,304,103167,1,0,0:0:0:0:
264,320,103293,5,0,0:0:0:0:
168,320,103418,1,0,0:0:0:0:
120,240,103544,1,8,0:0:0:0:
216,240,103669,1,0,0:0:0:0:
312,240,103794,1,0,0:0:0:0:
264,160,103918,1,0,0:0:0:0:
168,160,104043,1,8,0:0:0:0:
40,64,104292,5,4,0:0:0:0:
112,32,104415,1,0,0:0:0:0:
192,40,104539,1,8,0:0:0:0:
264,72,104662,2,0,B|432:32|432:296,1,320,0|8,0:0|0:0,0:0:0:0:
280,336,105152,1,0,0:0:0:0:
200,328,105274,1,0,0:0:0:0:
128,296,105395,1,0,0:0:0:0:
80,232,105517,1,8,0:0:0:0:
64,152,105639,1,0,0:0:0:0:
208,208,105880,1,0,0:0:0:0:
208,208,106001,1,8,0:0:0:0:
432,64,106241,5,4,0:0:0:0:
432,144,106360,1,0,0:0:0:0:
432,224,106480,1,8,0:0:0:0:
432,304,106600,2,0,B|336:344|224:264|112:312,1,320,0|8,0:0|0:0,0:0:0:0:
40,168,107075,5,0,0:0:0:0:
120,168,107193,1,0,0:0:0:0:
200,168,107310,1,0,0:0:0:0:
280,168,107428,1,8,0:0:0:0:
360,168,107545,1,0,0:0:0:0:
320,96,107663,2,0,B|152:96,1,160
80,96,107896,1,8,0:0:0:0:
24,248,108129,6,0,B|16:344|128:336,1,160
184,280,108360,1,8,0:0:0:0:
248,328,108476,2,0,B|440:368|448:96,1,320,0|8,0:0|0:0,0:0:0:0:
320,40,108937,5,0,0:0:0:0:
248,80,109051,2,0,B|88:80,1,160
136,144,109280,2,0,B|296:144,1,160,8|0,0:0|0:0,0:0:0:0:
152,216,109620,1,0,0:0:0:0:
152,216,109734,1,8,0:0:0:0:
56,344,109959,6,0,B|216:344,2,160,0|0|8,0:0|0:0|0:0,0:0:0:0:
104,280,110297,2,0,B|432:280,2,320,0|8|0,0:0|0:0|0:0,0:0:0:0:
152,216,110854,1,0,0:0:0:0:
208,160,110964,1,0,0:0:0:0:
280,200,111075,1,8,0:0:0:0:
360,192,111186,1,0,0:0:0:0:
408,128,111297,1,0,0:0:0:0:
360,64,111407,1,0,0:0:0:0:
280,56,111516,1,8,0:0:0:0:
120,48,111736,5,4,0:0:0:0:
64,128,111845,1,0,0:0:0:0:
136,192,111954,1,0,0:0:0:0:
64,256,112062,1,0,0:0:0:0:
120,336,112171,1,0,0:0:0:0:
312,336,112604,5,4,0:0:0:0:
416,296,112712,1,0,0:0:0:0:
464,192,112820,1,0,0:0:0:0:
416,96,112927,1,0,0:0:0:0:
312,48,113034,1,0,0:0:0:0:
256,112,113461,5,4,0:0:0:0:
176,248,113567,1,0,0:0:0:0:
336,248,113673,1,0,0:0:0:0:
256,112,113778,1,0,0:0:0:0:
104,176,113884,2,0,B|256:256|416:176,1,320
256,304,114306,5,4,0:0:0:0:
