osu file format v14

[General]
AudioFilename: deltaMAX.mp3
AudioLeadIn: 0
PreviewTime: 50145
Countdown: 1
SampleSet: None
StackLeniency: 0.7
Mode: 0
LetterboxInBreaks: 1
WidescreenStoryboard: 0

[Editor]
Bookmarks: 11850
DistanceSpacing: 1.3
BeatDivisor: 2
GridSize: 8
TimelineZoom: 1

[Metadata]
Title:deltaMAX
TitleUnicode:
Artist:DM Ashura
ArtistUnicode:
Creator:Sprosive
Version:Outdated
Source:DDR Forever
Tags:Dance Dance Revolution Universe 3 stepmania ignorethis lzy Doomsday DJNightmare tsuka
BeatmapID:790096
BeatmapSetID:359335

[Difficulty]
HPDrainRate:1
CircleSize:4
OverallDifficulty:8
ApproachRate:9
SliderMultiplier:1.2
SliderTickRate:0.5

[Events]
//Background and Video events
0,0,"deltaMAX-bg.png",0,0
//Break Periods
//Storyboard Layer 0 (Background)
//Storyboard Layer 1 (Fail)
//Storyboard Layer 2 (Pass)
//Storyboard Layer 3 (Foreground)
//Storyboard Sound Samples

[TimingPoints]
315,600,4,1,0,30,1,0
9915,594.059405940594,4,1,0,40,1,0
10509,588.235294117647,4,1,0,40,1,0
11097,582.52427184466,4,1,0,40,1,0
11679,576.923076923077,4,1,0,40,1,0
12256,571.428571428571,4,1,0,40,1,0
12828,566.037735849057,4,1,0,40,1,0
13394,560.747663551402,4,1,0,40,1,0
13954,555.555555555556,4,1,0,40,1,0
14510,550.45871559633,4,1,0,40,1,0
15060,545.454545454545,4,1,0,40,1,0
15606,540.540540540541,4,1,0,40,1,0
16146,535.714285714286,4,1,0,40,1,0
16682,530.973451327434,4,1,0,40,1,0
17213,526.315789473684,4,1,0,40,1,0
17739,521.739130434783,4,1,0,40,1,0
18261,517.241379310345,4,1,0,40,1,0
18778,512.820512820513,4,1,0,40,1,0
19291,508.474576271186,4,1,0,40,1,0
19800,504.201680672269,4,1,0,40,1,0
20304,500,4,1,0,40,1,0
20804,495.867768595041,4,1,0,40,1,0
21300,491.803278688525,4,1,0,40,1,0
21792,487.80487804878,4,1,0,40,1,0
22279,483.870967741935,4,1,0,40,1,0
22763,480,4,1,0,40,1,0
23243,476.190476190476,4,1,0,40,1,0
23719,472.44094488189,4,1,0,40,1,0
24192,468.75,4,1,0,40,1,0
24661,465.116279069767,4,1,0,40,1,0
25126,461.538461538462,4,1,0,40,1,0
25587,458.015267175572,4,1,0,40,1,0
26045,454.545454545455,4,1,0,40,1,0
26500,451.127819548872,4,1,0,45,1,0
26951,447.761194029851,4,1,0,45,1,0
27399,444.444444444444,4,1,0,45,1,0
27843,441.176470588235,4,1,0,45,1,0
28284,437.956204379562,4,1,0,45,1,0
28722,434.782608695652,4,1,0,45,1,0
29157,431.654676258993,4,1,0,45,1,0
29589,428.571428571429,4,1,0,45,1,0
30017,425.531914893617,4,1,0,45,1,0
30443,422.535211267606,4,1,0,45,1,0
30865,419.58041958042,4,1,0,45,1,0
31285,416.666666666667,4,1,0,45,1,0
31702,413.793103448276,4,1,0,45,1,0
32115,410.958904109589,4,1,0,45,1,0
32526,408.163265306122,4,1,0,45,1,0
32935,405.405405405405,4,1,0,45,1,0
33340,402.684563758389,4,1,0,45,1,0
33743,400,4,1,0,45,1,0
34143,397.350993377483,4,1,0,45,1,0
34540,394.736842105263,4,1,0,45,1,0
34935,392.156862745098,4,1,0,45,1,0
35327,389.61038961039,4,1,0,45,1,0
35717,387.096774193548,4,1,0,45,1,0
36104,384.615384615385,4,1,0,45,1,0
36488,382.165605095541,4,1,0,45,1,0
36870,379.746835443038,4,1,0,45,1,0
37250,377.358490566038,4,1,0,45,1,0
37628,375,4,1,0,45,1,0
38003,372.670807453416,4,1,0,45,1,0
38375,370.37037037037,4,1,0,45,1,0
38746,368.098159509202,4,1,0,45,1,0
39114,365.853658536585,4,1,0,45,1,0
39480,363.636363636364,4,1,0,50,1,0
39843,361.44578313253,4,1,0,50,1,0
40205,359.281437125748,4,1,0,50,1,0
40564,357.142857142857,4,1,0,50,1,0
40921,355.029585798817,4,1,0,50,1,0
41276,352.941176470588,4,1,0,50,1,0
41629,350.877192982456,4,1,0,50,1,0
41980,348.837209302326,4,1,0,50,1,0
42329,346.820809248555,4,1,0,50,1,0
42676,344.827586206897,4,1,0,50,1,0
43020,342.857142857143,4,1,0,50,1,0
43363,340.909090909091,4,1,0,50,1,0
43704,338.983050847458,4,1,0,50,1,0
44043,337.078651685393,4,1,0,50,1,0
44380,335.195530726257,4,1,0,50,1,0
44715,333.333333333333,4,1,0,50,1,0
45049,331.491712707182,4,1,0,50,1,0
45380,329.67032967033,4,1,0,50,1,0
45710,327.868852459016,4,1,0,50,1,0
46038,326.086956521739,4,1,0,50,1,0
46364,324.324324324324,4,1,0,50,1,0
46688,322.58064516129,4,1,0,50,1,0
47011,320.855614973262,4,1,0,50,1,0
47332,319.148936170213,4,1,0,50,1,0
47651,317.460317460317,4,1,0,50,1,0
47968,315.789473684211,4,1,0,50,1,0
48284,314.13612565445,4,1,0,50,1,0
48598,312.5,4,1,0,50,1,0
48911,310.880829015544,4,1,0,50,1,0
49222,309.278350515464,4,1,0,50,1,0
49531,307.692307692308,4,1,0,50,1,0
49838,306.122448979592,4,1,0,50,1,0
50145,304.568527918782,4,1,0,55,1,0
50449,303.030303030303,4,1,0,55,1,0
50752,301.507537688442,4,1,0,55,1,0
51054,300,4,1,0,55,1,0
51354,298.507462686567,4,1,0,55,1,0
51652,297.029702970297,4,1,0,55,1,0
51949,295.566502463054,4,1,0,55,1,0
52245,294.117647058824,4,1,0,55,1,0
52539,292.682926829268,4,1,0,55,1,0
52832,291.26213592233,4,1,0,55,1,0
53123,289.855072463768,4,1,0,55,1,0
53413,288.461538461538,4,1,0,55,1,0
53701,287.081339712919,4,1,0,55,1,0
53988,285.714285714286,4,1,0,55,1,0
54274,284.36018957346,4,1,0,55,1,0
54558,283.018867924528,4,1,0,55,1,0
54841,281.69014084507,4,1,0,55,1,0
55123,280.373831775701,4,1,0,55,1,0
55403,279.06976744186,4,1,0,55,1,0
55682,277.777777777778,4,1,0,55,1,0
55960,276.497695852535,4,1,0,55,1,0
56237,275.229357798165,4,1,0,55,1,0
56512,273.972602739726,4,1,0,55,1,0
56786,272.727272727273,4,1,0,55,1,0
57059,271.493212669683,4,1,0,55,1,0
57330,270.27027027027,4,1,0,55,1,0
57600,269.058295964126,4,1,0,55,1,0
57870,267.857142857143,4,1,0,55,1,0
58137,266.666666666667,4,1,0,55,1,0
58404,265.486725663717,4,1,0,55,1,0
58670,264.31718061674,4,1,0,55,1,0
58934,263.157894736842,4,1,0,55,1,0
59197,262.008733624454,4,1,0,60,1,0
59459,260.869565217391,4,1,0,40,1,0
59720,259.74025974026,4,1,0,60,1,0
59980,258.620689655172,4,1,0,60,1,0
60238,257.510729613734,4,1,0,60,1,0
60496,256.410256410256,4,1,0,60,1,0
60752,255.31914893617,4,1,0,60,1,0
61007,254.237288135593,4,1,0,60,1,0
61262,253.164556962025,4,1,0,60,1,0
61515,252.100840336134,4,1,0,60,1,0
61767,251.046025104603,4,1,0,60,1,0
62018,250,4,1,0,60,1,0
62268,248.96265560166,4,1,0,60,1,0
62517,247.933884297521,4,1,0,60,1,0
62765,246.913580246914,4,1,0,60,1,0
63012,245.901639344262,4,1,0,60,1,0
63258,244.897959183673,4,1,0,60,1,0
63503,243.90243902439,4,1,0,60,1,0
63747,242.914979757085,4,1,0,60,1,0
63989,241.935483870968,4,1,0,60,1,0
64231,240.963855421687,4,1,0,60,1,0
64472,240,4,1,0,60,1,0
64712,239.043824701195,4,1,0,60,1,0
64951,238.095238095238,4,1,0,60,1,0
65190,237.154150197628,4,1,0,60,1,0
65427,236.220472440945,4,1,0,60,1,0
65898,234.375,4,1,0,60,1,0
66133,233.463035019455,4,1,0,60,1,0
66366,232.558139534884,4,1,0,60,1,0
66599,231.660231660232,4,1,0,60,1,0
66830,230.769230769231,4,1,0,60,1,0
67061,229.885057471264,4,1,0,60,1,0
67291,229.007633587786,4,1,0,60,1,0
67520,228.136882129278,4,1,0,60,1,0
67748,227.272727272727,4,1,0,60,1,0
67975,226.415094339623,4,1,0,60,1,0
68202,225.563909774436,4,1,0,60,1,0
68427,224.719101123595,4,1,0,60,1,0
68652,223.880597014925,4,1,0,60,1,0
68876,223.048327137546,4,1,0,60,1,0
69099,222.222222222222,4,1,0,60,1,0
69321,221.40221402214,4,1,0,60,1,0
69543,220.588235294118,4,1,0,60,1,0
69763,219.78021978022,4,1,0,60,1,0
69983,218.978102189781,4,1,0,60,1,0
70202,218.181818181818,4,1,0,60,1,0
70420,217.391304347826,4,1,0,60,1,0
70637,216.606498194946,4,1,0,60,1,0
70854,215.827338129496,4,1,0,60,1,0
71070,215.05376344086,4,1,0,60,1,0
71285,214.285714285714,4,1,0,60,1,0
71499,213.523131672598,4,1,0,60,1,0
71713,212.765957446808,4,1,0,60,1,0
71926,212.014134275618,4,1,0,60,1,0
72138,211.267605633803,4,1,0,60,1,0
72349,210.526315789474,4,1,0,60,1,0
72559,209.79020979021,4,1,0,60,1,0
72769,209.059233449477,4,1,0,60,1,0
72978,208.333333333333,4,1,0,60,1,0
73187,207.612456747405,4,1,0,60,1,0
73394,206.896551724138,4,1,0,60,1,0
73601,206.185567010309,4,1,0,60,1,0
73807,205.479452054795,4,1,0,60,1,0
74013,204.778156996587,4,1,0,60,1,0
74217,204.081632653061,4,1,1,65,1,0
74422,203.389830508475,4,1,1,65,1,0
74625,202.702702702703,4,1,1,65,1,0
74828,202.020202020202,4,1,1,65,1,0
75030,201.342281879195,4,1,1,65,1,0
75231,200.66889632107,4,1,1,65,1,0
75432,200,4,1,1,65,1,0
75632,199.335548172757,4,1,1,65,1,0
75831,198.675496688742,4,1,1,65,1,0
76030,198.019801980198,4,1,1,65,1,0
76228,197.368421052632,4,1,1,65,1,0
76425,196.72131147541,4,1,1,65,1,0
76622,196.078431372549,4,1,1,65,1,0
76818,195.439739413681,4,1,1,65,1,0
77013,194.805194805195,4,1,1,65,1,0
77208,194.174757281553,4,1,1,65,1,0
77402,193.548387096774,4,1,1,65,1,0
77596,192.926045016077,4,1,1,65,1,0
77789,192.307692307692,4,1,1,65,1,0
77981,191.693290734824,4,1,1,65,1,0
78173,191.082802547771,4,1,1,65,1,0
78364,190.47619047619,4,1,1,65,1,0
78554,189.873417721519,4,1,1,65,1,0
78744,189.274447949527,4,1,1,65,1,0
78933,188.679245283019,4,1,1,65,1,0
79122,188.087774294671,4,1,1,65,1,0
79310,187.5,4,1,1,65,1,0
79498,186.915887850467,4,1,1,65,1,0
79685,186.335403726708,4,1,1,65,1,0
79871,185.758513931889,4,1,1,65,1,0
80057,185.185185185185,4,1,1,65,1,0
80242,184.615384615385,4,1,1,65,1,0
80427,184.049079754601,4,1,1,65,1,0
80611,183.48623853211,4,1,1,65,1,0
80794,182.926829268293,4,1,1,65,1,0
80977,182.370820668693,4,1,1,65,1,0
81159,181.818181818182,4,1,1,65,1,0
81341,181.268882175227,4,1,1,65,1,0
81522,180.722891566265,4,1,1,65,1,0
81703,180.18018018018,4,1,1,65,1,0
81883,179.640718562874,4,1,1,65,1,0
82063,179.10447761194,4,1,1,65,1,0
82242,178.571428571429,4,1,1,65,1,0
82421,178.041543026706,4,1,1,65,1,0
82599,177.514792899408,4,1,1,65,1,0
82776,176.991150442478,4,1,1,65,1,0
82953,176.470588235294,4,1,1,65,1,0
83130,175.953079178886,4,1,1,65,1,0
83306,175.438596491228,4,1,1,65,1,0
83481,174.927113702624,4,1,1,65,1,0
83656,174.418604651163,4,1,1,65,1,0
83830,173.913043478261,4,1,1,65,1,0
84004,173.410404624277,4,1,1,65,1,0
84178,172.910662824207,4,1,1,65,1,0
84351,172.413793103448,4,1,1,65,1,0
84523,171.919770773639,4,1,1,65,1,0
84695,171.428571428571,4,1,1,65,1,0
84866,170.940170940171,4,1,1,65,1,0
85037,170.454545454545,4,1,1,65,1,0
85208,169.971671388102,4,1,1,65,1,0
85378,169.491525423729,4,1,1,65,1,0
85547,169.014084507042,4,1,1,65,1,0
85716,168.539325842697,4,1,1,65,1,0
85885,168.067226890756,4,1,1,70,1,0
86053,167.597765363129,4,1,1,70,1,0
86221,167.130919220056,4,1,1,70,1,0
86388,166.666666666667,4,1,1,70,1,0
86554,166.204986149584,4,1,1,70,1,0
86721,165.745856353591,4,1,1,70,1,0
86886,165.289256198347,4,1,1,70,1,0
87052,164.835164835165,4,1,1,70,1,0
87216,164.383561643836,4,1,1,70,1,0
87381,163.934426229508,4,1,1,70,1,0
87545,163.487738419619,4,1,1,70,1,0
87708,163.04347826087,4,1,1,70,1,0
87871,162.60162601626,4,1,1,70,1,0
88034,162.162162162162,4,1,1,70,1,0
88196,161.725067385445,4,1,1,70,1,0
88358,161.290322580645,4,1,1,70,1,0
88519,160.857908847185,4,1,1,70,1,0
88680,160.427807486631,4,1,1,70,1,0
88840,160,4,1,1,70,1,0
89000,159.574468085106,4,1,1,70,1,0
89160,159.151193633952,4,1,1,70,1,0
89319,158.730158730159,4,1,1,70,1,0
89478,158.311345646438,4,1,1,70,1,0
89636,157.894736842105,4,1,1,70,1,0
89794,157.48031496063,4,1,1,70,1,0
89951,157.068062827225,4,1,1,70,1,0
90109,156.657963446475,4,1,1,70,1,0
90265,156.25,4,1,1,70,1,0
90421,155.844155844156,4,1,1,70,1,0
90577,155.440414507772,4,1,1,70,1,0
90733,155.038759689922,4,1,1,70,1,0
90888,154.639175257732,4,1,1,70,1,0
91042,154.241645244216,4,1,1,70,1,0
91197,153.846153846154,4,1,1,70,1,0
91350,153.452685421995,4,1,1,70,1,0
91504,153.061224489796,4,1,1,70,1,0
91657,152.671755725191,4,1,1,70,1,0
91810,152.284263959391,4,1,1,70,1,0
91962,151.898734177215,4,1,1,70,1,0
92114,151.515151515152,4,1,1,70,1,0
92265,151.133501259446,4,1,1,70,1,0
92417,150.753768844221,4,1,1,70,1,0
92567,150.375939849624,4,1,1,70,1,0
92718,150,4,1,1,70,1,0
92868,149.625935162095,4,1,1,70,1,0
93017,149.253731343284,4,1,1,70,1,0
93167,148.883374689826,4,1,1,70,1,0
93315,148.514851485149,4,1,1,70,1,0
93464,148.148148148148,4,1,1,70,1,0
93612,147.783251231527,4,1,1,70,1,0
93760,147.420147420147,4,1,1,70,1,0
93907,147.058823529412,4,1,1,70,1,0
94054,146.699266503667,4,1,1,70,1,0
94201,146.341463414634,4,1,1,70,1,0
94347,145.985401459854,4,1,1,70,1,0
94493,145.631067961165,4,1,1,70,1,0
94639,145.278450363196,4,1,1,70,1,0
94784,144.927536231884,4,1,1,70,1,0
94929,144.578313253012,4,1,1,70,1,0
95074,144.230769230769,4,1,1,70,1,0
95218,143.884892086331,4,1,1,70,1,0
95362,143.540669856459,4,1,1,70,1,0
95505,143.198090692124,4,1,1,70,1,0
95649,142.857142857143,4,1,1,70,1,0
95791,142.517814726841,4,1,1,75,1,0
95934,142.18009478673,4,1,1,75,1,0
96076,141.843971631206,4,1,1,75,1,0
96218,141.509433962264,4,1,1,75,1,0
96360,141.176470588235,4,1,1,75,1,0
96501,140.845070422535,4,1,1,75,1,0
96642,140.515222482436,4,1,1,75,1,0
96782,140.18691588785,4,1,1,75,1,0
96922,139.86013986014,4,1,1,75,1,0
97062,139.53488372093,4,1,1,75,1,0
97202,139.211136890951,4,1,1,75,1,0
97341,138.888888888889,4,1,1,75,1,0
97480,138.568129330254,4,1,1,75,1,0
97618,138.248847926267,4,1,1,75,1,0
97757,137.931034482759,4,1,1,75,1,0
97894,137.614678899083,4,1,1,75,1,0
98032,137.299771167048,4,1,1,75,1,0
98169,136.986301369863,4,1,1,75,1,0
98306,136.674259681093,4,1,1,75,1,0
98443,136.363636363636,4,1,1,75,1,0
98579,136.054421768707,4,1,1,75,1,0
98715,135.746606334842,4,1,1,75,1,0
98851,135.440180586907,4,1,1,75,1,0
98987,135.135135135135,4,1,1,75,1,0
99122,134.831460674157,4,1,1,75,1,0
99257,134.529147982063,4,1,1,75,1,0
99391,134.228187919463,4,1,1,75,1,0
99525,133.928571428571,4,1,1,75,1,0
99659,133.630289532294,4,1,1,75,1,0
99793,133.333333333333,4,1,1,75,1,0
99926,133.037694013304,4,1,1,75,1,0
100059,132.743362831858,4,1,1,75,1,0
100192,132.450331125828,4,1,1,75,1,0
100325,132.15859030837,4,1,1,75,1,0
100457,131.868131868132,4,1,1,75,1,0
100589,131.578947368421,4,1,1,75,1,0
100720,131.29102844639,4,1,1,75,1,0
100851,131.004366812227,4,1,1,75,1,0
100982,130.718954248366,4,1,1,75,1,0
101113,130.434782608696,4,1,1,75,1,0
101244,130.151843817787,4,1,1,75,1,0
101374,129.87012987013,4,1,1,75,1,0
101504,129.589632829374,4,1,1,75,1,0
101633,129.310344827586,4,1,1,75,1,0
101762,129.032258064516,4,1,1,75,1,0
101892,128.755364806867,4,1,1,75,1,0
102020,128.47965738758,4,1,1,75,1,0
102149,128.205128205128,4,1,1,75,1,0
102277,127.931769722814,4,1,1,75,1,0
102405,127.659574468085,4,1,1,75,1,0
102533,127.388535031847,4,1,1,75,1,0
102660,127.118644067797,4,1,1,75,1,0
102787,126.849894291755,4,1,1,75,1,0
102914,126.582278481013,4,1,1,75,1,0
103040,126.315789473684,4,1,1,75,1,0
103167,126.050420168067,4,1,1,75,1,0
103293,125.786163522013,4,1,1,75,1,0
103419,125.523012552301,4,1,1,75,1,0
103544,125.260960334029,4,1,1,75,1,0
103669,125,4,1,1,75,1,0
103794,124.740124740125,4,1,1,75,1,0
103919,124.48132780083,4,1,1,75,1,0
104044,124.223602484472,4,1,1,75,1,0
104168,123.96694214876,4,1,1,75,1,0
104292,123.711340206186,4,1,1,80,1,0
104416,123.456790123457,4,1,1,80,1,0
104539,123.203285420945,4,1,1,80,1,0
104662,122.950819672131,4,1,1,80,1,0
104785,122.699386503067,4,1,1,80,1,0
104908,122.448979591837,4,1,1,80,1,0
105030,122.199592668024,4,1,1,80,1,0
105153,121.951219512195,4,1,1,80,1,0
105274,121.703853955375,4,1,1,80,1,0
105396,121.457489878543,4,1,1,80,1,0
105518,121.212121212121,4,1,1,80,1,0
105639,120.967741935484,4,1,1,80,1,0
105760,120.724346076459,4,1,1,80,1,0
105881,120.481927710843,4,1,1,80,1,0
106001,120.240480961924,4,1,1,80,1,0
106121,120,4,1,1,80,1,0
106241,119.760479041916,4,1,1,80,1,0
106361,119.521912350598,4,1,1,80,1,0
106481,119.284294234592,4,1,1,80,1,0
106600,119.047619047619,4,1,1,80,1,0
106719,118.811881188119,4,1,1,80,1,0
106838,118.577075098814,4,1,1,80,1,0
106956,118.343195266272,4,1,1,80,1,0
107075,118.110236220472,4,1,1,80,1,0
107193,117.878192534381,4,1,1,80,1,0
107311,117.647058823529,4,1,1,80,1,0
107428,117.416829745597,4,1,1,80,1,0
107546,117.1875,4,1,1,80,1,0
107663,116.959064327485,4,1,1,80,1,0
107780,116.731517509728,4,1,1,80,1,0
107897,116.504854368932,4,1,1,80,1,0
108013,116.279069767442,4,1,1,80,1,0
108129,116.05415860735,4,1,1,80,1,0
108245,115.830115830116,4,1,1,80,1,0
108361,115.606936416185,4,1,1,80,1,0
108477,115.384615384615,4,1,1,80,1,0
108592,115.163147792706,4,1,1,80,1,0
108707,114.942528735632,4,1,1,80,1,0
108822,114.72275334608,4,1,1,80,1,0
108937,114.503816793893,4,1,1,80,1,0
109052,114.285714285714,4,1,1,80,1,0
109166,114.068441064639,4,1,1,80,1,0
109280,113.851992409867,4,1,1,80,1,0
109394,113.636363636364,4,1,1,80,1,0
109507,113.421550094518,4,1,1,80,1,0
109621,113.207547169811,4,1,1,80,1,0
109734,112.994350282486,4,1,1,80,1,0
109847,112.781954887218,4,1,1,80,1,0
109960,112.570356472795,4,1,1,80,1,0
110072,112.359550561798,4,1,1,80,1,0
110185,112.14953271028,4,1,1,80,1,0
110297,111.940298507463,4,1,1,80,1,0
110409,111.731843575419,4,1,1,80,1,0
110521,111.524163568773,4,1,1,80,1,0
110632,111.317254174397,4,1,1,80,1,0
110743,111.111111111111,4,1,1,80,1,0
110854,110.90573012939,4,1,1,80,1,0
110965,110.70110701107,4,1,1,80,1,0
111076,110.497237569061,4,1,1,80,1,0
111187,110.294117647059,4,1,1,80,1,0
111297,110.091743119266,4,1,1,80,1,0
111407,109.89010989011,4,1,1,80,1,0
111517,109.689213893967,4,1,1,80,1,0
111627,109.489051094891,4,1,1,80,1,0
111736,109.289617486339,4,1,1,90,1,0
111845,109.090909090909,4,1,1,90,1,0
111954,108.892921960073,4,1,1,90,1,0
112063,108.695652173913,4,1,1,90,1,0
112172,108.499095840868,4,1,1,90,1,0
112281,108.303249097473,4,1,1,90,1,0
112389,108.108108108108,4,1,1,90,1,0
112497,107.913669064748,4,1,1,90,1,0
112605,107.719928186715,4,1,1,90,1,0
112713,107.52688172043,4,1,1,90,1,0
112820,107.334525939177,4,1,1,90,1,0
112927,107.142857142857,4,1,1,90,1,0
113035,106.951871657754,4,1,1,90,1,0
113142,106.761565836299,4,1,1,90,1,0
113248,106.571936056838,4,1,1,90,1,0
113355,106.382978723404,4,1,1,90,1,0
113461,106.194690265487,4,1,1,90,1,0
113567,106.007067137809,4,1,1,90,1,0
113673,105.820105820106,4,1,1,90,1,0
113779,105.633802816901,4,1,1,90,1,0
113885,105.448154657294,4,1,1,90,1,0
113990,105.263157894737,4,1,1,90,1,0
114096,105.07880910683,4,1,1,90,1,0
114201,104.895104895105,4,1,1,90,1,0
114306,104.712041884817,4,1,1,100,1,1
114410,-100,4,1,1,100,0,0

[HitObjects]
256,192,315,1,4,0:0:0:0:
256,192,390,12,0,7520,0:0:0:0:
256,192,9015,6,0,B|288:192,2,30
192,192,9615,1,0,0:0:0:0:
128,192,9915,6,0,B|112:256|128:304,1,90,4|0,0:0|0:0,0:0:0:0:
256,176,11097,1,0,0:0:0:0:
352,272,11679,1,0,0:0:0:0:
400,232,11967,1,0,0:0:0:0:
416,176,12256,2,0,B|416:112|384:80,2,90
352,192,13394,2,0,B|208:192,1,120
144,88,14510,6,0,B|88:112|80:176,1,90
144,304,15606,1,0,0:0:0:0:
216,192,16146,1,0,0:0:0:0:
224,192,16279,1,0,0:0:0:0:
232,192,16413,1,0,0:0:0:0:
296,192,16682,6,0,B|296:136|336:104,1,90
432,224,17739,2,0,B|432:280|392:312,1,90
360,224,18519,1,0,0:0:0:0:
360,224,18778,6,0,B|264:224,1,90
120,224,19800,1,0,0:0:0:0:
120,224,19926,2,0,B|232:224,1,90
240,224,20554,1,0,0:0:0:0:
272,224,20804,6,0,B|272:128,1,90
272,224,21792,2,0,B|272:328,1,90
360,296,22520,5,0,0:0:0:0:
360,296,22763,2,0,B|408:280|392:208,1,90
328,88,23719,2,0,B|280:104|296:176,1,90
224,216,24426,1,0,0:0:0:0:
168,184,24661,5,0,0:0:0:0:
88,144,25009,1,0,0:0:0:0:
16,200,25356,1,0,0:0:0:0:
64,280,25701,1,0,0:0:0:0:
152,272,26045,1,0,0:0:0:0:
152,272,26272,1,0,0:0:0:0:
152,272,26500,6,0,B|200:304|240:296,1,90
360,216,27399,1,0,0:0:0:0:
304,104,27843,1,0,0:0:0:0:
248,96,28063,1,0,0:0:0:0:
192,104,28284,2,0,B|128:104|104:160,1,90
176,208,28939,1,0,0:0:0:0:
176,208,29157,2,0,B|248:224|288:160,1,120
376,96,30017,6,0,B|408:152|392:200,1,90
304,304,30865,1,0,0:0:0:0:
224,216,31285,1,0,0:0:0:0:
224,208,31389,1,0,0:0:0:0:
224,200,31493,1,0,0:0:0:0:
224,136,31702,2,0,B|120:136,1,90
72,272,32526,2,0,B|184:272,1,90
256,168,33340,6,0,B|256:272,1,90
384,224,34143,1,0,0:0:0:0:
384,224,34242,2,0,B|384:112,1,90
368,80,34737,1,0,0:0:0:0:
312,64,34935,2,0,B|200:64,1,90
72,64,35717,2,0,B|176:64,1,90
56,176,36488,6,0,B|56:280,1,90
80,248,36870,2,0,B|80:352,1,90
104,320,37250,2,0,B|200:320,1,90
176,296,37628,2,0,B|280:296,1,90
296,312,38003,6,0,B|344:280|320:216,1,90
344,216,38375,2,0,B|344:152|264:160,1,90
272,128,38746,2,0,B|232:80|176:128,1,90
168,96,39114,2,0,B|120:120|136:176,1,90
152,200,39480,5,4,0:0:0:0:
176,256,39661,2,0,B|232:304|288:256,1,120
328,216,40205,2,0,B|376:272|328:328,1,120,0|8,0:0|0:0,0:0:0:0:
272,344,40742,2,0,B|144:344,1,120
96,368,41276,2,0,B|48:312|96:256,1,120,8|0,0:0|0:0,0:0:0:0:
176,168,41980,1,8,0:0:0:0:
328,72,42502,5,0,0:0:0:0:
320,72,42589,1,0,0:0:0:0:
312,72,42676,1,8,0:0:0:0:
248,72,42848,1,0,0:0:0:0:
184,72,43020,2,0,B|48:72,1,120,0|8,0:0|0:0,0:0:0:0:
40,128,43533,2,0,B|176:128,1,120
184,184,44043,2,0,B|48:184,1,120,8|0,0:0|0:0,0:0:0:0:
56,184,44631,1,0,0:0:0:0:
48,184,44881,1,0,0:0:0:0:
40,184,45049,5,0,0:0:0:0:
48,240,45214,2,0,B|88:272|168:272,1,120
208,232,45710,2,0,B|312:240|320:280,1,120,0|8,0:0|0:0,0:0:0:0:
360,320,46201,2,0,B|416:280|416:208,1,120
415,218,46607,1,0,0:0:0:0:
415,218,46688,2,0,B|416:136|352:104,1,120,8|0,0:0|0:0,0:0:0:0:
256,72,47332,1,8,0:0:0:0:
144,120,47651,6,0,B|64:120|64:208,1,120,0|8,0:0|0:0,0:0:0:0:
128,192,48125,2,0,B|128:264|208:264,1,120
200,200,48598,2,0,B|200:120|280:120,1,120,8|0,0:0|0:0,0:0:0:0:
272,184,49066,2,0,B|352:184|352:272,1,120
352,264,49453,1,0,0:0:0:0:
352,272,49531,2,8,B|336:304|304:320|272:304|256:264,1,120,0|0,0:0|0:0,0:0:0:0:
152,224,50145,5,4,0:0:0:0:
152,224,50297,2,0,B|80:120,1,120
144,120,50752,2,0,B|176:-8,1,120,0|12,0:0|0:0,0:0:0:0:
216,40,51204,2,0,B|344:8,1,120
320,72,51652,2,0,B|456:80,1,120,8|0,0:0|0:0,0:0:0:0:
439,79,52245,1,8,0:0:0:0:
424,256,52685,5,0,0:0:0:0:
424,256,52758,1,0,0:0:0:0:
424,256,52832,1,8,0:0:0:0:
384,304,52977,1,0,0:0:0:0:
328,280,53123,2,0,B|240:272|200:232,1,120,0|8,0:0|0:0,0:0:0:0:
152,256,53557,2,0,B|80:192|64:136,1,120
80,104,53988,2,0,B|104:24|168:0,1,120,8|0,0:0|0:0,0:0:0:0:
256,56,54558,1,8,0:0:0:0:
432,104,54981,6,0,B|432:240,1,120
368,224,55403,2,0,B|232:224,1,120,0|8,0:0|0:0,0:0:0:0:
192,224,55820,2,0,B|192:352,1,120
192,344,56167,1,0,0:0:0:0:
192,344,56237,2,0,B|56:344,1,120,8|0,0:0|0:0,0:0:0:0:
72,224,56786,1,8,0:0:0:0:
72,104,57059,5,0,0:0:0:0:
184,64,57330,1,8,0:0:0:0:
184,64,57465,1,0,0:0:0:0:
256,160,57734,1,0,0:0:0:0:
256,160,57870,1,8,0:0:0:0:
328,64,58137,1,0,0:0:0:0:
328,64,58270,1,0,0:0:0:0:
440,96,58536,1,0,0:0:0:0:
440,96,58603,1,0,0:0:0:0:
440,96,58670,2,0,B|432:160|360:184,1,120
320,288,59197,5,4,0:0:0:0:
192,288,59459,1,0,0:0:0:0:
256,128,59849,2,0,B|256:256,1,120
256,320,60238,2,0,B|128:320,1,120
256,320,60752,2,0,B|384:320,1,120
416,224,61262,5,0,0:0:0:0:
416,96,61515,1,0,0:0:0:0:
256,160,61892,1,0,0:0:0:0:
256,160,62143,1,0,0:0:0:0:
224,160,62268,1,0,0:0:0:0:
192,160,62392,1,0,0:0:0:0:
160,160,62517,1,0,0:0:0:0:
32,160,62765,1,0,0:0:0:0:
160,320,63258,5,0,0:0:0:0:
344,320,63503,2,0,B|152:320,1,180
256,192,64109,1,0,0:0:0:0:
256,192,64231,1,0,0:0:0:0:
160,128,64472,1,0,0:0:0:0:
256,64,64712,1,0,0:0:0:0:
352,128,64951,1,0,0:0:0:0:
256,224,65190,5,0,0:0:0:0:
168,304,65427,2,0,B|360:304,1,180
304,192,66015,1,0,0:0:0:0:
304,192,66133,1,0,0:0:0:0:
288,160,66249,1,0,0:0:0:0:
256,144,66366,1,0,0:0:0:0:
224,160,66482,1,0,0:0:0:0:
208,192,66599,1,0,0:0:0:0:
80,80,67061,5,0,0:0:0:0:
48,160,67291,2,0,B|16:240|80:336,1,180
160,336,67861,1,0,0:0:0:0:
160,336,67975,1,0,0:0:0:0:
256,256,68202,1,0,0:0:0:0:
352,336,68427,1,0,0:0:0:0:
448,256,68652,1,0,0:0:0:0:
352,176,68876,5,0,0:0:0:0:
352,176,69099,1,0,0:0:0:0:
176,176,69431,1,0,0:0:0:0:
176,176,69653,1,0,0:0:0:0:
192,176,69763,1,0,0:0:0:0:
208,176,69872,1,0,0:0:0:0:
224,176,69983,1,0,0:0:0:0:
352,176,70202,1,0,0:0:0:0:
416,304,70637,5,0,0:0:0:0:
304,304,70854,2,0,B|112:304,1,180
124,304,71392,1,0,0:0:0:0:
124,304,71499,1,0,0:0:0:0:
64,208,71713,1,0,0:0:0:0:
176,144,71926,1,0,0:0:0:0:
128,32,72138,1,0,0:0:0:0:
240,64,72349,5,0,0:0:0:0:
368,64,72559,1,0,0:0:0:0:
240,64,72873,5,0,0:0:0:0:
368,64,73082,1,0,0:0:0:0:
384,80,73187,5,0,0:0:0:0:
376,104,73290,1,0,0:0:0:0:
368,128,73394,1,0,0:0:0:0:
360,152,73497,1,0,0:0:0:0:
368,176,73601,1,0,0:0:0:0:
376,200,73704,1,0,0:0:0:0:
384,224,73807,1,0,0:0:0:0:
376,248,73909,1,0,0:0:0:0:
368,272,74013,1,4,0:0:0:0:
256,320,74217,5,0,0:0:0:0:
144,304,74422,1,0,0:0:0:0:
256,288,74625,1,0,0:0:0:0:
144,272,74828,1,0,0:0:0:0:
256,256,75030,1,0,0:0:0:0:
144,240,75231,1,0,0:0:0:0:
256,224,75432,1,4,0:0:0:0:
144,208,75632,1,0,0:0:0:0:
256,192,75831,1,0,0:0:0:0:
144,176,76030,1,0,0:0:0:0:
256,160,76228,1,10,0:0:0:0:
144,144,76425,2,2,B|368:112,2,180
176,32,77208,5,2,0:0:0:0:
192,144,77402,1,0,0:0:0:0:
208,32,77596,1,0,0:0:0:0:
224,144,77789,1,0,0:0:0:0:
240,32,77981,1,0,0:0:0:0:
256,144,78173,1,0,0:0:0:0:
272,32,78364,1,0,0:0:0:0:
288,144,78554,1,0,0:0:0:0:
304,32,78744,1,0,0:0:0:0:
320,144,78933,1,0,0:0:0:0:
336,32,79122,1,0,0:0:0:0:
352,144,79310,1,10,0:0:0:0:
368,32,79498,1,2,0:0:0:0:
384,144,79685,1,0,0:0:0:0:
384,144,79778,1,2,0:0:0:0:
400,32,79963,1,0,0:0:0:0:
400,32,80057,1,2,0:0:0:0:
416,144,80242,5,2,0:0:0:0:
416,272,80427,1,0,0:0:0:0:
288,272,80611,1,0,0:0:0:0:
288,144,80794,1,0,0:0:0:0:
208,64,80977,1,0,0:0:0:0:
128,144,81159,1,0,0:0:0:0:
208,224,81341,1,0,0:0:0:0:
128,304,81522,1,0,0:0:0:0:
240,352,81703,1,0,0:0:0:0:
368,352,81883,1,0,0:0:0:0:
288,272,82063,1,0,0:0:0:0:
416,272,82242,1,10,0:0:0:0:
352,176,82421,1,2,0:0:0:0:
352,176,82687,1,2,0:0:0:0:
352,176,82953,1,2,0:0:0:0:
256,96,83130,5,2,0:0:0:0:
144,128,83306,1,0,0:0:0:0:
256,160,83481,1,0,0:0:0:0:
144,192,83656,1,0,0:0:0:0:
256,224,83830,1,0,0:0:0:0:
144,256,84004,1,0,0:0:0:0:
256,288,84178,1,0,0:0:0:0:
144,320,84351,1,0,0:0:0:0:
256,352,84523,1,0,0:0:0:0:
264,352,84608,1,0,0:0:0:0:
272,352,84695,1,0,0:0:0:0:
376,288,84866,1,0,0:0:0:0:
368,288,84951,1,0,0:0:0:0:
360,288,85037,1,10,0:0:0:0:
456,216,85208,1,2,0:0:0:0:
464,216,85292,1,0,0:0:0:0:
472,216,85378,1,0,0:0:0:0:
480,216,85462,2,2,B|304:216,1,120,2|0,0:0|0:0,0:0:0:0:
352,216,85716,1,2,0:0:0:0:
256,144,85885,5,6,0:0:0:0:
144,96,86053,1,0,0:0:0:0:
32,144,86221,2,2,B|176:144,1,120,10|0,0:0|0:0,0:0:0:0:
256,208,86554,1,0,0:0:0:0:
144,240,86721,2,2,B|16:240,1,120,2|8,0:0|0:0,0:0:0:0:
144,272,87052,1,0,0:0:0:0:
256,240,87216,2,2,B|384:240,1,120,2|0,0:0|0:0,0:0:0:0:
464,160,87545,1,8,0:0:0:0:
384,64,87708,1,2,0:0:0:0:
288,144,87871,2,2,B|80:144,2,180
368,240,88519,5,2,0:0:0:0:
288,336,88680,1,0,0:0:0:0:
192,272,88840,2,2,B|80:192,1,120,10|0,0:0|0:0,0:0:0:0:
176,112,89160,1,0,0:0:0:0:
272,176,89319,2,2,B|352:64,1,120,2|8,0:0|0:0,0:0:0:0:
448,144,89636,1,0,0:0:0:0:
368,240,89794,2,2,B|288:336,1,120,2|0,0:0|0:0,0:0:0:0:
192,272,90109,1,8,0:0:0:0:
96,208,90265,1,2,0:0:0:0:
176,112,90421,1,2,0:0:0:0:
192,112,90498,1,0,0:0:0:0:
208,112,90577,1,2,0:0:0:0:
224,112,90654,1,0,0:0:0:0:
240,112,90733,2,2,B|384:112,1,120,10|2,0:0|0:0,0:0:0:0:
432,208,91042,6,0,B|432:352,3,120,2|0|10|0,0:0|0:0|0:0|0:0,0:0:0:0:
312,328,91657,2,0,B|312:192,2,120,0|2|8,0:0|0:0|0:0,0:0:0:0:
192,328,92114,2,0,B|192:192,2,120,0|2|0,0:0|0:0|0:0,0:0:0:0:
72,328,92567,1,8,0:0:0:0:
72,208,92718,1,2,0:0:0:0:
72,88,92868,1,2,0:0:0:0:
248,88,93091,1,2,0:0:0:0:
432,88,93315,1,2,0:0:0:0:
432,208,93464,6,2,B|360:320,1,120,2|0,0:0|0:0,0:0:0:0:
256,344,93760,2,2,B|336:216,1,120,10|0,0:0|0:0,0:0:0:0:
304,120,94054,2,0,B|232:232,1,120,0|2,0:0|0:0,0:0:0:0:
120,256,94347,2,0,B|208:136,1,120,8|0,0:0|0:0,0:0:0:0:
96,80,94639,2,2,B|248:80,1,120,2|0,0:0|0:0,0:0:0:0:
336,80,94929,1,8,0:0:0:0:
336,200,95074,1,2,0:0:0:0:
256,288,95218,1,2,0:0:0:0:
176,200,95362,1,2,0:0:0:0:
256,112,95505,1,2,0:0:0:0:
336,200,95649,1,2,0:0:0:0:
256,288,95791,5,6,0:0:0:0:
136,288,95934,1,0,0:0:0:0:
256,272,96076,1,8,0:0:0:0:
136,272,96218,1,0,0:0:0:0:
256,256,96501,1,0,0:0:0:0:
136,256,96782,1,0,0:0:0:0:
256,240,96922,1,0,0:0:0:0:
136,240,97062,1,0,0:0:0:0:
256,224,97202,1,8,0:0:0:0:
136,224,97341,1,0,0:0:0:0:
256,208,97618,1,0,0:0:0:0:
136,208,97757,1,8,0:0:0:0:
344,80,98032,5,0,0:0:0:0:
464,80,98169,1,0,0:0:0:0:
464,200,98306,1,8,0:0:0:0:
344,200,98443,1,0,0:0:0:0:
344,80,98715,1,0,0:0:0:0:
224,80,98987,1,0,0:0:0:0:
104,80,99122,1,0,0:0:0:0:
104,200,99257,1,0,0:0:0:0:
224,200,99391,1,8,0:0:0:0:
224,320,99525,1,0,0:0:0:0:
344,320,99659,1,0,0:0:0:0:
344,200,99793,1,0,0:0:0:0:
464,200,99926,1,8,0:0:0:0:
232,144,100192,5,0,0:0:0:0:
176,256,100325,1,0,0:0:0:0:
288,296,100457,1,8,0:0:0:0:
344,184,100589,1,0,0:0:0:0:
120,88,100851,1,0,0:0:0:0:
344,184,101113,1,0,0:0:0:0:
288,296,101244,1,0,0:0:0:0:
176,256,101374,1,0,0:0:0:0:
232,144,101504,1,8,0:0:0:0:
344,184,101633,1,0,0:0:0:0:
104,160,101892,1,0,0:0:0:0:
216,208,102020,1,8,0:0:0:0:
448,64,102277,5,0,0:0:0:0:
320,96,102405,1,0,0:0:0:0:
192,64,102533,1,8,0:0:0:0:
64,96,102660,1,0,0:0:0:0:
128,320,102914,1,0,0:0:0:0:
384,320,103167,1,0,0:0:0:0:
256,288,103293,1,0,0:0:0:0:
320,192,103419,1,0,0:0:0:0:
192,192,103544,1,8,0:0:0:0:
256,288,103669,1,0,0:0:0:0:
328,184,103794,1,0,0:0:0:0:
184,184,103919,1,0,0:0:0:0:
256,296,104044,1,0,0:0:0:0:
256,56,104292,5,4,0:0:0:0:
136,64,104416,1,0,0:0:0:0:
256,80,104539,1,8,0:0:0:0:
376,64,104662,1,0,0:0:0:0:
256,272,104908,1,0,0:0:0:0:
256,272,105153,1,0,0:0:0:0:
256,152,105274,1,0,0:0:0:0:
376,168,105396,1,0,0:0:0:0:
256,184,105518,1,8,0:0:0:0:
136,168,105639,1,0,0:0:0:0:
256,376,105881,2,0,B|256:224,1,120,0|8,0:0|0:0,0:0:0:0:
80,96,106241,5,4,0:0:0:0:
128,208,106361,1,0,0:0:0:0:
112,96,106481,1,8,0:0:0:0:
160,208,106600,2,0,B|256:344|352:208,2,240,0|0|0,0:0|0:0|0:0,0:0:0:0:
144,96,107193,2,0,B|288:48,1,120
240,176,107428,2,0,B|368:128,1,120,8|0,0:0|0:0,0:0:0:0:
320,256,107663,2,0,B|480:192,1,120,0|8,0:0|0:0,0:0:0:0:
416,336,107897,1,8,0:0:0:0:
176,336,108129,6,0,B|32:336,1,120
160,288,108361,2,0,B|288:288,1,120,8|0,0:0|0:0,0:0:0:0:
176,240,108707,1,0,0:0:0:0:
176,240,108937,1,0,0:0:0:0:
160,192,109052,2,0,B|32:192,1,120
176,144,109280,2,0,B|320:144,1,120,8|0,0:0|0:0,0:0:0:0:
160,96,109621,1,0,0:0:0:0:
160,96,109734,1,8,0:0:0:0:
400,64,109960,6,0,B|400:192,1,120
400,304,110185,2,0,B|400:176,1,120,8|0,0:0|0:0,0:0:0:0:
160,192,110521,1,0,0:0:0:0:
400,192,110743,1,0,0:0:0:0:
280,192,110854,2,0,B|136:192,1,120
280,192,111076,2,0,B|432:192,1,120,8|0,0:0|0:0,0:0:0:0:
280,192,111297,2,0,B|280:56,1,120
280,192,111517,1,0,0:0:0:0:
128,224,111736,5,4,0:0:0:0:
80,80,111845,1,0,0:0:0:0:
208,176,111954,1,0,0:0:0:0:
48,176,112063,1,0,0:0:0:0:
176,80,112172,1,0,0:0:0:0:
336,288,112605,5,4,0:0:0:0:
480,240,112713,1,0,0:0:0:0:
384,368,112820,1,0,0:0:0:0:
384,208,112927,1,0,0:0:0:0:
480,336,113035,1,0,0:0:0:0:
256,112,113461,5,4,0:0:0:0:
208,256,113567,1,0,0:0:0:0:
328,160,113673,1,0,0:0:0:0:
176,160,113779,1,0,0:0:0:0:
304,256,113885,1,0,0:0:0:0:
256,192,114306,5,4,0:0:0:0:
