osu file format v14

[General]
AudioFilename: deltaMAX.mp3
AudioLeadIn: 0
PreviewTime: 50145
Countdown: 1
SampleSet: None
StackLeniency: 0.7
Mode: 0
LetterboxInBreaks: 1
WidescreenStoryboard: 0

[Editor]
Bookmarks: 11850,28439,41420,52084,61137,75952,87824,97731,106231,113676,116246,121046
DistanceSpacing: 0.7
BeatDivisor: 2
GridSize: 8
TimelineZoom: 1

[Metadata]
Title:deltaMAX
TitleUnicode:
Artist:DM Ashura
ArtistUnicode:
Creator:Sprosive
Version:NightMAX
Source:DDR Forever
Tags:Dance Dance Revolution Universe 3 stepmania ignorethis lzy Doomsday DJNightmare tsuka
BeatmapID:790095
BeatmapSetID:359335

[Difficulty]
HPDrainRate:5
CircleSize:4
OverallDifficulty:8
ApproachRate:8
SliderMultiplier:2
SliderTickRate:0.5

[Events]
//Background and Video events
0,0,"deltaMAX-bg.png",0,0
//Break Periods
//Storyboard Layer 0 (Background)
//Storyboard Layer 1 (Fail)
//Storyboard Layer 2 (Pass)
//Storyboard Layer 3 (Foreground)
//Storyboard Sound Samples

[TimingPoints]
315,600,4,1,0,40,1,0
9915,594.059405940594,4,1,0,40,1,0
10509,588.235294117647,4,1,0,40,1,0
11097,582.52427184466,4,1,0,40,1,0
11679,576.923076923077,4,1,0,40,1,0
12256,571.428571428571,4,1,0,40,1,0
12828,566.037735849057,4,1,0,40,1,0
13394,560.747663551402,4,1,0,40,1,0
13954,555.555555555556,4,1,0,40,1,0
14510,550.45871559633,4,1,0,40,1,0
15060,545.454545454545,4,1,0,40,1,0
15606,540.540540540541,4,1,0,40,1,0
16146,535.714285714286,4,1,0,40,1,0
16682,530.973451327434,4,1,0,40,1,0
17213,526.315789473684,4,1,0,40,1,0
17739,521.739130434783,4,1,0,40,1,0
18261,517.241379310345,4,1,0,40,1,0
18778,512.820512820513,4,1,0,40,1,0
19291,508.474576271186,4,1,0,40,1,0
19800,504.201680672269,4,1,0,40,1,0
20304,500,4,1,0,40,1,0
20804,495.867768595041,4,1,0,40,1,0
21300,491.803278688525,4,1,0,40,1,0
21792,487.80487804878,4,1,0,40,1,0
22279,483.870967741935,4,1,0,40,1,0
22763,480,4,1,0,40,1,0
23243,476.190476190476,4,1,0,40,1,0
23719,472.44094488189,4,1,0,40,1,0
24192,468.75,4,1,0,40,1,0
24661,465.116279069767,4,1,0,40,1,0
25126,461.538461538462,4,1,0,40,1,0
25587,458.015267175572,4,1,0,40,1,0
26045,454.545454545455,4,1,0,40,1,0
26500,451.127819548872,4,1,0,45,1,0
26951,447.761194029851,4,1,0,45,1,0
27399,444.444444444444,4,1,0,45,1,0
27843,441.176470588235,4,1,0,45,1,0
28284,437.956204379562,4,1,0,45,1,0
28722,434.782608695652,4,1,0,45,1,0
29157,431.654676258993,4,1,0,45,1,0
29589,428.571428571429,4,1,0,45,1,0
30017,425.531914893617,4,1,0,45,1,0
30443,422.535211267606,4,1,0,45,1,0
30865,419.58041958042,4,1,0,45,1,0
31285,416.666666666667,4,1,0,45,1,0
31702,413.793103448276,4,1,0,45,1,0
32115,410.958904109589,4,1,0,45,1,0
32526,408.163265306122,4,1,0,45,1,0
32935,405.405405405405,4,1,0,45,1,0
33340,402.684563758389,4,1,0,45,1,0
33743,400,4,1,0,45,1,0
34143,397.350993377483,4,1,0,45,1,0
34540,394.736842105263,4,1,0,45,1,0
34935,392.156862745098,4,1,0,45,1,0
35327,389.61038961039,4,1,0,45,1,0
35717,387.096774193548,4,1,0,45,1,0
36104,384.615384615385,4,1,0,45,1,0
36488,382.165605095541,4,1,0,45,1,0
36870,379.746835443038,4,1,0,45,1,0
37250,377.358490566038,4,1,0,45,1,0
37628,375,4,1,0,45,1,0
38003,372.670807453416,4,1,0,45,1,0
38375,370.37037037037,4,1,0,45,1,0
38746,368.098159509202,4,1,0,45,1,0
39114,365.853658536585,4,1,0,45,1,0
39480,363.636363636364,4,1,0,50,1,0
39843,361.44578313253,4,1,0,50,1,0
40205,359.281437125748,4,1,0,50,1,0
40564,357.142857142857,4,1,0,50,1,0
40921,355.029585798817,4,1,0,50,1,0
41276,352.941176470588,4,1,0,50,1,0
41629,350.877192982456,4,1,0,50,1,0
41980,348.837209302326,4,1,0,50,1,0
42329,346.820809248555,4,1,0,50,1,0
42676,344.827586206897,4,1,0,50,1,0
43020,342.857142857143,4,1,0,50,1,0
43363,340.909090909091,4,1,0,50,1,0
43704,338.983050847458,4,1,0,50,1,0
44043,337.078651685393,4,1,0,50,1,0
44380,335.195530726257,4,1,0,50,1,0
44715,333.333333333333,4,1,0,50,1,0
45049,331.491712707182,4,1,0,50,1,0
45380,329.67032967033,4,1,0,50,1,0
45710,327.868852459016,4,1,0,50,1,0
46038,326.086956521739,4,1,0,50,1,0
46364,324.324324324324,4,1,0,50,1,0
46688,322.58064516129,4,1,0,50,1,0
47011,320.855614973262,4,1,0,50,1,0
47332,319.148936170213,4,1,0,50,1,0
47651,317.460317460317,4,1,0,50,1,0
47968,315.789473684211,4,1,0,50,1,0
48284,314.13612565445,4,1,0,50,1,0
48598,312.5,4,1,0,50,1,0
48911,310.880829015544,4,1,0,50,1,0
49222,309.278350515464,4,1,0,50,1,0
49531,307.692307692308,4,1,0,50,1,0
49838,306.122448979592,4,1,0,50,1,0
50145,304.568527918782,4,1,0,55,1,0
50449,303.030303030303,4,1,0,55,1,0
50752,301.507537688442,4,1,0,55,1,0
51054,300,4,1,0,55,1,0
51354,298.507462686567,4,1,0,55,1,0
51652,297.029702970297,4,1,0,55,1,0
51949,295.566502463054,4,1,0,55,1,0
52245,294.117647058824,4,1,0,55,1,0
52539,292.682926829268,4,1,0,55,1,0
52832,291.26213592233,4,1,0,55,1,0
53123,289.855072463768,4,1,0,55,1,0
53413,288.461538461538,4,1,0,55,1,0
53701,287.081339712919,4,1,0,55,1,0
53988,285.714285714286,4,1,0,55,1,0
54274,284.36018957346,4,1,0,55,1,0
54558,283.018867924528,4,1,0,55,1,0
54841,281.69014084507,4,1,0,55,1,0
55123,280.373831775701,4,1,0,55,1,0
55403,279.06976744186,4,1,0,55,1,0
55682,277.777777777778,4,1,0,55,1,0
55960,276.497695852535,4,1,0,55,1,0
56237,275.229357798165,4,1,0,55,1,0
56512,273.972602739726,4,1,0,55,1,0
56786,272.727272727273,4,1,0,55,1,0
57059,271.493212669683,4,1,0,55,1,0
57330,270.27027027027,4,1,0,55,1,0
57600,269.058295964126,4,1,0,55,1,0
57870,267.857142857143,4,1,0,55,1,0
58137,266.666666666667,4,1,0,55,1,0
58404,265.486725663717,4,1,0,55,1,0
58670,264.31718061674,4,1,0,55,1,0
58934,263.157894736842,4,1,0,55,1,0
59197,262.008733624454,4,1,0,60,1,0
59459,260.869565217391,4,1,0,60,1,0
59720,259.74025974026,4,1,0,60,1,0
59980,258.620689655172,4,1,0,60,1,0
60238,257.510729613734,4,1,0,60,1,0
60496,256.410256410256,4,1,0,60,1,0
60752,255.31914893617,4,1,0,60,1,0
61007,254.237288135593,4,1,0,60,1,0
61262,253.164556962025,4,1,0,60,1,0
61515,252.100840336134,4,1,0,60,1,0
61767,251.046025104603,4,1,0,60,1,0
62018,250,4,1,0,60,1,0
62268,248.96265560166,4,1,0,60,1,0
62517,247.933884297521,4,1,0,60,1,0
62765,495.662949194548,4,1,0,60,1,0
62765,-200,4,1,0,60,0,0
63012,245.901639344262,4,1,0,60,1,0
63258,244.897959183673,4,1,0,60,1,0
63503,243.90243902439,4,1,0,60,1,0
63747,242.914979757085,4,1,0,60,1,0
63989,241.935483870968,4,1,0,60,1,0
64231,240.963855421687,4,1,0,60,1,0
64472,240,4,1,0,60,1,0
64712,239.043824701195,4,1,0,60,1,0
64951,238.095238095238,4,1,0,60,1,0
65190,237.154150197628,4,1,0,60,1,0
65427,236.220472440945,4,1,0,60,1,0
65663,235.294117647059,4,1,0,60,1,0
65898,234.375,4,1,0,60,1,0
66133,233.463035019455,4,1,0,60,1,0
66366,232.558139534884,4,1,0,60,1,0
66599,231.660231660232,4,1,0,60,1,0
66830,230.769230769231,4,1,0,60,1,0
67061,229.885057471264,4,1,0,60,1,0
67291,229.007633587786,4,1,0,60,1,0
67520,228.136882129278,4,1,0,60,1,0
67748,227.272727272727,4,1,0,60,1,0
67975,226.415094339623,4,1,0,60,1,0
68202,225.563909774436,4,1,0,60,1,0
68427,224.719101123595,4,1,0,60,1,0
68652,223.880597014925,4,1,0,60,1,0
68876,223.048327137546,4,1,0,60,1,0
69099,222.222222222222,4,1,0,60,1,0
69321,221.40221402214,4,1,0,60,1,0
69543,220.588235294118,4,1,0,60,1,0
69763,219.78021978022,4,1,0,60,1,0
69983,218.978102189781,4,1,0,60,1,0
70202,218.181818181818,4,1,0,60,1,0
70420,217.391304347826,4,1,0,60,1,0
70637,216.606498194946,4,1,0,60,1,0
70854,215.827338129496,4,1,0,60,1,0
71070,215.05376344086,4,1,0,60,1,0
71285,214.285714285714,4,1,0,60,1,0
71499,213.523131672598,4,1,0,60,1,0
71713,212.765957446808,4,1,0,60,1,0
71926,212.014134275618,4,1,0,60,1,0
72138,211.267605633803,4,1,0,60,1,0
72349,210.526315789474,4,1,0,60,1,0
72559,209.79020979021,4,1,0,60,1,0
72769,209.059233449477,4,1,0,60,1,0
72978,208.333333333333,4,1,0,60,1,0
73187,207.612456747405,4,1,0,60,1,0
73394,206.896551724138,4,1,0,60,1,0
73601,206.185567010309,4,1,0,60,1,0
73807,205.479452054795,4,1,0,60,1,0
74013,204.778156996587,4,1,0,65,1,0
74217,204.081632653061,4,1,0,65,1,0
74422,203.389830508475,4,1,0,65,1,0
74625,202.702702702703,4,1,0,65,1,0
74828,202.020202020202,4,1,0,65,1,0
75030,201.342281879195,4,1,0,65,1,0
75231,200.66889632107,4,1,0,65,1,0
75432,200,4,1,0,65,1,0
75632,199.335548172757,4,1,0,65,1,0
75831,198.675496688742,4,1,0,65,1,0
76030,198.019801980198,4,1,0,65,1,0
76228,197.368421052632,4,1,0,65,1,0
76425,196.72131147541,4,1,0,65,1,0
76622,196.078431372549,4,1,0,65,1,0
76818,195.439739413681,4,1,0,65,1,0
77013,194.805194805195,4,1,0,65,1,0
77208,194.174757281553,4,1,0,65,1,0
77402,193.548387096774,4,1,0,65,1,0
77596,192.926045016077,4,1,0,65,1,0
77789,192.307692307692,4,1,0,65,1,0
77981,191.693290734824,4,1,0,65,1,0
78173,191.082802547771,4,1,0,65,1,0
78364,190.47619047619,4,1,0,65,1,0
78554,189.873417721519,4,1,0,65,1,0
78744,189.274447949527,4,1,0,65,1,0
78933,188.679245283019,4,1,0,65,1,0
79122,188.087774294671,4,1,0,65,1,0
79310,187.5,4,1,0,65,1,0
79498,186.915887850467,4,1,0,65,1,0
79685,186.335403726708,4,1,0,65,1,0
79871,185.758513931889,4,1,0,65,1,0
80057,185.185185185185,4,1,0,65,1,0
80242,184.615384615385,4,1,0,65,1,0
80427,184.049079754601,4,1,0,65,1,0
80611,183.48623853211,4,1,0,65,1,0
80794,182.926829268293,4,1,0,65,1,0
80977,182.370820668693,4,1,0,65,1,0
81159,181.818181818182,4,1,0,65,1,0
81341,181.268882175227,4,1,0,65,1,0
81522,180.722891566265,4,1,0,65,1,0
81703,180.18018018018,4,1,0,65,1,0
81883,179.640718562874,4,1,0,65,1,0
82063,179.10447761194,4,1,0,65,1,0
82242,178.571428571429,4,1,0,65,1,0
82421,178.041543026706,4,1,0,65,1,0
82599,177.514792899408,4,1,0,65,1,0
82776,176.991150442478,4,1,0,65,1,0
82953,176.470588235294,4,1,0,65,1,0
83130,175.953079178886,4,1,0,65,1,0
83306,175.438596491228,4,1,0,65,1,0
83481,174.927113702624,4,1,0,65,1,0
83656,174.418604651163,4,1,0,65,1,0
83830,173.913043478261,4,1,0,65,1,0
84004,173.410404624277,4,1,0,65,1,0
84178,172.910662824207,4,1,0,65,1,0
84351,172.413793103448,4,1,0,65,1,0
84523,171.919770773639,4,1,0,65,1,0
84695,171.428571428571,4,1,0,65,1,0
84866,170.940170940171,4,1,0,65,1,0
85037,170.454545454545,4,1,0,65,1,0
85208,169.971671388102,4,1,0,65,1,0
85378,169.491525423729,4,1,0,65,1,0
85547,169.014084507042,4,1,0,65,1,0
85716,168.539325842697,4,1,0,65,1,0
85885,168.067226890756,4,1,0,70,1,0
86053,167.597765363129,4,1,0,70,1,0
86221,167.130919220056,4,1,0,70,1,0
86388,166.666666666667,4,1,0,70,1,0
86554,166.204986149584,4,1,0,70,1,0
86721,165.745856353591,4,1,0,70,1,0
86886,165.289256198347,4,1,0,70,1,0
87052,164.835164835165,4,1,0,70,1,0
87216,164.383561643836,4,1,0,70,1,0
87381,163.934426229508,4,1,0,70,1,0
87545,163.487738419619,4,1,0,70,1,0
87708,163.04347826087,4,1,0,70,1,0
87871,162.60162601626,4,1,0,70,1,0
88034,162.162162162162,4,1,0,70,1,0
88196,161.725067385445,4,1,0,70,1,0
88358,161.290322580645,4,1,0,70,1,0
88519,160.857908847185,4,1,0,70,1,0
88680,160.427807486631,4,1,0,70,1,0
88840,160,4,1,0,70,1,0
89000,159.574468085106,4,1,0,70,1,0
89160,159.151193633952,4,1,0,70,1,0
89319,158.730158730159,4,1,0,70,1,0
89478,158.311345646438,4,1,0,70,1,0
89636,157.894736842105,4,1,0,70,1,0
89794,157.48031496063,4,1,0,70,1,0
89951,157.068062827225,4,1,0,70,1,0
90109,156.657963446475,4,1,0,70,1,0
90265,156.25,4,1,0,70,1,0
90421,155.844155844156,4,1,0,70,1,0
90577,155.440414507772,4,1,0,70,1,0
90733,155.038759689922,4,1,0,70,1,0
90888,154.639175257732,4,1,0,70,1,0
91042,154.241645244216,4,1,0,70,1,0
91197,153.846153846154,4,1,0,70,1,0
91350,153.452685421995,4,1,0,70,1,0
91504,153.061224489796,4,1,0,70,1,0
91657,152.671755725191,4,1,0,70,1,0
91810,152.284263959391,4,1,0,70,1,0
91962,151.898734177215,4,1,0,70,1,0
92114,151.515151515152,4,1,0,70,1,0
92265,151.133501259446,4,1,0,70,1,0
92417,150.753768844221,4,1,0,70,1,0
92567,150.375939849624,4,1,0,70,1,0
92718,150,4,1,0,70,1,0
92868,149.625935162095,4,1,0,70,1,0
93017,149.253731343284,4,1,0,70,1,0
93167,148.883374689826,4,1,0,70,1,0
93315,148.514851485149,4,1,0,70,1,0
93464,148.148148148148,4,1,0,70,1,0
93612,147.783251231527,4,1,0,70,1,0
93760,147.420147420147,4,1,0,70,1,0
93907,147.058823529412,4,1,0,70,1,0
94054,146.699266503667,4,1,0,70,1,0
94201,146.341463414634,4,1,0,70,1,0
94347,145.985401459854,4,1,0,70,1,0
94493,145.631067961165,4,1,0,70,1,0
94639,145.278450363196,4,1,0,70,1,0
94784,144.927536231884,4,1,0,70,1,0
94929,144.578313253012,4,1,0,70,1,0
95074,144.230769230769,4,1,0,70,1,0
95218,143.884892086331,4,1,0,70,1,0
95362,143.540669856459,4,1,0,70,1,0
95505,143.198090692124,4,1,0,70,1,0
95649,142.857142857143,4,1,0,70,1,0
95791,142.517814726841,4,1,0,75,1,0
95934,142.18009478673,4,1,0,75,1,0
96076,141.843971631206,4,1,0,75,1,0
96218,141.509433962264,4,1,0,75,1,0
96360,141.176470588235,4,1,0,75,1,0
96501,140.845070422535,4,1,0,75,1,0
96642,140.515222482436,4,1,0,75,1,0
96782,140.18691588785,4,1,0,75,1,0
96922,139.86013986014,4,1,0,75,1,0
97062,139.53488372093,4,1,0,75,1,0
97202,139.211136890951,4,1,0,75,1,0
97341,138.888888888889,4,1,0,75,1,0
97480,138.568129330254,4,1,0,75,1,0
97618,138.248847926267,4,1,0,75,1,0
97757,137.931034482759,4,1,0,75,1,0
97894,137.614678899083,4,1,0,75,1,0
98032,137.299771167048,4,1,0,75,1,0
98169,136.986301369863,4,1,0,75,1,0
98306,136.674259681093,4,1,0,75,1,0
98443,136.363636363636,4,1,0,75,1,0
98579,136.054421768707,4,1,0,75,1,0
98715,135.746606334842,4,1,0,75,1,0
98851,135.440180586907,4,1,0,75,1,0
98987,135.135135135135,4,1,0,75,1,0
99122,134.831460674157,4,1,0,75,1,0
99257,134.529147982063,4,1,0,75,1,0
99391,134.228187919463,4,1,0,75,1,0
99525,133.928571428571,4,1,0,75,1,0
99659,133.630289532294,4,1,0,75,1,0
99793,133.333333333333,4,1,0,75,1,0
99926,133.037694013304,4,1,0,75,1,0
100059,132.743362831858,4,1,0,75,1,0
100192,132.450331125828,4,1,0,75,1,0
100325,132.15859030837,4,1,0,75,1,0
100457,131.868131868132,4,1,0,75,1,0
100589,131.578947368421,4,1,0,75,1,0
100720,131.29102844639,4,1,0,75,1,0
100851,131.004366812227,4,1,0,75,1,0
100982,130.718954248366,4,1,0,75,1,0
101113,130.434782608696,4,1,0,75,1,0
101244,130.151843817787,4,1,0,75,1,0
101374,129.87012987013,4,1,0,75,1,0
101504,129.589632829374,4,1,0,75,1,0
101633,129.310344827586,4,1,0,75,1,0
101762,129.032258064516,4,1,0,75,1,0
101892,128.755364806867,4,1,0,75,1,0
102020,128.47965738758,4,1,0,75,1,0
102149,128.205128205128,4,1,0,75,1,0
102277,127.931769722814,4,1,0,75,1,0
102405,127.659574468085,4,1,0,75,1,0
102533,127.388535031847,4,1,0,75,1,0
102660,127.118644067797,4,1,0,75,1,0
102787,126.849894291755,4,1,0,75,1,0
102914,126.582278481013,4,1,0,75,1,0
103040,126.315789473684,4,1,0,75,1,0
103167,126.050420168067,4,1,0,75,1,0
103293,125.786163522013,4,1,0,75,1,0
103419,125.523012552301,4,1,0,75,1,0
103544,125.260960334029,4,1,0,75,1,0
103669,125,4,1,0,75,1,0
103794,124.740124740125,4,1,0,75,1,0
103919,124.48132780083,4,1,0,75,1,0
104044,124.223602484472,4,1,0,75,1,0
104168,123.96694214876,4,1,0,75,1,0
104292,123.711340206186,4,1,0,80,1,0
104416,123.456790123457,4,1,0,80,1,0
104539,123.203285420945,4,1,0,80,1,0
104662,122.950819672131,4,1,0,80,1,0
104785,122.699386503067,4,1,0,80,1,0
104908,122.448979591837,4,1,0,80,1,0
105030,122.199592668024,4,1,0,80,1,0
105153,121.951219512195,4,1,0,80,1,0
105274,121.703853955375,4,1,0,80,1,0
105396,121.457489878543,4,1,0,80,1,0
105518,121.212121212121,4,1,0,80,1,0
105639,120.967741935484,4,1,0,80,1,0
105760,120.724346076459,4,1,0,80,1,0
105881,120.481927710843,4,1,0,80,1,0
106001,120.240480961924,4,1,0,80,1,0
106121,120,4,1,0,80,1,0
106241,119.760479041916,4,1,0,80,1,0
106361,119.521912350598,4,1,0,80,1,0
106481,119.284294234592,4,1,0,80,1,0
106600,119.047619047619,4,1,0,80,1,0
106719,118.811881188119,4,1,0,80,1,0
106838,118.577075098814,4,1,0,80,1,0
106956,118.343195266272,4,1,0,80,1,0
107075,118.110236220472,4,1,0,80,1,0
107193,117.878192534381,4,1,0,80,1,0
107311,117.647058823529,4,1,0,80,1,0
107428,117.416829745597,4,1,0,80,1,0
107546,117.1875,4,1,0,80,1,0
107663,116.959064327485,4,1,0,80,1,0
107780,116.731517509728,4,1,0,80,1,0
107897,116.504854368932,4,1,0,80,1,0
108013,116.279069767442,4,1,0,80,1,0
108129,116.05415860735,4,1,0,80,1,0
108245,115.830115830116,4,1,0,80,1,0
108361,115.606936416185,4,1,0,80,1,0
108477,115.384615384615,4,1,0,80,1,0
108592,115.163147792706,4,1,0,80,1,0
108707,114.942528735632,4,1,0,80,1,0
108822,114.72275334608,4,1,0,80,1,0
108937,114.503816793893,4,1,0,80,1,0
109052,114.285714285714,4,1,0,80,1,0
109166,114.068441064639,4,1,0,80,1,0
109280,113.851992409867,4,1,0,80,1,0
109394,113.636363636364,4,1,0,80,1,0
109507,113.421550094518,4,1,0,80,1,0
109621,113.207547169811,4,1,0,80,1,0
109734,112.994350282486,4,1,0,80,1,0
109847,112.781954887218,4,1,0,80,1,0
109960,112.570356472795,4,1,0,80,1,0
110072,112.359550561798,4,1,0,80,1,0
110185,112.14953271028,4,1,0,80,1,0
110297,111.940298507463,4,1,0,80,1,0
110409,111.731843575419,4,1,0,80,1,0
110521,111.524163568773,4,1,0,80,1,0
110632,111.317254174397,4,1,0,80,1,0
110743,111.111111111111,4,1,0,80,1,0
110854,110.90573012939,4,1,0,80,1,0
110965,110.70110701107,4,1,0,80,1,0
111076,110.497237569061,4,1,0,80,1,0
111187,110.294117647059,4,1,0,80,1,0
111297,110.091743119266,4,1,0,80,1,0
111407,109.89010989011,4,1,0,80,1,0
111517,109.689213893967,4,1,0,80,1,0
111627,109.489051094891,4,1,0,80,1,0
111736,109.289617486339,4,1,0,90,1,0
111845,109.090909090909,4,1,0,90,1,0
111954,108.892921960073,4,1,0,90,1,0
112063,108.695652173913,4,1,0,90,1,0
112172,108.499095840868,4,1,0,90,1,0
112281,108.303249097473,4,1,0,90,1,0
112389,108.108108108108,4,1,0,90,1,0
112497,107.913669064748,4,1,0,90,1,0
112605,107.719928186715,4,1,0,90,1,0
112713,107.52688172043,4,1,0,90,1,0
112820,107.334525939177,4,1,0,90,1,0
112927,107.142857142857,4,1,0,90,1,0
113035,106.951871657754,4,1,0,90,1,0
113142,106.761565836299,4,1,0,90,1,0
113248,106.571936056838,4,1,0,90,1,0
113355,106.382978723404,4,1,0,90,1,0
113461,106.194690265487,4,1,0,90,1,0
113567,106.007067137809,4,1,0,90,1,0
113673,105.820105820106,4,1,0,90,1,0
113779,105.633802816901,4,1,0,90,1,0
113885,105.448154657294,4,1,0,90,1,0
113990,105.263157894737,4,1,0,90,1,0
114096,105.07880910683,4,1,0,90,1,0
114201,104.895104895105,4,1,0,90,1,0
114306,1200,4,1,0,60,1,1
114306,-200,4,1,0,60,0,0
114456,-200,4,2,0,0,0,0

[Colours]
Combo1 : 255,255,255
Combo2 : 244,0,6
Combo3 : 129,69,252

[HitObjects]
256,192,315,5,4,0:0:0:0:
256,192,465,12,4,7515,0:0:0:0:
304,80,9015,5,0,0:0:0:0:
256,64,9165,1,0,0:0:0:0:
208,80,9315,1,0,0:0:0:0:
256,152,9615,1,0,0:0:0:0:
176,160,9915,6,0,B|120:152|112:88|48:80,2,150,4|8|0,0:0|0:0|0:0,0:0:0:0:
128,224,11097,2,0,B|96:272|32:280,1,100
72,352,11679,1,8,0:0:0:0:
112,336,11823,1,0,0:0:0:0:
152,320,11967,1,0,0:0:0:0:
240,288,12256,6,0,B|288:328|352:312|376:264,2,150,0|8|0,0:0|0:0|0:0,0:0:0:0:
184,232,13394,2,0,B|128:208|120:160,1,100
208,144,13954,2,0,B|184:88|232:40,1,100,8|0,0:0|0:0,0:0:0:0:
304,48,14510,6,0,B|352:16|392:88|456:48,2,150,0|8|0,0:0|0:0|0:0,0:0:0:0:
336,120,15606,2,0,B|376:152|432:152,1,100
312,200,16146,1,8,0:0:0:0:
344,224,16279,1,0,0:0:0:0:
376,248,16413,1,0,0:0:0:0:
304,304,16682,6,0,B|272:352|216:352|168:312,1,150,0|8,0:0|0:0,0:0:0:0:
240,240,17476,1,0,0:0:0:0:
160,224,17739,2,0,B|144:272|88:304|32:288,1,150,0|8,0:0|0:0,0:0:0:0:
64,192,18519,1,0,0:0:0:0:
112,128,18778,6,0,B|24:88|128:56|32:16,2,150,0|8|0,0:0|0:0|0:0,0:0:0:0:
184,88,19800,1,8,0:0:0:0:
216,80,19926,1,0,0:0:0:0:
232,152,20178,1,0,0:0:0:0:
264,144,20304,2,0,B|320:120|320:64,1,100
392,16,20804,6,0,B|448:48|400:112|488:128,1,150,8|0,0:0|0:0,0:0:0:0:
400,240,21545,1,0,0:0:0:0:
472,208,21792,2,0,B|496:256|464:304|392:320,1,150,8|0,0:0|0:0,0:0:0:0:
288,240,22520,1,0,0:0:0:0:
288,320,22763,6,0,B|248:272|192:272|136:312,1,150,8|0,0:0|0:0,0:0:0:0:
64,216,23481,1,0,0:0:0:0:
144,224,23719,2,0,B|136:160|80:136|24:144,1,150,8|0,0:0|0:0,0:0:0:0:
120,32,24426,1,0,0:0:0:0:
200,32,24661,6,0,B|240:88|296:88,1,100,8|0,0:0|0:0,0:0:0:0:
280,86,25009,1,0,0:0:0:0:
416,56,25356,2,0,B|384:104|384:152,1,100,0|8,0:0|0:0,0:0:0:0:
384,149,25701,1,0,0:0:0:0:
328,248,26045,2,0,B|384:224|432:264,1,100,8|0,0:0|0:0,0:0:0:0:
368,320,26500,6,0,B|424:320|448:376|520:376,2,150,0|8|0,0:0|0:0|0:0,0:0:0:0:
280,320,27399,1,0,0:0:0:0:
256,304,27510,1,0,0:0:0:0:
232,288,27621,1,0,0:0:0:0:
160,328,27843,1,8,0:0:0:0:
80,304,28063,1,0,0:0:0:0:
24,248,28284,6,0,B|80:208|16:160|80:112,2,150,0|8|0,0:0|0:0|0:0,0:0:0:0:
96,288,29157,2,0,B|144:256|160:200,1,100
96,152,29589,2,0,B|152:120|160:64,1,100,8|0,0:0|0:0,0:0:0:0:
224,32,30017,6,0,B|216:96|280:136|344:120,1,150,0|8,0:0|0:0,0:0:0:0:
424,40,30654,1,0,0:0:0:0:
448,112,30865,2,0,B|496:144|480:208,1,100,8|0,0:0|0:0,0:0:0:0:
416,176,31285,2,0,B|400:232|456:264,1,100
488,320,31702,6,0,B|440:352|384:296|344:360,1,150,8|0,0:0|0:0,0:0:0:0:
240,304,32320,1,0,0:0:0:0:
184,360,32526,6,0,B|184:304|112:296|112:232,1,150,8|0,0:0|0:0,0:0:0:0:
72,88,33137,1,0,0:0:0:0:
136,48,33340,6,0,B|168:96|224:112|280:96,1,150,8|0,0:0|0:0,0:0:0:0:
384,40,33943,1,0,0:0:0:0:
360,176,34143,1,8,0:0:0:0:
424,176,34341,1,0,0:0:0:0:
344,256,34540,1,0,0:0:0:0:
392,256,34638,1,0,0:0:0:0:
440,256,34737,1,0,0:0:0:0:
392,336,34935,5,8,0:0:0:0:
256,320,35229,1,0,0:0:0:0:
128,336,35521,1,0,0:0:0:0:
64,280,35717,5,8,0:0:0:0:
136,192,36007,1,0,0:0:0:0:
64,104,36296,1,0,0:0:0:0:
128,48,36488,5,8,0:0:0:0:
232,40,36774,2,0,B|272:80,1,50
328,168,37154,2,0,B|376:136,1,50,0|8,0:0|0:0,0:0:0:0:
456,56,37533,2,0,B|480:104,1,50
472,200,37909,2,0,B|456:248,1,50,0|8,0:0|0:0,0:0:0:0:
424,320,38189,1,0,0:0:0:0:
416,320,38282,1,0,0:0:0:0:
408,320,38375,1,8,0:0:0:0:
360,240,38560,1,0,0:0:0:0:
368,240,38652,1,0,0:0:0:0:
376,240,38746,1,8,0:0:0:0:
328,320,38930,1,0,0:0:0:0:
320,320,39022,1,0,0:0:0:0:
312,320,39114,1,8,0:0:0:0:
256,240,39296,1,0,0:0:0:0:
264,240,39388,1,0,0:0:0:0:
272,240,39480,5,4,0:0:0:0:
232,320,39661,1,0,0:0:0:0:
192,240,39843,1,0,0:0:0:0:
152,320,40023,1,0,0:0:0:0:
120,240,40205,2,0,B|88:192|32:192,2,100,8|0|0,0:0|0:0|0:0,0:0:0:0:
160,152,40742,2,0,B|152:104|96:64,2,100
232,88,41276,6,0,B|272:136|336:112,1,100
296,192,41629,2,0,B|368:184|408:224,1,100,8|0,0:0|0:0,0:0:0:0:
408,128,41980,2,0,B|456:160|512:144,1,100
504,224,42329,5,0,0:0:0:0:
456,304,42502,1,0,0:0:0:0:
464,304,42589,1,0,0:0:0:0:
472,304,42676,1,0,0:0:0:0:
424,224,42848,2,0,B|368:232|344:288,1,100,0|8,0:0|0:0,0:0:0:0:
296,352,43191,1,0,0:0:0:0:
248,280,43363,2,0,B|216:224|152:224,1,100
144,312,43704,5,0,0:0:0:0:
80,248,43873,2,0,B|40:208|56:144,1,100
136,168,44211,1,0,0:0:0:0:
104,96,44380,2,0,B|144:64|144:0,1,100,8|0,0:0|0:0,0:0:0:0:
208,72,44715,2,0,B|224:128|288:144,1,100
320,64,45049,5,0,0:0:0:0:
360,144,45214,1,0,0:0:0:0:
368,144,45297,1,0,0:0:0:0:
376,144,45380,1,0,0:0:0:0:
408,64,45544,1,0,0:0:0:0:
464,144,45710,2,0,B|456:208|512:240,1,100,8|0,0:0|0:0,0:0:0:0:
424,256,46038,2,0,B|464:296|456:352,1,100
384,320,46364,5,0,0:0:0:0:
320,272,46526,2,0,B|296:320|232:352,1,100
240,264,46849,1,0,0:0:0:0:
176,312,47011,2,0,B|152:256|184:192,1,100,8|0,0:0|0:0,0:0:0:0:
104,240,47332,2,0,B|128:176|64:136,1,100
32,88,47651,6,0,B|72:40|128:40,1,100
104,120,47968,1,0,0:0:0:0:
176,88,48125,2,0,B|224:128|280:112,1,100,0|8,0:0|0:0,0:0:0:0:
296,40,48441,1,0,0:0:0:0:
344,96,48598,2,0,B|384:48|448:56,1,100
456,128,48911,5,0,0:0:0:0:
392,176,49066,2,0,B|408:224|480:232,1,100
384,280,49376,1,0,0:0:0:0:
416,288,49453,1,0,0:0:0:0:
448,296,49531,2,0,B|440:352|392:376,1,100,8|0,0:0|0:0,0:0:0:0:
320,336,49838,2,0,B|312:272|240:256,1,100
240,336,50145,6,0,B|184:360|128:352,1,100
184,280,50449,2,0,B|120:288|72:256,1,100,8|0,0:0|0:0,0:0:0:0:
144,208,50752,2,0,B|88:192|48:144,1,100
136,128,51054,2,0,B|88:88|88:32,1,100,8|0,0:0|0:0,0:0:0:0:
176,56,51354,5,0,0:0:0:0:
256,24,51503,2,0,B|248:88|320:104,1,100,0|8,0:0|0:0,0:0:0:0:
360,40,51800,1,0,0:0:0:0:
408,104,51949,2,0,B|384:160|424:208,1,100
352,248,52245,1,8,0:0:0:0:
424,296,52392,1,0,0:0:0:0:
344,336,52539,6,0,B|288:336|248:288,1,100
192,240,52832,1,8,0:0:0:0:
136,304,52977,1,0,0:0:0:0:
80,240,53123,2,0,B|40:192|64:128,1,100
136,144,53413,1,8,0:0:0:0:
96,80,53557,1,0,0:0:0:0:
176,40,53701,5,0,0:0:0:0:
216,112,53844,1,0,0:0:0:0:
280,64,53988,1,8,0:0:0:0:
320,136,54130,1,0,0:0:0:0:
384,88,54274,2,0,B|432:184,1,100
480,112,54558,1,8,0:0:0:0:
512,184,54699,1,0,0:0:0:0:
448,240,54841,5,0,0:0:0:0:
480,312,54981,1,0,0:0:0:0:
416,360,55123,1,8,0:0:0:0:
384,288,55263,1,0,0:0:0:0:
344,216,55403,1,0,0:0:0:0:
384,288,55542,1,0,0:0:0:0:
320,336,55682,1,8,0:0:0:0:
280,264,55820,1,0,0:0:0:0:
232,192,55960,6,0,B|208:256|152:288,1,100
144,200,56237,2,0,B|96:232|24:216,1,100,8|0,0:0|0:0,0:0:0:0:
80,144,56512,2,0,B|112:96|104:40,1,100
176,104,56786,2,0,B|168:40|128:16,1,100,8|0,0:0|0:0,0:0:0:0:
232,40,57059,6,0,B|248:96|304:120,1,100
320,40,57330,1,8,0:0:0:0:
392,56,57465,1,0,0:0:0:0:
368,128,57600,1,0,0:0:0:0:
440,160,57734,2,0,B|440:224|504:248,1,100,0|8,0:0|0:0,0:0:0:0:
432,288,58003,2,0,B|408:336|352:352,1,100
352,272,58270,1,0,0:0:0:0:
288,312,58404,1,8,0:0:0:0:
240,248,58536,1,0,0:0:0:0:
176,288,58670,1,0,0:0:0:0:
128,224,58802,1,0,0:0:0:0:
64,264,58934,1,8,0:0:0:0:
16,200,59065,1,0,0:0:0:0:
80,160,59197,6,0,B|128:56|272:56,1,200,4|2,0:0|0:0,0:0:0:0:
400,72,59720,1,0,0:0:0:0:
448,136,59849,1,2,0:0:0:0:
400,200,59980,1,0,0:0:0:0:
400,336,60238,6,0,B|336:224|304:312|240:208,1,200,0|2,0:0|0:0,0:0:0:0:
56,224,60752,1,0,0:0:0:0:
56,48,61007,1,2,0:0:0:0:
224,48,61262,6,0,B|256:168|408:136|408:136,1,200,0|2,0:0|0:0,0:0:0:0:
392,272,61767,1,0,0:0:0:0:
464,256,61892,1,2,0:0:0:0:
392,272,62018,1,0,0:0:0:0:
264,312,62268,1,0,0:0:0:0:
192,328,62392,1,2,0:0:0:0:
264,312,62517,1,0,0:0:0:0:
192,192,62765,2,0,B|96:192,1,75,0|2,0:0|0:0,0:0:0:0:
80,192,63258,5,0,0:0:0:0:
256,80,63503,1,0,0:0:0:0:
408,184,63747,1,2,0:0:0:0:
456,264,63868,1,0,0:0:0:0:
392,328,63989,1,0,0:0:0:0:
312,288,64109,1,0,0:0:0:0:
320,200,64231,1,0,0:0:0:0:
296,376,64472,2,0,B|304:312|120:360|128:280,1,200,0|2,0:0|0:0,0:0:0:0:
200,192,64951,1,0,0:0:0:0:
96,88,65190,6,0,B|144:40|208:40|256:64|288:96,1,200
472,80,65663,1,2,0:0:0:0:
376,80,65780,2,0,B|432:184,1,100
328,168,66015,2,0,B|384:264,1,100
256,344,66366,5,0,0:0:0:0:
184,288,66482,1,0,0:0:0:0:
216,208,66599,1,2,0:0:0:0:
296,208,66714,1,0,0:0:0:0:
328,288,66830,1,0,0:0:0:0:
256,40,67061,6,0,B|208:80|144:88|80:88|40:72,1,200
256,40,67520,6,0,B|304:80|368:88|432:88|472:72,1,200,2|0,0:0|0:0,0:0:0:0:
192,160,67975,1,0,0:0:0:0:
256,112,68088,1,0,0:0:0:0:
320,160,68202,1,0,0:0:0:0:
192,240,68427,5,2,0:0:0:0:
256,280,68539,1,0,0:0:0:0:
320,240,68652,1,0,0:0:0:0:
192,160,68876,6,0,B|176:88|120:64|64:88|32:136,1,200
32,272,69321,1,2,0:0:0:0:
112,256,69431,1,0,0:0:0:0:
192,240,69543,1,0,0:0:0:0:
480,272,69763,1,0,0:0:0:0:
400,256,69872,1,0,0:0:0:0:
320,240,69983,1,0,0:0:0:0:
376,176,70092,1,0,0:0:0:0:
456,192,70202,2,0,B|496:144|480:80|432:48|368:48,1,200,2|0,0:0|0:0,0:0:0:0:
256,48,70637,6,0,B|192:32|168:112|104:112|56:64,1,200
24,192,71070,1,2,0:0:0:0:
112,192,71177,1,0,0:0:0:0:
176,248,71285,1,0,0:0:0:0:
112,312,71392,1,0,0:0:0:0:
24,312,71499,1,0,0:0:0:0:
176,248,71713,2,0,B|192:328|288:336|352:288,2,200,0|2|0,0:0|0:0|0:0,0:0:0:0:
344,208,72349,6,0,B|416:232|480:208|496:136|488:96,1,200
368,48,72769,1,2,0:0:0:0:
408,120,72873,1,0,0:0:0:0:
488,120,72978,1,0,0:0:0:0:
368,48,73187,5,0,0:0:0:0:
288,64,73290,1,2,0:0:0:0:
208,64,73394,1,0,0:0:0:0:
144,120,73497,1,2,0:0:0:0:
208,176,73601,1,0,0:0:0:0:
288,176,73704,1,2,0:0:0:0:
352,232,73807,1,0,0:0:0:0:
288,288,73909,1,2,0:0:0:0:
208,288,74013,5,4,0:0:0:0:
40,256,74217,6,0,B|80:208|80:152|48:112|-8:88,1,200,8|0,0:0|0:0,0:0:0:0:
160,40,74625,1,8,0:0:0:0:
160,40,74726,1,0,0:0:0:0:
160,40,74828,1,0,0:0:0:0:
352,40,75030,6,0,B|336:96|336:144|368:184|432:192,1,200,8|0,0:0|0:0,0:0:0:0:
352,320,75432,1,8,0:0:0:0:
352,320,75532,1,0,0:0:0:0:
352,320,75632,1,0,0:0:0:0:
160,336,75831,2,0,B|160:264|112:216|24:216,1,200,8|0,0:0|0:0,0:0:0:0:
56,88,76228,1,8,0:0:0:0:
88,96,76326,1,0,0:0:0:0:
120,104,76425,6,0,B|136:160|208:168|192:128|280:80|264:40|344:48|360:104,2,300,0|8|0,0:0|0:0|0:0,0:0:0:0:
40,192,77208,6,0,B|144:240|160:352,1,200,0|8,0:0|0:0,0:0:0:0:
344,344,77596,2,0,B|344:232|464:192,1,200,0|8,0:0|0:0,0:0:0:0:
455,195,77885,1,0,0:0:0:0:
455,195,77981,6,0,B|336:152|336:32,1,200,0|8,0:0|0:0,0:0:0:0:
168,40,78364,2,0,B|168:152|48:192,1,200,0|8,0:0|0:0,0:0:0:0:
56,188,78648,1,0,0:0:0:0:
56,188,78744,6,0,B|176:232|176:352,1,200,8|8,0:0|0:0,0:0:0:0:
256,272,79122,6,0,B|360:192|152:192|256:104,1,200,8|8,0:0|0:0,0:0:0:0:
256,40,79498,5,8,0:0:0:0:
80,328,79685,1,8,0:0:0:0:
80,328,79778,5,0,0:0:0:0:
448,328,79963,1,0,0:0:0:0:
448,328,80057,5,8,0:0:0:0:
440,192,80242,6,0,B|352:128|344:40|360:-8,1,200,0|8,0:0|0:0,0:0:0:0:
136,120,80611,1,0,0:0:0:0:
256,160,80794,1,8,0:0:0:0:
240,192,80885,1,0,0:0:0:0:
224,224,80977,1,0,0:0:0:0:
160,320,81159,6,0,B|256:280|256:368|368:304,1,200,8|0,0:0|0:0,0:0:0:0:
296,224,81522,1,8,0:0:0:0:
272,192,81612,1,0,0:0:0:0:
256,160,81703,1,0,0:0:0:0:
176,48,81883,6,0,B|272:0|216:40|256:32|224:48|240:64|240:40|224:56|288:48|272:64|272:40|288:56|256:72|296:64|240:104|336:48,1,200,8|0,0:0|0:0,0:0:0:0:
256,160,82242,1,0,0:0:0:0:
272,192,82331,1,0,0:0:0:0:
296,224,82421,6,0,B|352:336|440:336|512:224|504:144,2,300,0|8|0,0:0|0:0|0:0,0:0:0:0:
256,160,83130,5,0,0:0:0:0:
176,72,83306,1,8,0:0:0:0:
88,160,83481,1,0,0:0:0:0:
176,248,83656,1,8,0:0:0:0:
256,224,83830,5,0,0:0:0:0:
336,312,84004,1,8,0:0:0:0:
424,224,84178,1,0,0:0:0:0:
336,136,84351,1,8,0:0:0:0:
200,192,84523,6,0,B|256:104|384:112,1,200,0|8,0:0|0:0,0:0:0:0:
312,192,84866,6,0,B|256:280|128:272,1,200,0|8,0:0|0:0,0:0:0:0:
160,192,85208,5,0,0:0:0:0:
224,192,85292,5,0,0:0:0:0:
288,192,85378,5,8,0:0:0:0:
352,192,85462,5,8,0:0:0:0:
224,280,85631,5,0,0:0:0:0:
288,280,85716,5,8,0:0:0:0:
160,280,85885,5,0,0:0:0:0:
64,224,86053,1,0,0:0:0:0:
160,160,86221,2,2,B|136:64|189:22|288:16,1,200
288,128,86554,1,0,0:0:0:0:
416,64,86721,2,0,B|448:168|416:192|376:216|320:208,1,200,2|0,0:0|0:0,0:0:0:0:
288,128,87052,1,0,0:0:0:0:
344,208,87216,6,2,B|381:262|391:301|360:344|306:366|258:342,1,200
256,256,87545,1,0,0:0:0:0:
184,336,87708,2,0,B|104:272|120:192|192:160,1,200,2|0,0:0|0:0,0:0:0:0:
256,16,88115,6,0,B|256:96|160:144|48:104|48:-24,1,300
40,192,88519,5,0,0:0:0:0:
152,192,88680,1,0,0:0:0:0:
96,288,88840,2,0,B|160:384|272:384,1,200,2|0,0:0|0:0,0:0:0:0:
296,288,89160,1,0,0:0:0:0:
368,352,89319,2,0,B|456:272|464:184|448:136,1,200,2|0,0:0|0:0,0:0:0:0:
368,152,89636,1,0,0:0:0:0:
432,88,89794,2,0,B|408:8|336:-16|240:0,1,200,2|0,0:0|0:0,0:0:0:0:
248,80,90109,1,0,0:0:0:0:
176,24,90265,5,0,0:0:0:0:
144,48,90343,1,0,0:0:0:0:
112,72,90421,1,2,0:0:0:0:
80,96,90498,1,2,0:0:0:0:
56,120,90577,1,0,0:0:0:0:
32,144,90654,1,0,0:0:0:0:
0,168,90733,1,8,0:0:0:0:
72,224,90888,1,0,0:0:0:0:
96,320,91042,5,0,0:0:0:0:
160,256,91197,1,0,0:0:0:0:
184,344,91350,2,0,B|256:256|368:248,1,200,2|0,0:0|0:0,0:0:0:0:
336,160,91657,1,0,0:0:0:0:
424,192,91810,2,0,B|480:96|400:32|312:48,1,200,2|0,0:0|0:0,0:0:0:0:
288,96,92114,1,0,0:0:0:0:
280,8,92265,2,0,B|192:80|88:72,1,200,2|0,0:0|0:0,0:0:0:0:
48,144,92567,1,0,0:0:0:0:
120,192,92718,5,0,0:0:0:0:
56,256,92868,2,0,B|208:320|208:184|352:264,2,300,0|2|0,0:0|0:0|0:0,0:0:0:0:
120,192,93464,5,0,0:0:0:0:
48,144,93612,1,0,0:0:0:0:
128,104,93760,2,0,B|208:16|320:32,1,200,2|0,0:0|0:0,0:0:0:0:
320,112,94054,1,0,0:0:0:0:
384,56,94201,2,0,B|480:96|464:256,1,200,2|0,0:0|0:0,0:0:0:0:
376,208,94493,1,0,0:0:0:0:
408,296,94639,2,0,B|320:352|208:352,1,200,2|0,0:0|0:0,0:0:0:0:
160,296,94929,1,0,0:0:0:0:
72,256,95074,1,0,0:0:0:0:
144,200,95218,5,0,0:0:0:0:
248,80,95362,5,0,0:0:0:0:
368,184,95505,5,0,0:0:0:0:
264,296,95649,5,0,0:0:0:0:
144,200,95791,5,0,0:0:0:0:
88,128,95934,2,0,B|152:40|280:24,1,200,2|0,0:0|0:0,0:0:0:0:
320,88,96218,1,2,0:0:0:0:
144,200,96501,2,0,B|256:224|256:320|144:376|144:376|296:376,1,400,0|2,0:0|0:0,0:0:0:0:
352,312,96922,6,0,B|456:264|480:160,1,200,0|2,0:0|0:0,0:0:0:0:
384,176,97202,2,0,B|360:72|256:24,1,200,0|2,0:0|0:0,0:0:0:0:
56,192,97618,2,0,B|32:304|184:352,1,200,0|2,0:0|0:0,0:0:0:0:
256,264,98032,5,0,0:0:0:0:
384,192,98169,1,2,0:0:0:0:
256,120,98306,1,0,0:0:0:0:
136,192,98443,2,0,B|96:200|48:192|16:184|-16:160|-40:72|-32:8|56:-24|120:-32|152:-16|200:16,2,400,2|0|2,0:0|0:0|0:0,0:0:0:0:
256,264,99122,6,0,B|440:152,1,200
256,120,99391,6,0,B|80:232,1,200,2|0,0:0|0:0,0:0:0:0:
256,120,99659,1,0,0:0:0:0:
184,224,99793,1,0,0:0:0:0:
320,224,99926,1,2,0:0:0:0:
368,184,100192,5,2,0:0:0:0:
424,256,100325,2,0,B|360:344|232:360,1,200,0|2,0:0|0:0,0:0:0:0:
192,296,100621,1,0,0:0:0:0:
368,184,100851,2,0,B|256:160|256:64|368:8|368:8|216:8,1,400,0|2,0:0|0:0,0:0:0:0:
160,72,101244,6,0,B|56:120|32:224,1,200,0|2,0:0|0:0,0:0:0:0:
128,208,101504,2,0,B|152:312|256:360,1,200,0|2,0:0|0:0,0:0:0:0:
456,192,101892,2,0,B|480:80|328:32,1,200,0|2,0:0|0:0,0:0:0:0:
256,120,102277,5,0,0:0:0:0:
128,192,102405,1,2,0:0:0:0:
256,264,102533,1,0,0:0:0:0:
360,192,102660,2,0,B|400:200|448:192|480:184|512:160|536:72|528:8|464:-24|400:-24|344:-16|296:16,2,400,2|0|2,0:0|0:0|0:0,0:0:0:0:
256,120,103293,6,0,B|72:232,1,200
256,264,103544,6,2,B|432:152,1,200
256,264,103794,1,0,0:0:0:0:
328,160,103919,1,0,0:0:0:0:
192,160,104044,1,2,0:0:0:0:
176,264,104292,6,0,B|392:264,1,200,0|2,0:0|0:0,0:0:0:0:
336,120,104539,2,0,B|120:120,1,200,0|2,0:0|0:0,0:0:0:0:
232,192,104908,6,0,B|96:176|256:144|256:144|256:232|256:232|424:208|288:192,1,400,0|2,0:0|0:0,0:0:0:0:
256,144,105274,6,0,B|120:136|128:272,1,200,0|2,0:0|0:0,0:0:0:0:
256,232,105518,2,0,B|376:264|392:128,1,200,0|2,0:0|0:0,0:0:0:0:
152,72,105881,2,0,B|360:72,1,200,0|2,0:0|0:0,0:0:0:0:
336,120,106241,6,0,B|120:120,1,200,0|2,0:0|0:0,0:0:0:0:
176,264,106481,2,0,B|392:264,1,200,0|2,0:0|0:0,0:0:0:0:
280,192,106838,6,0,B|416:208|256:240|256:240|256:152|256:152|88:176|224:192,1,400,0|2,0:0|0:0,0:0:0:0:
256,240,107193,6,0,B|392:248|384:112,1,200,0|2,0:0|0:0,0:0:0:0:
256,152,107428,2,0,B|136:120|120:256,1,200,0|2,0:0|0:0,0:0:0:0:
152,344,107663,1,0,0:0:0:0:
256,240,107780,1,0,0:0:0:0:
352,344,107897,1,2,0:0:0:0:
336,120,108129,6,0,B|120:120,1,200,0|2,0:0|0:0,0:0:0:0:
176,264,108361,2,2,B|392:264,1,200
280,192,108707,6,0,B|416:208|256:240|256:240|256:152|256:152|88:176|224:192,1,400,0|2,0:0|0:0,0:0:0:0:
256,240,109052,6,0,B|392:248|384:112,1,200,0|2,0:0|0:0,0:0:0:0:
256,152,109280,2,0,B|136:120|120:256,1,200,0|2,0:0|0:0,0:0:0:0:
360,312,109621,2,0,B|152:312,1,200,0|2,0:0|0:0,0:0:0:0:
176,264,109960,6,0,B|392:264,1,200,0|2,0:0|0:0,0:0:0:0:
336,120,110185,2,0,B|120:120,1,200,0|2,0:0|0:0,0:0:0:0:
232,192,110521,6,0,B|96:176|256:144|256:144|256:232|256:232|424:208|288:192,1,400,0|2,0:0|0:0,0:0:0:0:
256,144,110854,6,0,B|120:136|128:272,1,200,0|2,0:0|0:0,0:0:0:0:
256,232,111076,2,0,B|376:264|392:128,1,200,0|2,0:0|0:0,0:0:0:0:
360,40,111297,1,0,0:0:0:0:
256,144,111407,1,0,0:0:0:0:
160,40,111517,1,2,0:0:0:0:
88,224,111736,5,8,0:0:0:0:
160,40,111845,1,8,0:0:0:0:
360,40,111954,1,8,0:0:0:0:
416,232,112063,1,8,0:0:0:0:
256,328,112172,1,8,0:0:0:0:
384,136,112605,5,2,0:0:0:0:
256,40,112713,1,2,0:0:0:0:
120,128,112820,1,2,0:0:0:0:
168,288,112927,1,2,0:0:0:0:
344,288,113035,1,2,0:0:0:0:
376,32,113461,5,8,0:0:0:0:
136,32,113567,1,8,0:0:0:0:
64,232,113673,1,8,0:0:0:0:
256,376,113779,1,8,0:0:0:0:
440,232,113885,1,4,0:0:0:0:
168,240,114306,6,4,L|256:96|256:96|336:240|168:240,1,500,4|0,0:0|0:0,0:0:0:0:
