osu file format v14

[General]
AudioFilename: deltaMAX.mp3
AudioLeadIn: 1000
PreviewTime: 50149
Countdown: 0
SampleSet: None
StackLeniency: 0.7
Mode: 0
LetterboxInBreaks: 1
WidescreenStoryboard: 0

[Editor]
Bookmarks: 11850,28439,41420,52084,61137,75952,87824,97731,106231,113676,116246
DistanceSpacing: 0.7
BeatDivisor: 1
GridSize: 16
TimelineZoom: 1

[Metadata]
Title:deltaMAX
TitleUnicode:
Artist:DM Ashura
ArtistUnicode:
Creator:Sprosive
Version:Extra
Source:DDR Forever
Tags:Dance Dance Revolution Universe 3 stepmania ignorethis lzy Doomsday tsuka Frank7654321
BeatmapID:790091
BeatmapSetID:359335

[Difficulty]
HPDrainRate:7
CircleSize:5
OverallDifficulty:5
ApproachRate:8
SliderMultiplier:2
SliderTickRate:0.5

[Events]
//Background and Video events
0,0,"deltaMAX-bg.png",0,0
Video,350,"deltaMAX.avi"
//Break Periods
//Storyboard Layer 0 (Background)
//Storyboard Layer 1 (Fail)
//Storyboard Layer 2 (Pass)
//Storyboard Layer 3 (Foreground)
Sprite,Foreground,Centre,"nothing.png",320,240 F,0,125410,,0
//Storyboard Sound Samples

[TimingPoints]
315,600,4,1,0,80,1,0
8115,-100,4,1,0,40,0,0
9915,594.088816278034,4,1,0,40,1,0
10509,588.264130594637,4,1,0,40,1,0
11097,582.552551094713,4,1,0,40,1,0
11680,576.950814943026,4,1,0,40,1,0
12257,571.455783608743,4,1,0,40,1,0
12828,566.064437001745,4,1,0,40,1,0
13394,560.773867937754,4,1,0,40,1,0
13955,555.581276910968,4,1,0,40,1,0
14511,550.483967154457,4,1,0,40,1,0
15061,545.479339969999,4,1,0,40,1,0
15606,540.564890310374,4,1,0,40,1,0
16147,535.73820259833,4,1,0,40,1,0
16683,530.996946767556,4,1,0,40,1,0
17214,526.33887451204,4,1,0,40,1,0
17740,521.761815731119,4,1,0,40,1,0
18262,517.263675158412,4,1,0,40,1,0
18779,512.84242916364,4,1,0,40,1,0
19292,508.496122717064,4,1,0,40,1,0
19800,504.222866506996,4,1,0,40,1,0
20304,500.020834201425,4,1,0,40,1,0
20804,495.888259845448,4,1,0,40,1,0
21300,491.823435386696,4,1,0,40,1,0
21792,487.824708321476,4,1,0,40,1,0
22280,483.890479454817,4,1,0,40,1,0
22764,480.019200768031,4,1,0,40,1,0
23244,476.209373387833,4,1,0,40,1,0
23720,472.459545651404,4,1,0,40,1,0
24192,468.768311262159,4,1,0,40,1,0
24661,465.1343075313,4,1,0,40,1,0
25126,461.556213700527,4,1,0,40,1,0
25588,458.032749341578,4,1,0,40,1,0
26046,454.562672828516,4,1,0,40,1,0
26501,451.144779878943,4,1,0,45,1,0
26952,447.777902160528,4,1,0,45,1,0
27400,444.46090595948,4,1,0,45,1,0
27844,441.192690907754,4,1,0,45,1,0
28285,437.972188766013,4,1,0,45,1,0
28723,434.798362259502,4,1,0,45,1,0
29158,431.670203964171,4,1,0,45,1,0
29590,428.586735240544,4,1,0,45,1,0
30019,425.547005212951,4,1,0,45,1,0
30445,422.550089791894,4,1,0,45,1,0
30868,419.595090737438,4,1,0,45,1,0
31288,416.681134761624,4,1,0,45,1,0
31705,413.807372668023,4,1,0,45,1,0
32119,410.972978526662,4,1,0,45,1,0
32530,408.177148882615,4,1,0,45,1,0
32938,405.419101996689,4,1,0,45,1,0
33343,402.698077116682,4,1,0,45,1,0
33746,400.013333777793,4,1,0,45,1,0
34146,397.364151130832,4,1,0,45,1,0
34543,394.749827296951,4,1,0,45,1,0
34938,392.169678747671,4,1,0,45,1,0
35330,389.623039709081,4,1,0,45,1,0
35720,387.109261589084,4,1,0,45,1,0
36107,384.62771242668,4,1,0,45,1,0
36492,382.177776362305,4,1,0,45,1,0
36874,379.758853128264,4,1,0,45,1,0
37254,377.370357558414,4,1,0,45,1,0
37631,375.011719116222,4,1,0,45,1,0
38006,372.682381440417,4,1,0,45,1,0
38379,370.381801907466,4,1,0,45,1,0
38749,368.10945121016,4,1,0,45,1,0
39117,365.864812951614,4,1,0,45,1,0
39483,363.647383254038,4,1,0,50,1,0
39847,361.456670381638,4,1,0,50,1,0
40208,359.292194377077,4,1,0,50,1,0
40567,357.153486710914,4,1,0,50,1,0
40924,355.040089943489,4,1,0,50,1,0
41279,352.951557398747,4,1,0,50,1,0
41632,350.887452849499,4,1,0,50,1,0
41983,348.847350213669,4,1,0,50,1,0
42332,346.830833261077,4,1,0,50,1,0
42679,344.837495330326,4,1,0,50,1,0
43024,342.866939055402,4,1,0,50,1,0
43367,340.918776101594,4,1,0,50,1,0
43708,338.992626910365,4,1,0,50,1,0
44047,337.088120452822,4,1,0,50,1,0
44384,335.204893991452,4,1,0,50,1,0
44719,333.342592849801,4,1,0,50,1,0
45052,331.500870189784,4,1,0,50,1,0
45384,329.679386796341,4,1,0,50,1,0
45714,327.877810869149,4,1,0,50,1,0
46042,326.095817821136,4,1,0,50,1,0
46368,324.333090083516,4,1,0,50,1,0
46692,322.589316917121,4,1,0,50,1,0
47015,320.864194229792,4,1,0,50,1,0
47336,319.157424399585,4,1,0,50,1,0
47655,317.468716103601,4,1,0,50,1,0
47972,315.797784152215,4,1,0,50,1,0
48288,314.144349328516,4,1,0,50,1,0
48602,312.508138232766,4,1,0,50,1,0
48915,310.888883131687,4,1,0,50,1,0
49226,309.286321812418,4,1,0,50,1,0
49535,307.70019744096,4,1,0,50,1,0
49843,306.13025842496,4,1,0,50,1,0
50149,304.576258280667,4,1,0,55,1,0
50454,303.037955503927,4,1,0,55,1,0
50757,301.515113445061,4,1,0,55,1,0
51059,300.007500187505,4,1,0,55,1,0
51359,298.51488843006,4,1,0,55,1,0
51658,297.037055372658,4,1,0,55,1,0
51955,295.573782605483,4,1,0,55,1,0
52251,294.124856001373,4,1,0,55,1,0
52545,292.690065611356,4,1,0,55,1,0
52838,291.269205563242,4,1,0,55,1,0
53129,289.862073963139,4,1,0,55,1,0
53419,288.468472799827,4,1,0,55,1,0
53707,287.088207851862,4,1,0,55,1,0
53994,285.721088597348,4,1,0,55,1,0
54280,284.366928126259,4,1,0,55,1,0
54564,283.025543055261,4,1,0,55,1,0
54847,281.696753444917,4,1,0,55,1,0
55129,280.380382719222,4,1,0,55,1,0
55409,279.076257587386,4,1,0,55,1,0
55688,277.784207967777,4,1,0,55,1,0
55966,276.504066913984,4,1,0,55,1,0
56243,275.235670542902,4,1,0,55,1,0
56518,273.978857964794,4,1,0,55,1,0
56792,272.733471215255,4,1,0,55,1,0
57065,271.499355189031,4,1,0,55,1,0
57336,270.276357575621,4,1,0,55,1,0
57606,269.06432879661,4,1,0,55,1,0
57875,267.863121944686,4,1,0,55,1,0
58143,266.672592724283,4,1,0,55,1,0
58410,265.492599393792,4,1,0,55,1,0
58675,264.323002709311,4,1,0,55,1,0
58939,263.163665869866,4,1,0,55,1,0
59202,262.014454464071,4,1,0,60,1,0
59464,260.875236418183,4,1,0,60,1,0
59725,259.745881945497,4,1,0,60,1,0
59985,258.626263497058,4,1,0,60,1,0
60244,257.516255713642,4,1,0,60,1,0
60502,256.415735378961,4,1,0,60,1,0
60758,255.324581374072,4,1,0,60,1,0
61013,254.242674632937,4,1,0,60,1,0
61267,253.169898099116,4,1,0,60,1,0
61520,252.106136683544,4,1,0,60,1,0
61772,251.051277223373,4,1,0,60,1,0
62023,250.005208441843,4,1,0,60,1,0
62273,248.967820909147,4,1,0,60,1,0
62522,247.939007004277,4,1,0,60,1,0
62769,246.918660877796,4,1,0,60,1,0
62769,-200,4,1,0,60,0,0
63017,245.906678415541,4,1,0,60,1,0
63263,244.902957203208,4,1,0,60,1,0
63508,243.907396491799,4,1,0,60,1,0
63752,242.91989716391,4,1,0,60,1,0
63995,241.940361700841,4,1,0,60,1,0
64237,240.968694150485,4,1,0,60,1,0
64478,240.004800096002,4,1,0,60,1,0
64718,239.048586625232,4,1,0,60,1,0
64957,238.099962300839,4,1,0,60,1,0
65195,237.158837131169,4,1,0,60,1,0
65432,236.225122541782,4,1,0,60,1,0
65668,235.298731347673,4,1,0,60,1,0
65903,234.379577726127,4,1,0,60,1,0
66137,233.467577190218,4,1,0,60,1,0
66370,232.562646562918,4,1,0,60,1,0
66602,231.664703951814,4,1,0,60,1,0
66602,-200,4,1,0,60,0,0
66835,230.773668724399,4,1,0,60,1,0
67066,229.889461483936,4,1,0,60,1,0
67296,229.012004045879,4,1,0,60,1,0
67525,228.141219414818,4,1,0,60,1,0
67753,227.277031761965,4,1,0,60,1,0
67980,226.41936640314,4,1,0,60,1,0
68206,225.568149777251,4,1,0,60,1,0
68432,224.72330942527,4,1,0,60,1,0
68657,223.884773969664,4,1,0,60,1,0
68881,223.052473094295,4,1,0,60,1,0
69104,222.226337524769,4,1,0,60,1,0
69326,221.406299009207,4,1,0,60,1,0
69547,220.592290299454,4,1,0,60,1,0
69768,219.784245132695,4,1,0,60,1,0
69988,218.982098213471,4,1,0,60,1,0
70207,218.185785196094,4,1,0,60,1,0
70425,217.39524266744,4,1,0,60,1,0
70642,216.610408130111,4,1,0,60,1,0
70859,215.831219985971,4,1,0,60,1,0
71075,215.057617520027,4,1,0,60,1,0
71290,214.289540884659,4,1,0,60,1,0
71504,213.526931084183,4,1,0,60,1,0
71718,212.769729959751,4,1,0,60,1,0
71931,212.017880174561,4,1,0,60,1,0
72143,211.271325199387,4,1,0,60,1,0
72354,210.530009298409,4,1,0,60,1,0
72565,209.793877515341,4,1,0,60,1,0
72775,209.062875659855,4,1,0,60,1,0
72984,208.336950294276,4,1,0,60,1,0
73192,207.616048720566,4,1,0,60,1,0
73400,206.900118967568,4,1,0,60,1,0
73607,206.189109778519,4,1,0,60,1,0
73813,205.482970598812,4,1,0,60,1,0
74018,204.78165156402,4,1,0,65,1,0
74223,204.085103488155,4,1,1,65,1,0
74427,203.393277852167,4,1,1,65,1,0
74630,202.706126792682,4,1,1,65,1,0
74833,202.023603090961,4,1,1,65,1,0
75035,201.345660162083,4,1,1,65,1,0
75236,200.672252044349,4,1,1,65,1,0
75437,200.00333338889,4,1,1,65,1,0
75637,199.338859449493,4,1,1,65,1,0
75836,198.678786072617,4,1,1,65,1,0
76035,198.023069687619,4,1,1,65,1,0
76233,197.371667297159,4,1,1,65,1,0
76430,196.724536467811,4,1,1,65,1,0
76627,196.081635320839,4,1,1,65,1,0
76823,195.442922523168,4,1,1,65,1,0
77018,194.808357278527,4,1,1,65,1,0
77213,194.177899318759,4,1,1,65,1,0
77407,193.551508895305,4,1,1,65,1,0
77601,192.929146770848,4,1,1,65,1,0
77794,192.310774211125,4,1,1,65,1,0
77986,191.696352976885,4,1,1,65,1,0
78178,191.085845316008,4,1,1,65,1,0
78369,190.479213955777,4,1,1,65,1,0
78559,189.876422095286,4,1,1,65,1,0
78749,189.277433398003,4,1,1,65,1,0
78938,188.682211984465,4,1,1,65,1,0
79127,188.090722425116,4,1,1,65,1,0
79315,187.502929733277,4,1,1,65,1,0
79503,186.918799358245,4,1,1,65,1,0
79690,186.338297178528,4,1,1,65,1,0
79876,185.761389495193,4,1,1,65,1,0
80062,185.188043025355,4,1,1,65,1,0
80247,184.618224895768,4,1,1,65,1,0
80431,184.051902636544,4,1,1,65,1,0
80616,183.489044174987,4,1,1,65,1,0
80798,182.92961782954,4,1,1,65,1,0
80982,182.373592303834,4,1,1,65,1,0
81164,181.820936680859,4,1,1,65,1,0
81346,181.271620417227,4,1,1,65,1,0
81527,180.72561333755,4,1,1,65,1,0
81708,180.182885628913,4,1,1,65,1,0
81888,179.643407835447,4,1,1,65,1,0
82068,179.107150852998,4,1,1,65,1,0
82247,178.574085923898,4,1,1,65,1,0
82426,178.044184631819,4,1,1,65,1,0
82604,177.517418896729,4,1,1,65,1,0
82782,176.993760969926,4,1,1,65,1,0
82959,176.473183429168,4,1,1,65,1,0
83135,175.955659173888,4,1,1,65,1,0
83311,175.441161420489,4,1,1,65,1,0
83486,174.929663697722,4,1,1,65,1,0
83661,174.421139842149,4,1,1,65,1,0
83835,173.915563993681,4,1,1,65,1,0
84009,173.412910591194,4,1,1,65,1,0
84182,172.913154368219,4,1,1,65,1,0
84355,172.416270348712,4,1,1,65,1,0
84527,171.922233842892,4,1,1,65,1,0
84699,171.431020443149,4,1,1,65,1,0
84870,170.942606020029,4,1,1,65,1,0
85041,170.456966718277,4,1,1,65,1,0
85211,169.97407895296,4,1,1,65,1,0
85381,169.493919405641,4,1,1,65,1,0
85550,169.016465020634,4,1,1,65,1,0
85719,168.541693001306,4,1,1,65,1,0
85888,168.069580806454,4,1,1,70,1,0
86056,167.600106146734,4,1,1,70,1,0
86224,167.133246981156,4,1,1,70,1,0
86391,166.668981513632,4,1,1,70,1,0
86558,166.207288189587,4,1,1,70,1,0
86724,165.74814569262,4,1,1,70,1,0
86890,165.291532941225,4,1,1,70,1,0
87055,164.837429085564,4,1,1,70,1,0
87220,164.385813504295,4,1,1,70,1,0
87384,163.936665801445,4,1,1,70,1,0
87548,163.489965803349,4,1,1,70,1,0
87711,163.045693555619,4,1,1,70,1,0
87874,162.60382932018,4,1,1,70,1,0
88037,162.164353572346,4,1,1,70,1,0
88199,161.727246997938,4,1,1,70,1,0
88361,161.292490490464,4,1,1,70,1,0
88522,160.860065148326,4,1,1,70,1,0
88683,160.429952272089,4,1,1,70,1,0
88843,160.002133361778,4,1,1,70,1,0
89003,159.57659011423,4,1,1,70,1,0
89163,159.153304420483,4,1,1,70,1,0
89322,158.732258363206,4,1,1,70,1,0
89481,158.313434214172,4,1,1,70,1,0
89639,157.896814431769,4,1,1,70,1,0
89797,157.482381658552,4,1,1,70,1,0
89954,157.070118718831,4,1,1,70,1,0
90111,156.6600086163,4,1,1,70,1,0
90268,156.2520345317,4,1,1,70,1,0
90424,155.846179820517,4,1,1,70,1,0
90580,155.442428010726,4,1,1,70,1,0
90735,155.040762800553,4,1,1,70,1,0
90890,154.641168056289,4,1,1,70,1,0
91045,154.243627810126,4,1,1,70,1,0
91199,153.848126258029,4,1,1,70,1,0
91353,153.454647757644,4,1,1,70,1,0
91506,153.063176826235,4,1,1,70,1,0
91659,152.673698138653,4,1,1,70,1,0
91812,152.286196525337,4,1,1,70,1,0
91964,151.900656970341,4,1,1,70,1,0
92116,151.517064609402,4,1,1,70,1,0
92268,151.135404728019,4,1,1,70,1,0
92419,150.755662759582,4,1,1,70,1,0
92570,150.377824283512,4,1,1,70,1,0
92720,150.001875023438,4,1,1,70,1,0
92870,149.627800845397,4,1,1,70,1,0
93020,149.255587756067,4,1,1,70,1,0
93169,148.885221901016,4,1,1,70,1,0
93318,148.51668956299,4,1,1,70,1,0
93467,148.149977160212,4,1,1,70,1,0
93615,147.78507124472,4,1,1,70,1,0
93763,147.421958500719,4,1,1,70,1,0
93910,147.060625742963,4,1,1,70,1,0
94057,146.701059915158,4,1,1,70,1,0
94204,146.343248088391,4,1,1,70,1,0
94350,145.98717745958,4,1,1,70,1,0
94496,145.632835349944,4,1,1,70,1,0
94642,145.280209203501,4,1,1,70,1,0
94787,144.929286585587,4,1,1,70,1,0
94932,144.580055181388,4,1,1,70,1,0
95077,144.232502794505,4,1,1,70,1,0
95221,143.886617345532,4,1,1,70,1,0
95365,143.542386870656,4,1,1,70,1,0
95509,143.199799520281,4,1,1,70,1,0
95652,142.858843557661,4,1,1,70,1,0
95795,142.51950735757,4,1,1,75,1,0
95938,142.181779404969,4,1,1,75,1,0
96080,141.845648293715,4,1,1,75,1,0
96222,141.511102725268,4,1,1,75,1,0
96364,141.178131507429,4,1,1,75,1,0
96505,140.846723553093,4,1,1,75,1,0
96646,140.516867879015,4,1,1,75,1,0
96787,140.188553604598,4,1,1,75,1,0
96927,139.861769950699,4,1,1,75,1,0
97067,139.536506238445,4,1,1,75,1,0
97207,139.212751888073,4,1,1,75,1,0
97346,138.890496417783,4,1,1,75,1,0
97485,138.569729442603,4,1,1,75,1,0
97624,138.25044067328,4,1,1,75,1,0
97762,137.932619915171,4,1,1,75,1,0
97900,137.616257067168,4,1,1,75,1,0
98038,137.301342120619,4,1,1,75,1,0
98175,136.987865158278,4,1,1,75,1,0
98312,136.675816353261,4,1,1,75,1,0
98449,136.365185968022,4,1,1,75,1,0
98585,136.055964353337,4,1,1,75,1,0
98721,135.748141947307,4,1,1,75,1,0
98857,135.441709274371,4,1,1,75,1,0
98992,135.136656944335,4,1,1,75,1,0
99127,134.832975651412,4,1,1,75,1,0
99262,134.530656173275,4,1,1,75,1,0
99397,134.229689370127,4,1,1,75,1,0
99531,133.930066183774,4,1,1,75,1,0
99665,133.631777636722,4,1,1,75,1,0
99799,133.334814831276,4,1,1,75,1,0
99932,133.039168948658,4,1,1,75,1,0
100065,132.744831248133,4,1,1,75,1,0
100198,132.451793066149,4,1,1,75,1,0
100330,132.160045815483,4,1,1,75,1,0
100462,131.869580984406,4,1,1,75,1,0
100594,131.580390135857,4,1,1,75,1,0
100726,131.292464906618,4,1,1,75,1,0
100857,131.005797006518,4,1,1,75,1,0
100988,130.720378217628,4,1,1,75,1,0
101119,130.436200393483,4,1,1,75,1,0
101249,130.153255458302,4,1,1,75,1,0
101379,129.871535406227,4,1,1,75,1,0
101509,129.591032300565,4,1,1,75,1,0
101639,129.311738273042,4,1,1,75,1,0
101768,129.03364552307,4,1,1,75,1,0
101897,128.756746317021,4,1,1,75,1,0
102026,128.481032987505,4,1,1,75,1,0
102154,128.20649793267,4,1,1,75,1,0
102282,127.933133615497,4,1,1,75,1,0
102410,127.660932563112,4,1,1,75,1,0
102538,127.389887366108,4,1,1,75,1,0
102665,127.119990677867,4,1,1,75,1,0
102792,126.851235213903,4,1,1,75,1,0
102919,126.5836137512,4,1,1,75,1,0
103046,126.31711912757,4,1,1,75,1,0
103172,126.051744241011,4,1,1,75,1,0
103298,125.787482049078,4,1,1,75,1,0
103424,125.524325568259,4,1,1,75,1,0
103550,125.26226787336,4,1,1,75,1,0
103675,125.001302096897,4,1,1,75,1,0
103800,124.741421428497,4,1,1,75,1,0
103925,124.482619114306,4,1,1,75,1,0
104049,124.224888456402,4,1,1,75,1,0
104173,123.968222812219,4,1,1,75,1,0
104297,123.712615593975,4,1,1,80,1,0
104421,123.45806026811,4,1,1,80,1,0
104544,123.204550354726,4,1,1,80,1,0
104667,122.952079427043,4,1,1,80,1,0
104790,122.70064111085,4,1,1,80,1,0
104913,122.45022908397,4,1,1,80,1,0
105035,122.200837075734,4,1,1,80,1,0
105157,121.952458866452,4,1,1,80,1,0
105279,121.705088286899,4,1,1,80,1,0
105401,121.458719217806,4,1,1,80,1,0
105522,121.213345589349,4,1,1,80,1,0
105643,120.968961380659,4,1,1,80,1,0
105764,120.725560619322,4,1,1,80,1,0
105885,120.483137380897,4,1,1,80,1,0
106005,120.241685788435,4,1,1,80,1,0
106125,120.001200012,4,1,1,80,1,0
106245,119.761674268206,4,1,1,80,1,0
106365,119.523102819749,4,1,1,80,1,0
106485,119.28547997495,4,1,1,80,1,0
106604,119.048800087302,4,1,1,80,1,0
106723,118.813057555025,4,1,1,80,1,0
106842,118.578246820621,4,1,1,80,1,0
106961,118.344362370438,4,1,1,80,1,0
107079,118.11139873424,4,1,1,80,1,0
107197,117.879350484779,4,1,1,80,1,0
107315,117.648212237375,4,1,1,80,1,0
107433,117.417978649498,4,1,1,80,1,0
107550,117.188644420356,4,1,1,80,1,0
107667,116.96020429049,4,1,1,80,1,0
107784,116.732653041372,4,1,1,80,1,0
107901,116.505985495005,4,1,1,80,1,0
108018,116.280196513532,4,1,1,80,1,0
108134,116.055280998849,4,1,1,80,1,0
108250,115.831233892219,4,1,1,80,1,0
108366,115.608050173894,4,1,1,80,1,0
108482,115.385724862739,4,1,1,80,1,0
108597,115.164253015864,4,1,1,80,1,0
108712,114.943629728254,4,1,1,80,1,0
108827,114.72385013241,4,1,1,80,1,0
108942,114.50490939799,4,1,1,80,1,0
109057,114.286802731455,4,1,1,80,1,0
109171,114.069525375716,4,1,1,80,1,0
109285,113.853072609797,4,1,1,80,1,0
109399,113.637439748482,4,1,1,80,1,0
109513,113.422622141986,4,1,1,80,1,0
109626,113.208615175615,4,1,1,80,1,0
109739,112.995414269438,4,1,1,80,1,0
109852,112.783014877959,4,1,1,80,1,0
109965,112.571412489798,4,1,1,80,1,0
110078,112.360602627365,4,1,1,80,1,0
110190,112.15058084655,4,1,1,80,1,0
110302,111.941342736406,4,1,1,80,1,0
110414,111.732883918845,4,1,1,80,1,0
110526,111.525200048328,4,1,1,80,1,0
110638,111.318286811566,4,1,1,80,1,0
110749,111.112139927222,4,1,1,80,1,0
110860,110.906755145611,4,1,1,80,1,0
110971,110.702128248416,4,1,1,80,1,0
111082,110.498255048389,4,1,1,80,1,0
111192,110.295131389075,4,1,1,80,1,0
111302,110.092753144524,4,1,1,80,1,0
111412,109.891116219013,4,1,1,80,1,0
111522,109.690216546769,4,1,1,80,1,0
111632,109.490050091698,4,1,1,80,1,0
111741,109.290612847112,4,1,1,90,1,0
111850,109.091900835462,4,1,1,90,1,0
111959,108.893910108077,4,1,1,90,1,0
112068,108.696636744898,4,1,1,90,1,0
112177,108.500076854221,4,1,1,90,1,0
112286,108.304226572442,4,1,1,90,1,0
112394,108.109082063802,4,1,1,90,1,0
112502,107.91463952014,4,1,1,90,1,0
112610,107.720895160639,4,1,1,90,1,0
112718,107.527845231588,4,1,1,90,1,0
112826,107.335486006136,4,1,1,90,1,0
112933,107.143813784052,4,1,1,90,1,0
113040,106.952824891487,4,1,1,90,1,0
113147,106.762515680744,4,1,1,90,1,0
113254,106.57288253004,4,1,1,90,1,0
113361,106.383921843279,4,1,1,90,1,0
113467,106.195630049823,4,1,1,90,1,0
113573,106.008003604272,4,1,1,90,1,0
113679,105.821038986234,4,1,1,90,1,0
113785,105.634732700112,4,1,1,90,1,0
113891,105.449081274879,4,1,1,90,1,0
113996,105.264081263871,4,1,1,90,1,0
114101,105.079729244564,4,1,1,90,1,0
114206,104.896021818373,4,1,1,90,1,0
114311,104.712955610433,4,1,0,100,1,1
114348,-100,4,1,1,100,0,0

[Colours]
Combo1 : 255,255,255
Combo2 : 244,0,6
Combo3 : 129,69,252

[HitObjects]
256,72,315,1,4,0:0:0:0:
256,192,465,12,4,7515,0:0:0:0:
128,128,9015,6,0,B|64:128,2,50
224,96,9615,1,0,0:0:0:0:
320,128,9915,2,0,L|448:128|448:160,2,150,4|0|0,0:0|0:0|0:0,0:0:0:0:
352,224,11097,1,0,0:0:0:0:
272,288,11388,2,0,B|248:224,1,50
240,216,11680,2,0,B|192:184|144:216,1,100
144,112,12257,5,0,0:0:0:0:
256,40,12685,1,0,0:0:0:0:
256,176,13111,1,0,0:0:0:0:
320,112,13394,1,0,0:0:0:0:
320,232,13674,1,0,0:0:0:0:
320,264,13814,1,0,0:0:0:0:
320,296,13955,2,0,L|224:360,1,100
160,272,14511,6,0,B|80:224|112:128,2,150,0|0|0,0:0|0:0|0:0,0:0:0:0:
208,184,15606,2,0,B|304:136,1,100,0|0,0:0|0:0,0:0:0:0:
384,96,16147,1,0,0:0:0:0:
384,96,16280,1,0,0:0:0:0:
384,96,16414,1,0,0:0:0:0:
488,264,16683,5,0,0:0:0:0:
488,264,17081,2,0,B|320:264,1,150
160,304,17740,1,0,0:0:0:0:
160,304,18131,2,0,B|224:160,1,150
272,64,18779,6,0,B|344:24|416:64,2,150
360,112,19800,1,0,0:0:0:0:
360,112,19926,2,0,B|288:152|216:112,1,150
128,64,20554,1,0,0:0:0:0:
56,144,20804,5,0,0:0:0:0:
56,144,21175,2,0,B|40:232|136:272,1,150
184,152,21792,1,0,0:0:0:0:
184,152,22157,2,0,B|336:152,1,150
360,32,22764,1,0,0:0:0:0:
360,32,23124,2,0,B|440:88|440:200|352:256,1,250
160,32,24074,2,0,B|80:88|80:200|168:256,1,250
296,360,25009,1,0,0:0:0:0:
240,144,25356,1,0,0:0:0:0:
184,360,25702,1,0,0:0:0:0:
368,224,26046,1,0,0:0:0:0:
112,224,26273,1,0,0:0:0:0:
200,256,26501,6,0,B|176:304|240:320|304:304|280:264|280:256,2,150
240,168,27400,1,0,0:0:0:0:
320,96,27622,1,0,0:0:0:0:
240,32,27844,1,0,0:0:0:0:
160,96,28064,1,0,0:0:0:0:
96,176,28285,6,0,L|96:344,2,150
192,208,29158,1,0,0:0:0:0:
256,280,29373,1,0,0:0:0:0:
280,280,29481,1,0,0:0:0:0:
304,280,29590,2,0,L|408:280,1,100
208,112,30019,6,0,L|48:112,2,150
280,112,30868,2,0,L|424:112,1,100,0|0,0:0|0:0,0:0:0:0:
448,112,31288,1,0,0:0:0:0:
448,112,31392,1,0,0:0:0:0:
448,112,31496,1,0,0:0:0:0:
400,208,31705,2,0,L|320:192|248:192,2,150
112,248,32530,2,0,L|192:264|272:264,2,150,0|0|0,0:0|0:0|0:0,0:0:0:0:
32,192,33343,6,0,B|8:128|8:128|32:48,2,150
112,128,34146,1,0,0:0:0:0:
112,128,34245,1,0,0:0:0:0:
200,80,34444,1,0,0:0:0:0:
200,80,34543,2,0,B|216:128|216:128|200:176,1,100
200,174,34938,6,0,B|144:312,2,150
304,176,35720,2,0,B|368:312,1,150
367,311,36107,2,0,B|400:280|392:216,1,100
336,112,36492,5,0,0:0:0:0:
464,192,36778,1,0,0:0:0:0:
464,192,36874,1,0,0:0:0:0:
336,272,37158,1,0,0:0:0:0:
336,272,37254,1,0,0:0:0:0:
208,192,37537,1,0,0:0:0:0:
208,192,37631,1,0,0:0:0:0:
40,192,37912,5,0,0:0:0:0:
40,192,38006,1,2,0:0:0:0:
200,232,38285,1,0,0:0:0:0:
200,232,38379,1,2,0:0:0:0:
96,104,38656,1,0,0:0:0:0:
96,104,38749,1,2,0:0:0:0:
96,272,39025,1,0,0:0:0:0:
96,272,39117,1,2,0:0:0:0:
200,144,39391,1,0,0:0:0:0:
200,144,39483,1,4,0:0:0:0:
296,96,39664,6,0,B|344:72|392:72|448:72|504:104,1,200,0|0,0:0|0:0,0:0:0:0:
432,32,40208,2,0,B|456:80|456:128|456:184|432:232,1,200,0|0,0:0|0:0,0:0:0:0:
408,144,40745,2,0,B|360:168|312:168|256:168|200:136,1,200,0|0,0:0|0:0,0:0:0:0:
296,104,41279,2,0,L|296:208,1,100
296,204,41632,2,2,L|192:204,1,100,8|0,0:0|0:0,0:0:0:0:
196,204,41983,2,0,L|196:92,2,100,2|0|0,0:0|0:0|0:0,0:0:0:0:
32,208,42505,5,0,0:0:0:0:
32,208,42592,1,0,0:0:0:0:
32,208,42679,1,0,0:0:0:0:
96,288,42851,1,0,0:0:0:0:
160,208,43024,2,0,L|200:176|240:208|336:208,1,200,8|0,0:0|0:0,0:0:0:0:
432,272,43537,2,0,L|392:304|352:272|248:272,1,200,0|0,0:0|0:0,0:0:0:0:
288,144,44047,2,0,L|288:40,1,100,2|0,0:0|0:0,0:0:0:0:
224,104,44384,2,2,L|112:104,1,100,8|2,0:0|0:0,0:0:0:0:
352,104,44719,2,0,L|456:104,1,100,0|2,0:0|0:0,0:0:0:0:
472,216,45052,5,0,0:0:0:0:
384,280,45217,2,0,L|384:176,1,100,0|0,0:0|0:0,0:0:0:0:
288,120,45548,1,0,0:0:0:0:
288,120,45714,2,0,L|288:232,1,100,8|0,0:0|0:0,0:0:0:0:
192,280,46042,1,0,0:0:0:0:
192,280,46205,2,0,L|192:176,1,100,0|0,0:0|0:0,0:0:0:0:
96,120,46530,1,0,0:0:0:0:
96,120,46611,1,0,0:0:0:0:
96,120,46692,2,2,L|96:224,1,100,2|0,0:0|0:0,0:0:0:0:
24,304,47015,2,0,L|144:304,1,100,10|0,0:0|0:0,0:0:0:0:
192,216,47336,2,2,L|304:216,1,100,0|0,0:0|0:0,0:0:0:0:
352,120,47655,6,2,L|464:120,1,100,2|0,0:0|0:0,0:0:0:0:
376,40,47972,1,0,0:0:0:0:
376,40,48129,2,2,L|264:40,1,100,2|8,0:0|0:0,0:0:0:0:
192,120,48445,1,0,0:0:0:0:
192,120,48602,2,2,L|304:120,1,100,2|0,0:0|0:0,0:0:0:0:
208,40,48915,1,0,0:0:0:0:
208,40,49070,2,2,L|104:40,1,100,2|0,0:0|0:0,0:0:0:0:
32,120,49380,1,2,0:0:0:0:
32,120,49457,1,0,0:0:0:0:
32,120,49535,2,2,L|136:120,1,100,10|0,0:0|0:0,0:0:0:0:
352,120,49843,2,2,L|488:120,1,100,2|0,0:0|0:0,0:0:0:0:
256,160,50149,6,2,L|144:160,1,100,4|0,0:0|0:0,0:0:0:0:
272,192,50454,2,2,L|416:192,1,100,2|0,0:0|0:0,0:0:0:0:
256,224,50757,2,2,L|128:224,1,100,8|0,0:0|0:0,0:0:0:0:
272,256,51059,2,2,L|400:256,1,100,2|0,0:0|0:0,0:0:0:0:
256,288,51359,6,2,L|128:288,1,100,2|0,0:0|0:0,0:0:0:0:
64,288,51658,2,2,L|64:176,1,100,2|0,0:0|0:0,0:0:0:0:
64,96,51955,2,2,L|208:96,1,100,10|0,0:0|0:0,0:0:0:0:
256,96,52251,2,2,L|256:208,1,100,2|0,0:0|0:0,0:0:0:0:
368,224,52545,6,2,L|448:144,1,100,0|0,0:0|0:0,0:0:0:0:
368,160,52838,2,2,L|288:80,1,100,2|0,0:0|0:0,0:0:0:0:
304,160,53129,2,2,L|224:240,1,100,8|0,0:0|0:0,0:0:0:0:
304,224,53419,2,2,L|384:304,1,100,2|0,0:0|0:0,0:0:0:0:
224,304,53707,6,2,L|128:272,1,100,2|0,0:0|0:0,0:0:0:0:
48,304,53994,2,2,L|80:208,1,100,2|0,0:0|0:0,0:0:0:0:
48,128,54280,2,2,L|144:160,1,100,10|0,0:0|0:0,0:0:0:0:
224,128,54564,1,10,0:0:0:0:
192,222,54705,1,8,0:0:0:0:
320,160,54847,6,2,L|320:272,1,100,2|0,0:0|0:0,0:0:0:0:
272,280,55129,2,2,L|384:280,1,100,0|0,0:0|0:0,0:0:0:0:
408,312,55409,2,0,L|408:198,1,100,10|0,0:0|0:0,0:0:0:0:
440,192,55688,2,2,L|331:192,1,100,0|0,0:0|0:0,0:0:0:0:
216,208,55966,6,2,L|144:136,1,100,2|0,0:0|0:0,0:0:0:0:
49,165,56243,2,2,L|147:136,1,100,2|0,0:0|0:0,0:0:0:0:
176,40,56518,2,2,L|143:143,1,100,10|0,0:0|0:0,0:0:0:0:
123,233,56792,1,2,0:0:0:0:
73,320,56928,1,8,0:0:0:0:
172,320,57065,6,2,B|288:352|352:256,1,200,2|0,0:0|0:0,0:0:0:0:
288,352,57471,2,2,B|288:240|192:176,1,200,2|0,0:0|0:0,0:0:0:0:
224,272,57875,2,2,B|288:160|416:192,1,200,2|8,0:0|0:0,0:0:0:0:
480,208,58276,2,2,B|496:176|496:128|448:112,1,100,2|0,0:0|0:0,0:0:0:0:
384,64,58542,1,10,0:0:0:0:
352,48,58609,1,8,0:0:0:0:
320,40,58675,2,2,B|176:32|120:72,1,200,2|10,0:0|0:0,0:0:0:0:
344,256,59202,6,2,B|251:311|152:256,1,200,6|2,0:0|0:0,0:0:0:0:
256,64,59854,1,0,0:0:0:0:
256,192,60114,1,0,0:0:0:0:
256,192,60244,6,0,B|184:128|88:192|200:248,1,200,8|0,0:0|0:0,0:0:0:0:
320,136,60758,2,0,B|400:192|352:272|256:192,1,200
88,88,61267,6,2,B|128:168|56:216|96:288,1,200,2|2,0:0|0:0,0:0:0:0:
448,192,61897,1,0,0:0:0:0:
256,192,62148,1,0,0:0:0:0:
320,192,62273,1,8,0:0:0:0:
384,192,62397,1,0,0:0:0:0:
448,192,62522,1,0,0:0:0:0:
192,192,62770,6,2,B|128:240|40:160|96:96,1,200
416,96,63508,1,2,0:0:0:0:
256,320,63873,1,0,0:0:0:0:
256,224,64115,1,0,0:0:0:0:
256,224,64237,2,0,B|208:168|96:280|160:320,1,200,8|0,0:0|0:0,0:0:0:0:
352,128,64718,2,0,B|415:167|303:279|255:223,1,200,0|0,0:0|0:0,0:0:0:0:
416,192,65195,5,2,0:0:0:0:
480,96,65432,2,2,B|424:16|352:16|272:16|216:104,1,300,2|0,0:0|0:0,0:0:0:0:
312,192,66020,1,0,0:0:0:0:
280,192,66137,5,8,0:0:0:0:
248,192,66253,1,0,0:0:0:0:
216,192,66370,1,0,0:0:0:0:
184,192,66486,1,0,0:0:0:0:
152,192,66603,2,2,L|144:184|136:200|128:184|120:200|112:184|104:200|96:184|88:200|80:184|72:200|64:184|56:200|48:192,1,200
168,288,67296,5,2,0:0:0:0:
312,288,67525,1,0,0:0:0:0:
312,288,67639,1,2,0:0:0:0:
416,192,67866,1,0,0:0:0:0:
416,192,67980,1,8,0:0:0:0:
368,80,68206,1,0,0:0:0:0:
256,32,68432,1,0,0:0:0:0:
144,80,68657,1,0,0:0:0:0:
96,192,68881,1,2,0:0:0:0:
192,264,69104,1,2,0:0:0:0:
312,264,69326,1,0,0:0:0:0:
312,264,69436,1,2,0:0:0:0:
232,176,69657,1,0,0:0:0:0:
248,176,69768,1,8,0:0:0:0:
264,176,69877,1,0,0:0:0:0:
280,176,69988,1,0,0:0:0:0:
256,296,70207,1,2,0:0:0:0:
416,32,70642,5,2,0:0:0:0:
416,32,70859,2,2,B|464:144|384:216,1,200,2|0,0:0|0:0,0:0:0:0:
352,152,71182,2,2,B|272:240|336:336,1,200,2|0,0:0|0:0,0:0:0:0:
384,288,71504,2,0,B|320:256|288:288|256:320|184:280,1,200,8|0,0:0|0:0,0:0:0:0:
64,216,71931,2,0,B|128:248|160:216|192:184|264:224,1,200,0|0,0:0|0:0,0:0:0:0:
256,304,72354,5,2,0:0:0:0:
96,288,72565,2,0,B|120:248|128:192|120:136|96:96,1,200,2|0,0:0|0:0,0:0:0:0:
176,80,72879,1,2,0:0:0:0:
336,120,73088,5,0,0:0:0:0:
416,152,73192,1,10,0:0:0:0:
416,232,73295,1,0,0:0:0:0:
336,264,73400,1,0,0:0:0:0:
256,232,73503,1,0,0:0:0:0:
256,152,73607,1,10,0:0:0:0:
176,120,73710,1,0,0:0:0:0:
96,152,73813,1,8,0:0:0:0:
96,232,73915,1,8,0:0:0:0:
176,264,74018,1,4,0:0:0:0:
256,72,74223,5,0,0:0:0:0:
112,64,74427,1,0,0:0:0:0:
176,192,74630,1,0,0:0:0:0:
320,200,74833,1,0,0:0:0:0:
464,200,75035,1,0,0:0:0:0:
392,320,75236,1,0,0:0:0:0:
392,176,75437,1,0,0:0:0:0:
320,56,75637,1,0,0:0:0:0:
248,176,75836,1,0,0:0:0:0:
120,120,76035,1,0,0:0:0:0:
120,264,76233,1,2,0:0:0:0:
120,200,76430,6,2,B|84:210|56:224|40:272|64:304|88:323|120:323|120:323|151:323|176:300|187:270|174:238,2,300,10|2|2,0:0|0:0|0:0,0:0:0:0:
256,112,77213,5,2,0:0:0:0:
256,272,77407,1,0,0:0:0:0:
280,256,77503,1,0,0:0:0:0:
304,272,77601,1,0,0:0:0:0:
328,256,77697,1,0,0:0:0:0:
352,272,77794,1,0,0:0:0:0:
392,112,77986,1,0,0:0:0:0:
416,136,78081,1,0,0:0:0:0:
392,160,78178,1,0,0:0:0:0:
296,32,78369,1,0,0:0:0:0:
136,32,78559,1,0,0:0:0:0:
224,168,78749,1,0,0:0:0:0:
192,184,78843,1,0,0:0:0:0:
160,168,78938,1,0,0:0:0:0:
320,168,79127,1,0,0:0:0:0:
320,328,79315,1,2,0:0:0:0:
160,328,79503,2,2,L|48:328|48:240,1,200,10|0,0:0|0:0,0:0:0:0:
112,240,79783,2,2,L|224:240|224:352,1,200,2|0,0:0|0:0,0:0:0:0:
224,328,80062,1,2,0:0:0:0:
256,104,80247,5,2,0:0:0:0:
328,224,80431,1,0,0:0:0:0:
184,224,80615,1,0,0:0:0:0:
336,144,80798,1,0,0:0:0:0:
176,144,80980,1,0,0:0:0:0:
256,272,81164,1,0,0:0:0:0:
256,40,81346,1,0,0:0:0:0:
256,72,81436,1,0,0:0:0:0:
256,104,81527,1,0,0:0:0:0:
256,272,81708,1,0,0:0:0:0:
320,168,81888,1,0,0:0:0:0:
288,168,81977,1,0,0:0:0:0:
256,168,82068,1,0,0:0:0:0:
224,168,82157,1,0,0:0:0:0:
192,168,82247,1,2,0:0:0:0:
104,336,82426,2,2,L|416:336,2,300,10|2|2,0:0|0:0|0:0,0:0:0:0:
48,248,83135,5,2,0:0:0:0:
48,240,83222,1,0,0:0:0:0:
48,232,83311,1,0,0:0:0:0:
192,248,83486,1,0,0:0:0:0:
256,128,83661,1,0,0:0:0:0:
328,232,83835,1,0,0:0:0:0:
328,240,83921,1,0,0:0:0:0:
328,248,84009,1,0,0:0:0:0:
472,248,84182,1,0,0:0:0:0:
400,128,84355,1,0,0:0:0:0:
256,128,84527,1,10,0:0:0:0:
248,128,84612,1,0,0:0:0:0:
240,128,84699,1,0,0:0:0:0:
192,248,84870,1,10,0:0:0:0:
200,248,84955,1,0,0:0:0:0:
208,248,85041,1,0,0:0:0:0:
120,128,85211,1,10,0:0:0:0:
112,128,85295,1,8,0:0:0:0:
104,128,85381,1,0,0:0:0:0:
96,128,85465,1,10,0:0:0:0:
48,248,85634,1,10,0:0:0:0:
56,248,85719,1,10,0:0:0:0:
176,80,85888,5,6,0:0:0:0:
256,208,86056,1,0,0:0:0:0:
336,80,86224,2,2,B|408:88|448:208|384:256,1,200,10|0,0:0|0:0,0:0:0:0:
288,352,86558,1,0,0:0:0:0:
144,288,86724,2,2,B|72:280|32:160|96:112,1,200,2|8,0:0|0:0,0:0:0:0:
240,96,87055,1,0,0:0:0:0:
200,248,87220,6,2,B|408:248,1,200,2|0,0:0|0:0,0:0:0:0:
256,176,87548,1,8,0:0:0:0:
96,176,87711,1,2,0:0:0:0:
176,32,87874,1,2,0:0:0:0:
416,72,88118,1,2,0:0:0:0:
176,32,88361,1,2,0:0:0:0:
40,120,88522,5,2,0:0:0:0:
40,280,88683,1,0,0:0:0:0:
200,280,88843,2,2,B|128:304|264:96|192:120,1,200,10|0,0:0|0:0,0:0:0:0:
320,120,89163,1,0,0:0:0:0:
320,280,89322,2,2,B|272:328|528:232|480:280,1,200,2|8,0:0|0:0,0:0:0:0:
488,120,89639,1,0,0:0:0:0:
344,48,89797,2,2,B|328:168|256:224,1,200,2|0,0:0|0:0,0:0:0:0:
120,312,90111,1,8,0:0:0:0:
8,192,90268,1,2,0:0:0:0:
104,48,90424,1,2,0:0:0:0:
128,48,90501,1,0,0:0:0:0:
152,48,90580,1,2,0:0:0:0:
176,48,90657,1,0,0:0:0:0:
200,48,90735,2,2,B|408:48,1,200,10|2,0:0|0:0,0:0:0:0:
272,152,91045,5,2,0:0:0:0:
432,152,91199,1,0,0:0:0:0:
272,184,91353,2,2,B|480:184,1,200,10|0,0:0|0:0,0:0:0:0:
376,312,91659,1,0,0:0:0:0:
216,312,91812,2,2,B|0:312,1,200,2|8,0:0|0:0,0:0:0:0:
112,184,92116,1,0,0:0:0:0:
216,48,92268,2,2,B|216:264,1,200,2|0,0:0|0:0,0:0:0:0:
280,112,92570,2,0,B|280:328,1,200,8|2,0:0|0:0,0:0:0:0:
408,216,92870,2,2,B|104:216,2,300
448,80,93467,5,2,0:0:0:0:
352,176,93615,1,0,0:0:0:0:
256,80,93763,2,2,B|48:80,1,200,10|0,0:0|0:0,0:0:0:0:
160,176,94057,1,0,0:0:0:0:
56,272,94204,2,2,B|264:272,1,200,2|8,0:0|0:0,0:0:0:0:
352,376,94496,1,0,0:0:0:0:
448,272,94642,2,2,B|488:232|488:184|488:128|448:88,1,200,2|0,0:0|0:0,0:0:0:0:
352,176,94932,1,8,0:0:0:0:
160,176,95077,1,2,0:0:0:0:
256,280,95221,1,2,0:0:0:0:
312,88,95365,1,2,0:0:0:0:
160,224,95509,1,10,0:0:0:0:
360,224,95652,1,2,0:0:0:0:
208,88,95795,6,2,B|0:88,3,200,6|2|8|2,0:0|0:0|0:0|0:0,0:0:0:0:
208,128,96505,1,2,0:0:0:0:
8,128,96787,1,2,0:0:0:0:
8,168,96927,2,2,B|224:168,3,200,2|2|8|2,0:0|0:0|0:0|0:0,0:0:0:0:
208,208,97624,2,2,B|0:208,1,200,2|10,0:0|0:0,0:0:0:0:
408,208,98038,6,2,B|192:208,3,200,2|2|8|2,0:0|0:0|0:0|0:0,0:0:0:0:
304,104,98721,1,2,0:0:0:0:
304,304,98992,1,2,0:0:0:0:
208,208,99127,2,2,B|416:208,1,200,2|0,0:0|0:0,0:0:0:0:
376,136,99397,2,2,B|216:296,1,200,10|0,0:0|0:0,0:0:0:0:
232,136,99665,2,2,B|376:280,1,200,2|0,0:0|0:0,0:0:0:0:
373,277,99932,1,10,0:0:0:0:
136,192,100198,6,2,B|136:144|112:64|16:48,1,200,2|2,0:0|0:0,0:0:0:0:
136,192,100462,2,2,B|136:240|160:320|256:336,1,200,8|2,0:0|0:0,0:0:0:0:
328,192,100857,1,2,0:0:0:0:
136,192,101118,1,2,0:0:0:0:
216,128,101249,2,2,B|424:128,1,200,2|2,0:0|0:0,0:0:0:0:
416,256,101509,2,2,B|200:256,1,200,10|2,0:0|0:0,0:0:0:0:
424,192,101897,1,2,0:0:0:0:
232,192,102026,1,10,0:0:0:0:
80,92,102282,6,2,B|80:300,3,200,2|2|8|2,0:0|0:0|0:0|0:0,0:0:0:0:
280,292,102919,1,2,0:0:0:0:
280,92,103172,1,2,0:0:0:0:
384,144,103298,2,2,B|176:144,1,200,2|0,0:0|0:0,0:0:0:0:
384,192,103550,2,0,B|176:192,1,200,10|0,0:0|0:0,0:0:0:0:
384,240,103800,2,2,B|168:240,1,200,2|0,0:0|0:0,0:0:0:0:
440,192,104049,1,10,0:0:0:0:
88,104,104297,5,6,0:0:0:0:
88,280,104421,1,2,0:0:0:0:
88,88,104544,1,8,0:0:0:0:
88,296,104667,1,2,0:0:0:0:
304,192,104912,1,2,0:0:0:0:
64,192,105157,1,2,0:0:0:0:
168,128,105279,2,2,B|384:128,1,200,2|2,0:0|0:0,0:0:0:0:
368,248,105522,2,2,B|152:248,1,200,8|2,0:0|0:0,0:0:0:0:
269,95,105885,1,2,0:0:0:0:
269,287,106005,1,10,0:0:0:0:
408,88,106245,6,0,B|408:304,1,200,6|2,0:0|0:0,0:0:0:0:
344,88,106485,2,2,B|344:296,1,200,8|2,0:0|0:0,0:0:0:0:
80,104,106842,1,2,0:0:0:0:
312,192,107079,1,2,0:0:0:0:
216,192,107197,6,2,B|8:192,1,200,2|0,0:0|0:0,0:0:0:0:
344,288,107433,2,2,B|120:288,1,200,10|8,0:0|0:0,0:0:0:0:
144,96,107667,2,2,B|352:96,1,200,2|2,0:0|0:0,0:0:0:0:
440,128,107900,1,10,0:0:0:0:
216,48,108134,6,2,B|64:200,1,200,6|2,0:0|0:0,0:0:0:0:
74,50,108365,2,2,B|222:198,1,200,8|2,0:0|0:0,0:0:0:0:
472,120,108712,1,2,0:0:0:0:
312,120,108941,1,2,0:0:0:0:
392,120,109056,2,2,B|240:272,1,200,2|2,0:0|0:0,0:0:0:0:
392,120,109285,2,2,B|544:272,1,200,8|2,0:0|0:0,0:0:0:0:
392,40,109626,2,0,B|392:248,1,200,2|10,0:0|0:0,0:0:0:0:
128,144,109965,6,2,B|320:248,1,200,6|2,0:0|0:0,0:0:0:0:
128,240,110190,2,2,B|328:136,1,200,8|2,0:0|0:0,0:0:0:0:
216,56,110526,1,2,0:0:0:0:
216,336,110749,1,2,0:0:0:0:
40,96,110860,2,2,B|232:200,1,200,2|0,0:0|0:0,0:0:0:0:
40,288,111082,2,2,B|232:184,1,200,8|8,0:0|0:0,0:0:0:0:
416,192,111302,1,2,0:0:0:0:
296,256,111412,1,2,0:0:0:0:
296,128,111522,1,10,0:0:0:0:
39,192,111741,5,6,0:0:0:0:
197,179,111849,1,2,0:0:0:0:
58,98,111958,1,10,0:0:0:0:
121,242,112067,1,2,0:0:0:0:
165,86,112176,1,2,0:0:0:0:
408,336,112609,5,6,0:0:0:0:
272,256,112717,1,2,0:0:0:0:
408,176,112825,1,10,0:0:0:0:
408,336,112933,1,10,0:0:0:0:
272,256,113040,1,2,0:0:0:0:
80,248,113467,5,6,0:0:0:0:
152,104,113573,1,10,0:0:0:0:
256,224,113679,1,10,0:0:0:0:
360,104,113785,1,10,0:0:0:0:
448,240,113891,1,2,0:0:0:0:
256,192,114311,5,4,0:0:0:0:
