osu file format v14

[General]
AudioFilename: deltaMAX.mp3
AudioLeadIn: 1000
PreviewTime: 50149
Countdown: 1
SampleSet: None
StackLeniency: 0.7
Mode: 0
LetterboxInBreaks: 1
WidescreenStoryboard: 0

[Editor]
Bookmarks: 11850,28439,41420,52084,61137,75952,87824,97731,106231,113676,116246
DistanceSpacing: 0.8
BeatDivisor: 4
GridSize: 8
TimelineZoom: 1

[Metadata]
Title:deltaMAX
TitleUnicode:
Artist:DM Ashura
ArtistUnicode:
Creator:Sprosive
Version:DooMAX
Source:DDR Forever
Tags:Dance Dance Revolution Universe 3 stepmania ignorethis lzy Doomsday tsuka Frank7654321
BeatmapID:790090
BeatmapSetID:359335

[Difficulty]
HPDrainRate:6
CircleSize:4
OverallDifficulty:7
ApproachRate:9
SliderMultiplier:2.2
SliderTickRate:0.5

[Events]
//Background and Video events
0,0,"deltaMAX-bg.png",0,0
Video,350,"deltaMAX.avi"
//Break Periods
//Storyboard Layer 0 (Background)
//Storyboard Layer 1 (Fail)
//Storyboard Layer 2 (Pass)
//Storyboard Layer 3 (Foreground)
Sprite,Foreground,Centre,"nothing.png",320,240 F,0,125410,,0
//Storyboard Sound Samples

[TimingPoints]
315,600,4,1,0,40,1,0
9915,594.088816278034,4,1,0,40,1,0
10509,588.264130594637,4,1,0,40,1,0
11097,582.552551094713,4,1,0,40,1,0
11680,576.950814943026,4,1,0,40,1,0
12257,571.455783608743,4,1,0,40,1,0
12828,566.064437001745,4,1,0,40,1,0
13394,560.773867937754,4,1,0,40,1,0
13955,555.581276910968,4,1,0,40,1,0
14511,550.483967154457,4,1,0,40,1,0
15061,545.479339969999,4,1,0,40,1,0
15606,540.564890310374,4,1,0,40,1,0
16147,535.73820259833,4,1,0,40,1,0
16683,530.996946767556,4,1,0,40,1,0
17214,526.33887451204,4,1,0,40,1,0
17740,521.761815731119,4,1,0,40,1,0
18262,517.263675158412,4,1,0,40,1,0
18779,512.84242916364,4,1,0,40,1,0
19292,508.496122717064,4,1,0,40,1,0
19800,504.222866506996,4,1,0,40,1,0
20304,500.020834201425,4,1,0,40,1,0
20804,495.888259845448,4,1,0,40,1,0
21300,491.823435386696,4,1,0,40,1,0
21792,487.824708321476,4,1,0,40,1,0
22280,483.890479454817,4,1,0,40,1,0
22764,480.019200768031,4,1,0,40,1,0
23244,476.209373387833,4,1,0,40,1,0
23720,472.459545651404,4,1,0,40,1,0
24192,468.768311262159,4,1,0,40,1,0
24661,465.1343075313,4,1,0,40,1,0
25126,461.556213700527,4,1,0,40,1,0
25588,458.032749341578,4,1,0,40,1,0
26046,454.562672828516,4,1,0,40,1,0
26501,451.144779878943,4,1,0,45,1,0
26952,447.777902160528,4,1,0,45,1,0
27400,444.46090595948,4,1,0,45,1,0
27844,441.192690907754,4,1,0,45,1,0
28285,437.972188766013,4,1,0,45,1,0
28723,434.798362259502,4,1,0,45,1,0
29158,431.670203964171,4,1,0,45,1,0
29590,428.586735240544,4,1,0,45,1,0
30019,425.547005212951,4,1,0,45,1,0
30445,422.550089791894,4,1,0,45,1,0
30868,419.595090737438,4,1,0,45,1,0
31288,416.681134761624,4,1,0,45,1,0
31705,413.807372668023,4,1,0,45,1,0
32119,410.972978526662,4,1,0,45,1,0
32530,408.177148882615,4,1,0,45,1,0
32938,405.419101996689,4,1,0,45,1,0
33343,402.698077116682,4,1,0,45,1,0
33746,400.013333777793,4,1,0,45,1,0
34146,397.364151130832,4,1,0,45,1,0
34543,394.749827296951,4,1,0,45,1,0
34938,392.169678747671,4,1,0,45,1,0
35330,389.623039709081,4,1,0,45,1,0
35720,387.109261589084,4,1,0,45,1,0
36107,384.62771242668,4,1,0,45,1,0
36492,382.177776362305,4,1,0,45,1,0
36874,379.758853128264,4,1,0,45,1,0
37254,377.370357558414,4,1,0,45,1,0
37631,375.011719116222,4,1,0,45,1,0
38006,372.682381440417,4,1,0,45,1,0
38379,370.381801907466,4,1,0,45,1,0
38749,368.10945121016,4,1,0,45,1,0
39117,365.864812951614,4,1,0,45,1,0
39483,363.647383254038,4,1,0,50,1,0
39847,361.456670381638,4,1,0,50,1,0
40208,359.292194377077,4,1,0,50,1,0
40567,357.153486710914,4,1,0,50,1,0
40924,355.040089943489,4,1,0,50,1,0
41279,352.951557398747,4,1,0,50,1,0
41632,350.887452849499,4,1,0,50,1,0
41983,348.847350213669,4,1,0,50,1,0
42332,346.830833261077,4,1,0,50,1,0
42679,344.837495330326,4,1,0,50,1,0
43024,342.866939055402,4,1,0,50,1,0
43367,340.918776101594,4,1,0,50,1,0
43708,338.992626910365,4,1,0,50,1,0
44047,337.088120452822,4,1,0,50,1,0
44384,335.204893991452,4,1,0,50,1,0
44719,333.342592849801,4,1,0,50,1,0
45052,331.500870189784,4,1,0,50,1,0
45384,329.679386796341,4,1,0,50,1,0
45714,327.877810869149,4,1,0,50,1,0
46042,326.095817821136,4,1,0,50,1,0
46368,324.333090083516,4,1,0,50,1,0
46692,322.589316917121,4,1,0,50,1,0
47015,320.864194229792,4,1,0,50,1,0
47336,319.157424399585,4,1,0,50,1,0
47655,317.468716103601,4,1,0,50,1,0
47972,315.797784152215,4,1,0,50,1,0
48288,314.144349328516,4,1,0,50,1,0
48602,312.508138232766,4,1,0,50,1,0
48915,310.888883131687,4,1,0,50,1,0
49226,309.286321812418,4,1,0,50,1,0
49535,307.70019744096,4,1,0,50,1,0
49843,306.13025842496,4,1,0,50,1,0
50149,304.576258280667,4,1,0,55,1,0
50454,303.037955503927,4,1,0,55,1,0
50757,301.515113445061,4,1,0,55,1,0
51059,300.007500187505,4,1,0,55,1,0
51359,298.51488843006,4,1,0,55,1,0
51658,297.037055372658,4,1,0,55,1,0
51955,295.573782605483,4,1,0,55,1,0
52251,294.124856001373,4,1,0,55,1,0
52545,292.690065611356,4,1,0,55,1,0
52838,291.269205563242,4,1,0,55,1,0
53129,289.862073963139,4,1,0,55,1,0
53419,288.468472799827,4,1,0,55,1,0
53707,287.088207851862,4,1,0,55,1,0
53994,285.721088597348,4,1,0,55,1,0
54280,284.366928126259,4,1,0,55,1,0
54564,283.025543055261,4,1,0,55,1,0
54847,281.696753444917,4,1,0,55,1,0
55129,280.380382719222,4,1,0,55,1,0
55409,279.076257587386,4,1,0,55,1,0
55688,277.784207967777,4,1,0,55,1,0
55966,276.504066913984,4,1,0,55,1,0
56243,275.235670542902,4,1,0,55,1,0
56518,273.978857964794,4,1,0,55,1,0
56792,272.733471215255,4,1,0,55,1,0
57065,271.499355189031,4,1,0,55,1,0
57336,270.276357575621,4,1,0,55,1,0
57606,269.06432879661,4,1,0,55,1,0
57875,267.863121944686,4,1,0,55,1,0
58143,266.672592724283,4,1,0,55,1,0
58410,265.492599393792,4,1,0,55,1,0
58675,264.323002709311,4,1,0,55,1,0
58939,263.163665869866,4,1,0,55,1,0
59202,262.014454464071,4,1,0,60,1,0
59464,260.875236418183,4,1,0,60,1,0
59725,259.745881945497,4,1,0,60,1,0
59985,258.626263497058,4,1,0,60,1,0
60244,257.516255713642,4,1,0,60,1,0
60502,256.415735378961,4,1,0,60,1,0
60758,255.324581374072,4,1,0,60,1,0
61013,254.242674632937,4,1,0,60,1,0
61267,253.169898099116,4,1,0,60,1,0
61520,252.106136683544,4,1,0,60,1,0
61772,251.051277223373,4,1,0,60,1,0
62023,250.005208441843,4,1,0,60,1,0
62273,248.967820909147,4,1,0,60,1,0
62522,247.939007004277,4,1,0,60,1,0
62770,246.918660877796,4,1,0,60,1,0
63017,245.906678415541,4,1,0,60,1,0
63263,244.902957203208,4,1,0,60,1,0
63508,243.907396491799,4,1,0,60,1,0
63752,242.91989716391,4,1,0,60,1,0
63995,241.940361700841,4,1,0,60,1,0
64237,240.968694150485,4,1,0,60,1,0
64478,240.004800096002,4,1,0,60,1,0
64718,239.048586625232,4,1,0,60,1,0
64957,238.099962300839,4,1,0,60,1,0
65195,237.158837131169,4,1,0,60,1,0
65432,236.225122541782,4,1,0,60,1,0
65668,235.298731347673,4,1,0,60,1,0
65903,234.379577726127,4,1,0,60,1,0
66137,233.467577190218,4,1,0,60,1,0
66370,232.562646562918,4,1,0,60,1,0
66603,231.664703951814,4,1,0,60,1,0
66835,230.773668724399,4,1,0,60,1,0
67066,229.889461483936,4,1,0,60,1,0
67296,229.012004045879,4,1,0,60,1,0
67525,228.141219414818,4,1,0,60,1,0
67753,227.277031761965,4,1,0,60,1,0
67980,226.41936640314,4,1,0,60,1,0
68206,225.568149777251,4,1,0,60,1,0
68432,224.72330942527,4,1,0,60,1,0
68657,223.884773969664,4,1,0,60,1,0
68881,223.052473094295,4,1,0,60,1,0
69104,222.226337524769,4,1,0,60,1,0
69326,221.406299009207,4,1,0,60,1,0
69547,220.592290299454,4,1,0,60,1,0
69768,219.784245132695,4,1,0,60,1,0
69988,218.982098213471,4,1,0,60,1,0
70207,218.185785196094,4,1,0,60,1,0
70425,217.39524266744,4,1,0,60,1,0
70642,216.610408130111,4,1,0,60,1,0
70859,215.831219985971,4,1,0,60,1,0
71075,215.057617520027,4,1,0,60,1,0
71290,214.289540884659,4,1,0,60,1,0
71504,213.526931084183,4,1,0,60,1,0
71718,212.769729959751,4,1,0,60,1,0
71931,212.017880174561,4,1,0,60,1,0
72143,211.271325199387,4,1,0,60,1,0
72354,210.530009298409,4,1,0,60,1,0
72565,209.793877515341,4,1,0,60,1,0
72775,209.062875659855,4,1,0,60,1,0
72984,208.336950294276,4,1,0,60,1,0
73192,207.616048720566,4,1,0,60,1,0
73400,206.900118967568,4,1,0,60,1,0
73607,206.189109778519,4,1,0,60,1,0
73813,205.482970598812,4,1,0,60,1,0
74018,204.78165156402,4,1,0,65,1,0
74223,204.085103488155,4,1,1,65,1,0
74427,203.393277852167,4,1,1,65,1,0
74630,202.706126792682,4,1,1,65,1,0
74833,202.023603090961,4,1,1,65,1,0
75035,201.345660162083,4,1,1,65,1,0
75236,200.672252044349,4,1,1,65,1,0
75437,200.00333338889,4,1,1,65,1,0
75637,199.338859449493,4,1,1,65,1,0
75836,198.678786072617,4,1,1,65,1,0
76035,198.023069687619,4,1,1,65,1,0
76233,197.371667297159,4,1,1,65,1,0
76430,196.724536467811,4,1,1,65,1,0
76627,196.081635320839,4,1,1,65,1,0
76823,195.442922523168,4,1,1,65,1,0
77018,194.808357278527,4,1,1,65,1,0
77213,194.177899318759,4,1,1,65,1,0
77407,193.551508895305,4,1,1,65,1,0
77601,192.929146770848,4,1,1,65,1,0
77794,192.310774211125,4,1,1,65,1,0
77986,191.696352976885,4,1,1,65,1,0
78178,191.085845316008,4,1,1,65,1,0
78369,190.479213955777,4,1,1,65,1,0
78559,189.876422095286,4,1,1,65,1,0
78749,189.277433398003,4,1,1,65,1,0
78938,188.682211984465,4,1,1,65,1,0
79127,188.090722425116,4,1,1,65,1,0
79315,187.502929733277,4,1,1,65,1,0
79503,186.918799358245,4,1,1,65,1,0
79690,186.338297178528,4,1,1,65,1,0
79876,185.761389495193,4,1,1,65,1,0
80062,185.188043025355,4,1,1,65,1,0
80247,184.618224895768,4,1,1,65,1,0
80432,184.051902636544,4,1,1,65,1,0
80616,183.489044174987,4,1,1,65,1,0
80799,182.92961782954,4,1,1,65,1,0
80982,182.373592303834,4,1,1,65,1,0
81164,181.820936680859,4,1,1,65,1,0
81346,181.271620417227,4,1,1,65,1,0
81527,180.72561333755,4,1,1,65,1,0
81708,180.182885628913,4,1,1,65,1,0
81888,179.643407835447,4,1,1,65,1,0
82068,179.107150852998,4,1,1,65,1,0
82247,178.574085923898,4,1,1,65,1,0
82426,178.044184631819,4,1,1,65,1,0
82604,177.517418896729,4,1,1,65,1,0
82782,176.993760969926,4,1,1,65,1,0
82959,176.473183429168,4,1,1,65,1,0
83135,175.955659173888,4,1,1,65,1,0
83311,175.441161420489,4,1,1,65,1,0
83486,174.929663697722,4,1,1,65,1,0
83661,174.421139842149,4,1,1,65,1,0
83835,173.915563993681,4,1,1,65,1,0
84009,173.412910591194,4,1,1,65,1,0
84182,172.913154368219,4,1,1,65,1,0
84355,172.416270348712,4,1,1,65,1,0
84527,171.922233842892,4,1,1,65,1,0
84699,171.431020443149,4,1,1,65,1,0
84870,170.942606020029,4,1,1,65,1,0
85041,170.456966718277,4,1,1,65,1,0
85211,169.97407895296,4,1,1,65,1,0
85381,169.493919405641,4,1,1,65,1,0
85550,169.016465020634,4,1,1,65,1,0
85719,168.541693001306,4,1,1,65,1,0
85888,168.069580806454,4,1,1,70,1,0
86056,167.600106146734,4,1,1,70,1,0
86224,167.133246981156,4,1,1,70,1,0
86391,166.668981513632,4,1,1,70,1,0
86558,166.207288189587,4,1,1,70,1,0
86724,165.74814569262,4,1,1,70,1,0
86890,165.291532941225,4,1,1,70,1,0
87055,164.837429085564,4,1,1,70,1,0
87220,164.385813504295,4,1,1,70,1,0
87384,163.936665801445,4,1,1,70,1,0
87548,163.489965803349,4,1,1,70,1,0
87711,163.045693555619,4,1,1,70,1,0
87874,162.60382932018,4,1,1,70,1,0
88037,162.164353572346,4,1,1,70,1,0
88199,161.727246997938,4,1,1,70,1,0
88361,161.292490490464,4,1,1,70,1,0
88522,160.860065148326,4,1,1,70,1,0
88683,160.429952272089,4,1,1,70,1,0
88843,160.002133361778,4,1,1,70,1,0
89003,159.57659011423,4,1,1,70,1,0
89163,159.153304420483,4,1,1,70,1,0
89322,158.732258363206,4,1,1,70,1,0
89481,158.313434214172,4,1,1,70,1,0
89639,157.896814431769,4,1,1,70,1,0
89797,157.482381658552,4,1,1,70,1,0
89954,157.070118718831,4,1,1,70,1,0
90111,156.6600086163,4,1,1,70,1,0
90268,156.2520345317,4,1,1,70,1,0
90424,155.846179820517,4,1,1,70,1,0
90580,155.442428010726,4,1,1,70,1,0
90735,155.040762800553,4,1,1,70,1,0
90890,154.641168056289,4,1,1,70,1,0
91045,154.243627810126,4,1,1,70,1,0
91199,153.848126258029,4,1,1,70,1,0
91353,153.454647757644,4,1,1,70,1,0
91506,153.063176826235,4,1,1,70,1,0
91659,152.673698138653,4,1,1,70,1,0
91812,152.286196525337,4,1,1,70,1,0
91964,151.900656970341,4,1,1,70,1,0
92116,151.517064609402,4,1,1,70,1,0
92268,151.135404728019,4,1,1,70,1,0
92419,150.755662759582,4,1,1,70,1,0
92570,150.377824283512,4,1,1,70,1,0
92720,150.001875023438,4,1,1,70,1,0
92870,149.627800845397,4,1,1,70,1,0
93020,149.255587756067,4,1,1,70,1,0
93169,148.885221901016,4,1,1,70,1,0
93318,148.51668956299,4,1,1,70,1,0
93467,148.149977160212,4,1,1,70,1,0
93615,147.78507124472,4,1,1,70,1,0
93763,147.421958500719,4,1,1,70,1,0
93910,147.060625742963,4,1,1,70,1,0
94057,146.701059915158,4,1,1,70,1,0
94204,146.343248088391,4,1,1,70,1,0
94350,145.98717745958,4,1,1,70,1,0
94496,145.632835349944,4,1,1,70,1,0
94642,145.280209203501,4,1,1,70,1,0
94787,144.929286585587,4,1,1,70,1,0
94932,144.580055181388,4,1,1,70,1,0
95077,144.232502794505,4,1,1,70,1,0
95221,143.886617345532,4,1,1,70,1,0
95365,143.542386870656,4,1,1,70,1,0
95509,143.199799520281,4,1,1,70,1,0
95652,142.858843557661,4,1,1,70,1,0
95795,142.51950735757,4,1,1,75,1,0
95938,142.181779404969,4,1,1,75,1,0
96080,141.845648293715,4,1,1,75,1,0
96222,141.511102725268,4,1,1,75,1,0
96364,141.178131507429,4,1,1,75,1,0
96505,140.846723553093,4,1,1,75,1,0
96646,140.516867879015,4,1,1,75,1,0
96787,140.188553604598,4,1,1,75,1,0
96927,139.861769950699,4,1,1,75,1,0
97067,139.536506238445,4,1,1,75,1,0
97207,139.212751888073,4,1,1,75,1,0
97346,138.890496417783,4,1,1,75,1,0
97485,138.569729442603,4,1,1,75,1,0
97624,138.25044067328,4,1,1,75,1,0
97762,137.932619915171,4,1,1,75,1,0
97900,137.616257067168,4,1,1,75,1,0
98038,137.301342120619,4,1,1,75,1,0
98175,136.987865158278,4,1,1,75,1,0
98312,136.675816353261,4,1,1,75,1,0
98449,136.365185968022,4,1,1,75,1,0
98585,136.055964353337,4,1,1,75,1,0
98721,135.748141947307,4,1,1,75,1,0
98857,135.441709274371,4,1,1,75,1,0
98992,135.136656944335,4,1,1,75,1,0
99127,134.832975651412,4,1,1,75,1,0
99262,134.530656173275,4,1,1,75,1,0
99397,134.229689370127,4,1,1,75,1,0
99531,133.930066183774,4,1,1,75,1,0
99665,133.631777636722,4,1,1,75,1,0
99799,133.334814831276,4,1,1,75,1,0
99932,133.039168948658,4,1,1,75,1,0
100065,132.744831248133,4,1,1,75,1,0
100198,132.451793066149,4,1,1,75,1,0
100330,132.160045815483,4,1,1,75,1,0
100462,131.869580984406,4,1,1,75,1,0
100594,131.580390135857,4,1,1,75,1,0
100726,131.292464906618,4,1,1,75,1,0
100857,131.005797006518,4,1,1,75,1,0
100988,130.720378217628,4,1,1,75,1,0
101119,130.436200393483,4,1,1,75,1,0
101249,130.153255458302,4,1,1,75,1,0
101379,129.871535406227,4,1,1,75,1,0
101509,129.591032300565,4,1,1,75,1,0
101639,129.311738273042,4,1,1,75,1,0
101768,129.03364552307,4,1,1,75,1,0
101897,128.756746317021,4,1,1,75,1,0
102026,128.481032987505,4,1,1,75,1,0
102154,128.20649793267,4,1,1,75,1,0
102282,127.933133615497,4,1,1,75,1,0
102410,127.660932563112,4,1,1,75,1,0
102538,127.389887366108,4,1,1,75,1,0
102665,127.119990677867,4,1,1,75,1,0
102792,126.851235213903,4,1,1,75,1,0
102919,126.5836137512,4,1,1,75,1,0
103046,126.31711912757,4,1,1,75,1,0
103172,126.051744241011,4,1,1,75,1,0
103298,125.787482049078,4,1,1,75,1,0
103424,125.524325568259,4,1,1,75,1,0
103550,125.26226787336,4,1,1,75,1,0
103675,125.001302096897,4,1,1,75,1,0
103800,124.741421428497,4,1,1,75,1,0
103925,124.482619114306,4,1,1,75,1,0
104049,124.224888456402,4,1,1,75,1,0
104173,123.968222812219,4,1,1,75,1,0
104297,123.712615593975,4,1,1,80,1,0
104421,123.45806026811,4,1,1,80,1,0
104544,123.204550354726,4,1,1,80,1,0
104667,122.952079427043,4,1,1,80,1,0
104790,122.70064111085,4,1,1,80,1,0
104913,122.45022908397,4,1,1,80,1,0
105035,122.200837075734,4,1,1,80,1,0
105157,121.952458866452,4,1,1,80,1,0
105279,121.705088286899,4,1,1,80,1,0
105401,121.458719217806,4,1,1,80,1,0
105522,121.213345589349,4,1,1,80,1,0
105643,120.968961380659,4,1,1,80,1,0
105764,120.725560619322,4,1,1,80,1,0
105885,120.483137380897,4,1,1,80,1,0
106005,120.241685788435,4,1,1,80,1,0
106125,120.001200012,4,1,1,80,1,0
106245,119.761674268206,4,1,1,80,1,0
106365,119.523102819749,4,1,1,80,1,0
106485,119.28547997495,4,1,1,80,1,0
106604,119.048800087302,4,1,1,80,1,0
106723,118.813057555025,4,1,1,80,1,0
106842,118.578246820621,4,1,1,80,1,0
106961,118.344362370438,4,1,1,80,1,0
107079,118.11139873424,4,1,1,80,1,0
107197,117.879350484779,4,1,1,80,1,0
107315,117.648212237375,4,1,1,80,1,0
107433,117.417978649498,4,1,1,80,1,0
107550,117.188644420356,4,1,1,80,1,0
107667,116.96020429049,4,1,1,80,1,0
107784,116.732653041372,4,1,1,80,1,0
107901,116.505985495005,4,1,1,80,1,0
108018,116.280196513532,4,1,1,80,1,0
108134,116.055280998849,4,1,1,80,1,0
108250,115.831233892219,4,1,1,80,1,0
108366,115.608050173894,4,1,1,80,1,0
108482,115.385724862739,4,1,1,80,1,0
108597,115.164253015864,4,1,1,80,1,0
108712,114.943629728254,4,1,1,80,1,0
108827,114.72385013241,4,1,1,80,1,0
108942,114.50490939799,4,1,1,80,1,0
109057,114.286802731455,4,1,1,80,1,0
109171,114.069525375716,4,1,1,80,1,0
109285,113.853072609797,4,1,1,80,1,0
109399,113.637439748482,4,1,1,80,1,0
109513,113.422622141986,4,1,1,80,1,0
109626,113.208615175615,4,1,1,80,1,0
109739,112.995414269438,4,1,1,80,1,0
109852,112.783014877959,4,1,1,80,1,0
109965,112.571412489798,4,1,1,80,1,0
110078,112.360602627365,4,1,1,80,1,0
110190,112.15058084655,4,1,1,80,1,0
110302,111.941342736406,4,1,1,80,1,0
110414,111.732883918845,4,1,1,80,1,0
110526,111.525200048328,4,1,1,80,1,0
110638,111.318286811566,4,1,1,80,1,0
110749,111.112139927222,4,1,1,80,1,0
110860,110.906755145611,4,1,1,80,1,0
110971,110.702128248416,4,1,1,80,1,0
111082,110.498255048389,4,1,1,80,1,0
111192,110.295131389075,4,1,1,80,1,0
111302,110.092753144524,4,1,1,80,1,0
111412,109.891116219013,4,1,1,80,1,0
111522,109.690216546769,4,1,1,80,1,0
111632,109.490050091698,4,1,1,80,1,0
111741,109.290612847112,4,1,1,90,1,0
111850,109.091900835462,4,1,1,90,1,0
111959,108.893910108077,4,1,1,90,1,0
112068,108.696636744898,4,1,1,90,1,0
112177,108.500076854221,4,1,1,90,1,0
112286,108.304226572442,4,1,1,90,1,0
112394,108.109082063802,4,1,1,90,1,0
112502,107.91463952014,4,1,1,90,1,0
112610,107.720895160639,4,1,1,90,1,0
112718,107.527845231588,4,1,1,90,1,0
112826,107.335486006136,4,1,1,90,1,0
112933,107.143813784052,4,1,1,90,1,0
113040,106.952824891487,4,1,1,90,1,0
113147,106.762515680744,4,1,1,90,1,0
113254,106.57288253004,4,1,1,90,1,0
113361,106.383921843279,4,1,1,90,1,0
113467,106.195630049823,4,1,1,90,1,0
113573,106.008003604272,4,1,1,90,1,0
113679,105.821038986234,4,1,1,90,1,0
113785,105.634732700112,4,1,1,90,1,0
113891,105.449081274879,4,1,1,90,1,0
113996,105.264081263871,4,1,1,90,1,0
114101,105.079729244564,4,1,1,90,1,0
114206,104.896021818373,4,1,1,90,1,0
114311,104.712955610433,4,1,0,100,1,1
114337,-100,4,1,1,100,0,0

[Colours]
Combo1 : 255,255,255
Combo2 : 244,0,6
Combo3 : 129,69,252

[HitObjects]
178,87,9915,2,0,B|226:55|290:55|350:95,2,165,4|8|0,0:0|0:0|0:0,0:0:0:0:
168,176,11097,1,0,0:0:0:0:
256,192,11388,1,0,0:0:0:0:
344,208,11680,1,8,0:0:0:0:
288,272,11968,1,0,0:0:0:0:
360,328,12257,6,0,B|416:336|472:272|448:208,2,165,4|8|0,0:0|0:0|0:0,0:0:0:0:
368,240,13394,2,0,B|184:72,1,220,4|8,0:0|0:0,0:0:0:0:
178,297,14511,6,0,B|226:329|290:329|350:289,2,165,4|8|0,0:0|0:0|0:0,0:0:0:0:
168,208,15606,1,0,0:0:0:0:
256,192,15876,1,0,0:0:0:0:
344,176,16147,1,8,0:0:0:0:
288,112,16414,1,0,0:0:0:0:
360,56,16683,6,0,B|416:48|472:112|448:176,2,165,4|8|0,0:0|0:0|0:0,0:0:0:0:
368,144,17740,2,0,B|224:272,1,165,4|8,0:0|0:0,0:0:0:0:
136,176,18520,5,0,0:0:0:0:
184,104,18779,2,0,B|224:152|224:224|160:280,2,165,4|8|0,0:0|0:0|0:0,0:0:0:0:
328,104,19800,1,0,0:0:0:0:
328,104,19926,2,0,B|288:152|288:224|352:280,1,165,0|8,0:0|0:0,0:0:0:0:
328,256,20554,1,8,0:0:0:0:
336,344,20804,6,0,B|296:376|192:376|152:320,2,165,4|8|0,0:0|0:0|0:0,0:0:0:0:
336,256,21792,2,0,B|296:224|192:224|152:280,2,165,4|8|0,0:0|0:0|0:0,0:0:0:0:
400,200,22764,5,4,0:0:0:0:
408,64,23124,1,8,0:0:0:0:
302,143,23482,1,0,0:0:0:0:
210,143,23720,5,4,0:0:0:0:
104,64,24074,1,8,0:0:0:0:
112,200,24426,1,0,0:0:0:0:
168,264,24661,6,4,B|344:336,1,165
344,120,25356,6,4,B|168:48,1,165
168,192,26046,5,4,0:0:0:0:
256,192,26273,1,4,0:0:0:0:
344,192,26501,6,0,B|352:128|400:80|488:96,2,165,4|8|0,0:0|0:0|0:0,0:0:0:0:
432,184,27400,1,0,0:0:0:0:
393,263,27622,1,0,0:0:0:0:
304,269,27844,1,8,0:0:0:0:
253,196,28064,1,0,0:0:0:0:
288,112,28285,6,0,B|272:80|152:152|120:112,1,165,4|8,0:0|0:0,0:0:0:0:
128,264,28940,1,0,0:0:0:0:
128,264,29158,2,0,B|160:216|312:320|344:256,1,220,4|8,0:0|0:0,0:0:0:0:
168,192,30019,6,0,B|160:128|112:80|24:96,2,165,4|8|0,0:0|0:0|0:0,0:0:0:0:
80,184,30868,1,0,0:0:0:0:
119,263,31077,1,0,0:0:0:0:
208,269,31288,1,8,0:0:0:0:
232,232,31392,1,0,0:0:0:0:
256,192,31496,1,8,0:0:0:0:
224,112,31705,6,0,B|240:80|360:152|392:112,1,165,4|8,0:0|0:0,0:0:0:0:
384,256,32324,5,0,0:0:0:0:
384,256,32530,2,0,B|368:224|248:296|216:256,1,165,4|8,0:0|0:0,0:0:0:0:
112,192,33140,5,0,0:0:0:0:
112,192,33242,1,0,0:0:0:0:
112,192,33343,2,0,B|312:192,2,165,4|8|0,0:0|0:0|0:0,0:0:0:0:
37,238,34146,1,0,0:0:0:0:
37,238,34245,1,0,0:0:0:0:
37,150,34444,1,0,0:0:0:0:
37,150,34543,1,8,0:0:0:0:
112,104,34740,1,0,0:0:0:0:
184,56,34938,6,0,B|200:112|272:144|368:112,1,165,4|8,0:0|0:0,0:0:0:0:
319,260,35524,1,0,0:0:0:0:
319,260,35720,2,0,B|272:248|200:272|184:344,1,165,4|8,0:0|0:0,0:0:0:0:
160,192,36299,5,0,0:0:0:0:
160,192,36395,1,0,0:0:0:0:
160,192,36492,1,4,0:0:0:0:
256,96,36778,1,0,0:0:0:0:
256,96,36874,1,4,0:0:0:0:
344,192,37158,1,0,0:0:0:0:
344,192,37254,1,4,0:0:0:0:
256,288,37537,1,0,0:0:0:0:
256,288,37631,1,4,0:0:0:0:
160,192,37912,5,0,0:0:0:0:
160,192,38006,2,0,B|144:128|160:64|232:24,1,165,4|0,0:0|0:0,0:0:0:0:
256,96,38379,2,0,B|320:80|384:96|424:168,1,165,4|0,0:0|0:0,0:0:0:0:
352,192,38749,2,0,B|368:256|352:320|280:360,1,165,4|0,0:0|0:0,0:0:0:0:
256,288,39117,2,0,B|192:304|128:288|88:216,1,165,4|0,0:0|0:0,0:0:0:0:
106,243,39483,1,4,0:0:0:0:
104,160,39664,6,0,B|176:160|264:128|296:32,1,220
360,96,40208,2,0,B|312:152|312:240|376:320,1,220
285,326,40745,6,0,B|264:256|176:224|104:224,1,220
40,168,41279,2,0,B|96:40,1,110
168,72,41632,2,0,B|112:192,1,110,4|0,0:0|0:0,0:0:0:0:
176,232,41983,2,0,B|232:112,1,110,4|0,0:0|0:0,0:0:0:0:
256,48,42332,5,4,0:0:0:0:
292,131,42505,1,0,0:0:0:0:
292,131,42592,1,0,0:0:0:0:
292,131,42679,1,0,0:0:0:0:
376,160,42851,1,0,0:0:0:0:
360,248,43024,2,0,B|288:224|192:224|120:264,1,220
144,136,43537,2,0,B|216:160|312:160|384:120,1,220
432,184,44047,6,0,B|424:240|368:296,1,110,4|0,0:0|0:0,0:0:0:0:
311,333,44384,2,0,B|255:357|182:329,1,110,4|0,0:0|0:0,0:0:0:0:
129,280,44719,2,0,B|88:240|80:184,1,110,4|0,0:0|0:0,0:0:0:0:
168,200,45052,5,4,0:0:0:0:
232,144,45217,2,0,B|312:160|368:216|376:312,1,220
440,232,45714,2,0,B|424:160|372:102|280:72,1,220
360,16,46205,6,0,B|432:48|480:96|512:184,1,220
507,171,46611,1,0,0:0:0:0:
507,171,46692,1,0,0:0:0:0:
424,192,46853,1,0,0:0:0:0:
336,216,47015,1,4,0:0:0:0:
256,248,47175,1,0,0:0:0:0:
176,216,47336,1,4,0:0:0:0:
88,192,47495,1,0,0:0:0:0:
4,171,47655,6,0,B|32:96|80:48|152:16,1,220,4|0,0:0|0:0,0:0:0:0:
215,77,48129,2,0,B|139:102|88:160|72:232,1,220
138,292,48602,2,0,B|144:216|208:152|280:144,1,220
360,104,49070,6,0,B|432:136|432:272|344:288,1,220
359,283,49457,1,0,0:0:0:0:
359,283,49535,1,4,0:0:0:0:
152,96,49843,1,4,0:0:0:0:
256,192,50149,5,4,0:0:0:0:
296,272,50301,2,0,B|328:352|464:352|480:240,1,220
384,248,50757,2,0,B|440:192|384:56|264:104,1,220
320,184,51209,2,0,B|240:168|168:232|224:344,1,220
128,336,51658,5,0,0:0:0:0:
40,320,51806,1,0,0:0:0:0:
96,248,51955,2,0,B|152:112,1,110,4|0,0:0|0:0,0:0:0:0:
48,160,52251,2,0,B|96:40,1,110,4|0,0:0|0:0,0:0:0:0:
176,80,52545,5,4,0:0:0:0:
256,112,52691,1,0,0:0:0:0:
256,112,52764,1,0,0:0:0:0:
256,112,52838,1,0,0:0:0:0:
336,80,52983,1,0,0:0:0:0:
368,160,53129,2,0,B|416:192|424:272|368:344|272:320,1,220
194,323,53563,2,0,B|136:320|88:272|96:192|160:144,1,220
184,240,53994,5,4,0:0:0:0:
256,280,54136,1,0,0:0:0:0:
328,240,54280,1,4,0:0:0:0:
328,152,54422,1,0,0:0:0:0:
256,104,54564,1,4,0:0:0:0:
184,152,54705,1,0,0:0:0:0:
256,192,54847,1,4,0:0:0:0:
216,272,54987,2,0,B|184:352|48:352|32:240,1,220,0|0,0:0|0:0,0:0:0:0:
128,248,55409,2,0,B|72:192|128:56|248:104,1,220
192,184,55826,2,0,B|272:168|344:232|288:344,1,220
297,321,56173,1,0,0:0:0:0:
297,321,56243,1,0,0:0:0:0:
384,336,56380,5,0,0:0:0:0:
472,320,56518,1,4,0:0:0:0:
416,248,56654,2,0,B|360:112,1,110,0|4,0:0|0:0,0:0:0:0:
464,160,56928,1,0,0:0:0:0:
432,80,57065,6,0,B|160:80,1,220,4|0,0:0|0:0,0:0:0:0:
168,160,57471,2,0,B|432:160,1,220,4|0,0:0|0:0,0:0:0:0:
344,240,57875,2,0,B|104:240,1,220,4|0,0:0|0:0,0:0:0:0:
88,320,58276,2,0,B|344:320,1,220,4|0,0:0|0:0,0:0:0:0:
308,320,58609,1,0,0:0:0:0:
308,320,58675,1,4,0:0:0:0:
336,240,58807,1,0,0:0:0:0:
408,192,58939,1,4,0:0:0:0:
336,144,59070,1,0,0:0:0:0:
304,56,59202,5,4,0:0:0:0:
304,56,59464,1,0,0:0:0:0:
256,312,59854,1,0,0:0:0:0:
256,312,60114,1,0,0:0:0:0:
256,312,60244,2,0,B|168:328|112:224|176:136,1,220,4|2,0:0|0:0,0:0:0:0:
256,312,60758,2,0,B|344:328|400:224|336:136,1,220,4|2,0:0|0:0,0:0:0:0:
344,32,61267,5,4,0:0:0:0:
168,32,61520,1,0,0:0:0:0:
256,280,61897,1,0,0:0:0:0:
148,139,62148,1,0,0:0:0:0:
212,75,62273,1,0,0:0:0:0:
300,75,62397,1,0,0:0:0:0:
364,139,62522,1,0,0:0:0:0:
256,280,62770,1,4,0:0:0:0:
80,104,63263,5,4,0:0:0:0:
80,280,63508,1,0,0:0:0:0:
328,192,63873,1,0,0:0:0:0:
152,192,64115,1,0,0:0:0:0:
152,192,64237,2,0,B|136:96|208:32|312:64,1,220,4|2,0:0|0:0,0:0:0:0:
352,216,64718,2,0,B|368:312|296:376|192:344,1,220,4|2,0:0|0:0,0:0:0:0:
160,168,65195,5,4,0:0:0:0:
336,224,65432,1,0,0:0:0:0:
72,192,65785,1,0,0:0:0:0:
72,192,66020,1,0,0:0:0:0:
96,112,66137,1,4,0:0:0:0:
184,136,66253,1,0,0:0:0:0:
256,192,66370,1,0,0:0:0:0:
336,232,66486,1,0,0:0:0:0:
424,256,66603,1,4,0:0:0:0:
256,352,67066,5,4,0:0:0:0:
256,352,67296,1,0,0:0:0:0:
256,88,67639,1,0,0:0:0:0:
256,88,67866,1,0,0:0:0:0:
256,88,67980,2,0,B|192:72|112:112|136:232,1,220,4|2,0:0|0:0,0:0:0:0:
256,88,68432,2,0,B|320:72|400:112|376:232,1,220,4|2,0:0|0:0,0:0:0:0:
344,336,68881,5,4,0:0:0:0:
168,336,69104,1,0,0:0:0:0:
256,88,69436,1,0,0:0:0:0:
256,264,69657,1,0,0:0:0:0:
256,264,69768,1,4,0:0:0:0:
256,264,69877,1,0,0:0:0:0:
256,264,69988,1,0,0:0:0:0:
256,264,70207,1,4,0:0:0:0:
440,192,70642,5,4,0:0:0:0:
440,192,70859,1,0,0:0:0:0:
440,192,71182,1,0,0:0:0:0:
440,192,71397,1,0,0:0:0:0:
440,104,71504,2,0,B|208:144,1,220,4|2,0:0|0:0,0:0:0:0:
440,280,71931,2,0,B|208:240,1,220,4|2,0:0|0:0,0:0:0:0:
56,192,72354,5,4,0:0:0:0:
56,192,72565,1,0,0:0:0:0:
56,192,72879,1,0,0:0:0:0:
56,192,73088,1,0,0:0:0:0:
56,192,73192,1,4,0:0:0:0:
64,192,73295,1,0,0:0:0:0:
72,192,73400,1,0,0:0:0:0:
80,192,73503,1,0,0:0:0:0:
88,192,73607,1,4,0:0:0:0:
96,192,73710,1,0,0:0:0:0:
104,192,73813,1,0,0:0:0:0:
112,192,73915,1,0,0:0:0:0:
120,192,74018,1,4,0:0:0:0:
256,80,74223,5,0,0:0:0:0:
408,168,74427,2,0,B|464:248|408:344|288:320,1,220
264,264,74731,1,0,0:0:0:0:
208,200,74833,2,0,B|152:120|208:24|328:48,1,220
104,168,75236,6,0,B|48:248|104:344|224:320,1,220
248,264,75537,1,0,0:0:0:0:
304,200,75637,2,0,B|360:120|304:24|184:48,2,220
394,291,76233,5,0,0:0:0:0:
394,291,76430,2,4,B|508:298|538:179|506:75|343:103,2,330
264,272,77213,5,4,0:0:0:0:
128,272,77407,1,0,0:0:0:0:
72,152,77601,2,0,B|48:64|128:0|224:56,1,220
256,120,77890,1,0,0:0:0:0:
307,46,77986,2,0,B|384:8|472:64|440:168,1,220
445,233,78369,6,0,B|469:321|389:385|293:329,1,220
256,264,78653,1,0,0:0:0:0:
209,338,78749,2,0,B|132:376|44:320|76:216,2,220
256,216,79315,5,0,0:0:0:0:
256,128,79408,1,0,0:0:0:0:
256,40,79503,1,4,0:0:0:0:
184,192,79690,5,0,0:0:0:0:
184,192,79783,1,4,0:0:0:0:
328,192,79968,1,0,0:0:0:0:
328,192,80062,1,4,0:0:0:0:
344,352,80247,5,4,0:0:0:0:
168,368,80432,1,0,0:0:0:0:
0,336,80616,2,0,B|80:312|104:192|56:136,1,220
64,64,80890,1,0,0:0:0:0:
144,40,80982,2,0,B|392:96,1,220
512,48,81346,6,0,B|432:72|408:192|456:248,1,220
448,320,81617,1,0,0:0:0:0:
368,344,81708,2,0,B|120:288,2,220
280,192,82247,5,0,0:0:0:0:
280,192,82426,1,4,0:0:0:0:
56,56,82692,1,4,0:0:0:0:
56,320,82959,1,4,0:0:0:0:
176,192,83135,1,4,0:0:0:0:
176,192,83311,1,0,0:0:0:0:
288,56,83486,6,0,B|336:8|416:32|456:96|400:184,1,220
336,120,83748,1,0,0:0:0:0:
248,144,83835,2,0,B|16:144,1,220
176,240,84182,6,0,B|128:192|48:216|8:280|64:368,1,220
128,304,84441,1,0,0:0:0:0:
216,328,84527,2,0,B|448:328,2,220
256,160,85041,1,0,0:0:0:0:
256,16,85211,5,4,0:0:0:0:
256,16,85295,1,0,0:0:0:0:
256,16,85381,1,0,0:0:0:0:
256,16,85465,1,4,0:0:0:0:
256,160,85634,1,0,0:0:0:0:
256,160,85719,1,4,0:0:0:0:
256,336,85888,5,4,0:0:0:0:
200,168,86056,1,0,0:0:0:0:
328,48,86224,2,0,B|408:16|488:56|504:160,2,220
176,128,86724,2,0,B|96:160|16:120|0:16,2,220
352,120,87220,6,0,B|464:320,1,220
304,224,87548,2,0,B|192:16,2,220,0|0|4,0:0|0:0|0:0,0:0:0:0:
304,224,88118,1,4,0:0:0:0:
304,224,88361,1,4,0:0:0:0:
304,224,88522,1,4,0:0:0:0:
184,336,88683,5,0,0:0:0:0:
184,336,88843,2,0,B|104:368|24:328|8:224,2,220
336,256,89322,2,0,B|416:224|496:264|512:368,2,220
160,264,89797,6,0,B|48:64,1,220
208,160,90111,2,0,B|320:368,2,220,0|0|4,0:0|0:0|0:0,0:0:0:0:
208,160,90501,1,0,0:0:0:0:
208,160,90580,1,0,0:0:0:0:
208,160,90657,1,0,0:0:0:0:
208,160,90735,1,4,0:0:0:0:
208,160,90890,1,0,0:0:0:0:
256,16,91045,5,4,0:0:0:0:
392,128,91199,1,0,0:0:0:0:
464,288,91353,2,0,B|416:344|304:344|259:276,1,220
96,248,91659,1,0,0:0:0:0:
48,96,91812,2,0,B|96:40|208:40|253:108,1,220
416,136,92116,1,0,0:0:0:0:
280,248,92268,6,0,B|232:312|160:336|56:320,1,220
232,136,92570,2,0,B|280:72|352:48|456:64,1,220
427,60,92870,5,4,0:0:0:0:
256,256,93094,1,4,0:0:0:0:
88,56,93318,1,4,0:0:0:0:
256,16,93467,5,4,0:0:0:0:
120,128,93615,1,0,0:0:0:0:
48,288,93763,2,0,B|96:344|208:344|253:276,1,220
416,248,94057,1,0,0:0:0:0:
464,96,94204,2,0,B|416:40|304:40|259:108,1,220
96,136,94496,1,0,0:0:0:0:
232,248,94642,6,0,B|280:312|352:336|456:320,1,220
280,136,94932,2,0,B|232:72|160:48|56:64,1,220
84,60,95221,5,4,0:0:0:0:
168,216,95365,1,4,0:0:0:0:
344,216,95509,1,4,0:0:0:0:
416,56,95652,1,4,0:0:0:0:
256,0,95795,5,4,0:0:0:0:
120,112,95938,1,0,0:0:0:0:
120,288,96080,1,0,0:0:0:0:
256,384,96222,1,0,0:0:0:0:
488,192,96505,5,0,0:0:0:0:
256,384,96787,5,0,0:0:0:0:
256,384,96927,1,0,0:0:0:0:
392,288,97067,1,0,0:0:0:0:
392,112,97207,1,0,0:0:0:0:
256,0,97346,1,0,0:0:0:0:
8,192,97624,6,4,B|272:192,1,220
336,56,98038,5,4,0:0:0:0:
504,104,98175,1,0,0:0:0:0:
504,280,98312,1,0,0:0:0:0:
336,336,98449,2,0,B|216:400|80:264|200:48|368:176,2,440
272,240,99127,5,4,0:0:0:0:
432,312,99262,1,0,0:0:0:0:
296,192,99397,1,4,0:0:0:0:
472,192,99531,1,0,0:0:0:0:
296,192,99665,1,4,0:0:0:0:
432,80,99799,1,0,0:0:0:0:
272,144,99932,1,4,0:0:0:0:
56,32,100198,5,4,0:0:0:0:
192,144,100330,1,0,0:0:0:0:
56,264,100462,1,0,0:0:0:0:
192,376,100594,1,0,0:0:0:0:
256,24,100857,6,0,B|142:44|152:240|352:128|381:354|229:373,1,440
257,365,101249,5,0,0:0:0:0:
464,256,101379,1,0,0:0:0:0:
320,144,101509,1,0,0:0:0:0:
456,32,101639,1,0,0:0:0:0:
488,192,101897,6,4,B|224:192,1,220
200,88,102282,5,4,0:0:0:0:
368,136,102410,1,0,0:0:0:0:
320,304,102538,1,0,0:0:0:0:
152,256,102665,2,0,B|16:352|-104:192|16:16|184:152,2,440
72,192,103298,5,4,0:0:0:0:
128,24,103424,1,0,0:0:0:0:
184,192,103550,1,4,0:0:0:0:
256,32,103675,1,0,0:0:0:0:
328,192,103800,1,4,0:0:0:0:
376,24,103925,1,0,0:0:0:0:
440,192,104049,1,4,0:0:0:0:
112,312,104297,5,4,0:0:0:0:
80,136,104421,1,0,0:0:0:0:
184,280,104544,1,0,0:0:0:0:
152,104,104667,1,0,0:0:0:0:
256,32,104913,5,0,0:0:0:0:
400,312,105157,1,0,0:0:0:0:
400,312,105279,1,4,0:0:0:0:
432,136,105401,1,0,0:0:0:0:
328,280,105522,1,0,0:0:0:0:
360,104,105643,1,0,0:0:0:0:
24,16,105885,6,4,B|216:160,1,220
64,320,106245,5,4,0:0:0:0:
240,328,106365,1,0,0:0:0:0:
80,248,106485,1,0,0:0:0:0:
256,256,106604,1,0,0:0:0:0:
256,40,106842,5,0,0:0:0:0:
448,328,107079,5,0,0:0:0:0:
448,328,107197,1,4,0:0:0:0:
272,328,107315,1,0,0:0:0:0:
432,248,107433,1,0,0:0:0:0:
256,256,107550,1,0,0:0:0:0:
416,176,107667,1,0,0:0:0:0:
240,184,107784,1,0,0:0:0:0:
400,104,107901,1,0,0:0:0:0:
48,32,108134,5,4,0:0:0:0:
48,208,108250,1,0,0:0:0:0:
224,208,108366,1,0,0:0:0:0:
224,32,108482,1,0,0:0:0:0:
136,120,108712,6,0,B|128:224|176:304|336:304|400:240|368:88,1,440
464,32,109057,5,4,0:0:0:0:
464,208,109171,1,0,0:0:0:0:
288,208,109285,1,0,0:0:0:0:
288,32,109399,1,0,0:0:0:0:
376,120,109626,6,0,B|144:120,1,220
432,232,109965,5,4,0:0:0:0:
336,376,110078,1,0,0:0:0:0:
168,376,110190,1,0,0:0:0:0:
80,232,110302,1,0,0:0:0:0:
416,128,110526,6,0,B|320:48|240:112|296:304|104:352|72:200,1,440
80,152,110860,5,4,0:0:0:0:
168,8,110971,1,0,0:0:0:0:
344,8,111082,1,0,0:0:0:0:
432,152,111192,1,0,0:0:0:0:
432,320,111302,1,0,0:0:0:0:
256,344,111412,1,0,0:0:0:0:
80,328,111522,1,0,0:0:0:0:
176,56,111741,5,4,0:0:0:0:
16,128,111850,1,0,0:0:0:0:
40,304,111959,1,0,0:0:0:0:
208,344,112068,1,0,0:0:0:0:
288,184,112177,1,0,0:0:0:0:
336,56,112610,5,4,0:0:0:0:
496,128,112718,1,0,0:0:0:0:
472,304,112826,1,0,0:0:0:0:
304,344,112933,1,0,0:0:0:0:
224,184,113040,1,0,0:0:0:0:
256,40,113467,5,4,0:0:0:0:
112,136,113573,1,0,0:0:0:0:
168,304,113679,1,0,0:0:0:0:
344,304,113785,1,0,0:0:0:0:
392,136,113891,1,0,0:0:0:0:
256,192,114311,5,4,0:0:0:0:
