osu file format v7

[General]
AudioFilename: aftershock!!.mp3
AudioLeadIn: 0
PreviewTime: 70754
Countdown: 0
SampleSet: Normal
StackLeniency: 0.7
Mode: 0
LetterboxInBreaks: 1

[Editor]
Bookmarks: 39989,52018
DistanceSpacing: 1.20000004768372
BeatDivisor: 4
GridSize: 8

[Metadata]
Title:aftershock!!
Artist:DM Ashura
Creator:nazenaze
Version:Normal
Source:Dance Dance Revolution Universe 3
Tags:ddr Skiboslaw

[Difficulty]
HPDrainRate:2
CircleSize:4
OverallDifficulty:4
SliderMultiplier:1.2
SliderTickRate:1

[Events]
//Background and Video events
0,0,"aftershock!!-bg.jpg"
//Break Periods
2,52397,63106
//Storyboard Layer 0 (Background)
//Storyboard Layer 1 (Fail)
//Storyboard Layer 2 (Pass)
//Storyboard Layer 3 (Foreground)
//Storyboard Sound Samples
//Background Colour Transformations
3,100,163,162,255

[TimingPoints]
3280,382.165605095541,4,1,0,70,1,0
21454,-100,4,2,0,90,0,0
27378,-100,4,1,0,70,0,0
33684,-100,4,2,0,90,0,0
39490,-100,4,1,0,70,0,0
64044,-100,4,2,0,90,0,0
70350,-100,4,1,0,70,0,0
77824,-100,4,2,0,70,0,0
79522,-100,4,1,0,70,0,0
79522,-100,4,2,0,70,0,0
79725,-100,4,1,0,70,0,1
79782,-100,4,2,0,70,0,0
79830,-100,4,2,0,90,0,1
106464,-100,4,2,0,40,0,0
107059,-100,4,1,0,10,0,0
107346,-100,4,1,0,20,0,0
107537,-100,4,1,0,30,0,0
107728,-100,4,1,0,40,0,0
107919,-100,4,1,0,50,0,0
108110,-100,4,1,0,60,0,0
108301,-100,4,1,0,70,0,0
108493,-100,4,1,0,80,0,0
108684,-100,4,1,0,90,0,0
108875,-100,4,1,0,100,0,0

[Colours]
Combo1 : 232,23,117
Combo2 : 7,168,228
Combo3 : 172,47,225
Combo4 : 219,219,219

[HitObjects]
256,184,3280,1,4
288,240,4808,2,0,B|232:272|184:224,4,90
320,176,6146,2,0,L|320:96,1,60,0|4
72,80,7865,5,4
192,176,9203,2,0,B|192:264,1,60,0|4
336,80,9967,2,0,B|336:168,1,60,0|4
456,320,10732,2,0,B|368:320,4,60
256,192,11687,12,0,13980
184,120,15127,5,0
328,128,15509,6,0,B|392:192|320:240,1,120
272,264,16082,2,0,B|192:264,3,60
80,208,17037,2,0,B|8:128|112:24,1,180
160,48,17802,2,0,B|288:48,2,120
152,192,18948,6,0,B|248:288,1,120
352,192,19713,2,0,B|448:296,1,120
296,328,20477,1,0
296,328,20668,2,0,L|208:328|184:280|128:280,1,180
256,184,21623,5,0
144,80,22006,2,0,B|144:216,1,120,0|2
240,320,22770,2,0,B|320:320,3,60
344,264,23534,2,0,B|376:200|328:152,2,120,2|0|2
208,320,24681,5,0
120,208,25063,2,0,B|256:208,1,120,0|2
328,312,25827,2,0,B|408:312,3,60
448,272,26592,2,0,B|488:200|432:152,2,120,2|0|0
312,312,27738,6,0,B|248:376|200:304,1,120
168,256,28311,2,0,B|120:192,3,60
176,64,29266,2,0,B|256:-8|360:96,1,180
336,144,30031,2,0,B|336:288,2,120
192,160,31177,6,0,B|64:160,1,120
168,264,31942,2,0,B|312:264,1,120
424,224,32706,1,0
424,224,32897,2,0,L|424:120|360:40,1,180
256,136,33852,5,0
112,128,34235,2,0,B|112:264,1,120,0|2
240,312,34999,2,0,B|320:312,3,60
344,256,35763,2,0,B|376:192|328:144,2,120,2|0|2
216,192,36910,5,0
160,56,37292,2,0,B|296:56,1,120,0|2
384,160,38056,2,0,B|304:160,3,60
272,208,38821,2,0,B|232:280|288:328,2,120,2|0|2
352,88,39967,6,0,L|240:88|184:136|104:136,1,240
72,272,41114,1,0
208,312,41496,2,0,L|328:312|368:256|432:256,1,240
384,112,42643,2,0,L|248:112,1,120
128,72,43407,2,0,L|128:168|80:208|80:312,1,240
216,320,44553,1,0
336,240,44936,2,0,L|336:312,2,60
344,96,45700,6,0,L|248:96|200:48|96:48,1,240,0|0
80,184,46846,2,0,L|80:264|184:264,2,180
224,160,48375,1,0
328,264,48757,2,0,L|408:264,1,60
256,192,49139,12,4,52197
88,200,64426,6,0,L|88:272,6,60,0|0|0|0|0|0|2
256,104,65955,6,0,L|208:40,6,60,0|0|0|0|0|0|2
376,256,67483,6,0,L|448:256,6,60,0|0|0|0|0|0|2
208,160,69012,6,0,L|168:208,6,60,0|0|0|0|2|0|2
392,104,70541,6,0,L|392:184|272:184,1,180
152,184,71496,2,0,L|152:272,1,60
152,104,72069,2,0,L|48:104,2,90
296,112,73025,2,0,L|296:192,1,60
432,216,73598,2,0,L|432:288|376:304,1,120
240,304,74362,2,0,L|160:304|128:256,1,120
96,136,75127,6,0,L|152:72,1,60
200,120,75509,2,0,L|248:64,1,60
304,104,75891,2,0,L|344:48,1,60
408,88,76273,2,0,L|448:32,2,60,0|0|4
256,192,78184,6,0,B|256:152|256:224|256:136,4,60
256,336,79330,1,8
384,208,79713,6,0,B|296:152,1,90,0|2
224,224,80286,1,0
136,288,80572,2,0,B|40:224,1,90,0|2
176,152,81241,6,0,B|80:88,2,90,0|2|0
184,48,82101,1,0
272,112,82388,1,2
320,240,82770,6,0,B|400:168,2,90
264,280,83534,2,0,B|208:328,2,60,2|0|2
136,112,84299,2,0,B|56:32,2,90,0|2|0
192,160,85063,2,0,B|240:208,2,60,2|0|2
320,88,85827,6,0,L|320:160|368:200,1,120,0|2
256,288,86592,1,2
112,272,86974,2,0,L|112:192|152:160,1,120
256,80,87738,1,2
368,168,88120,2,0,L|368:248,2,60,0|0|2
280,280,88885,1,0
144,280,89267,6,0,L|56:280,2,60,0|2|0
144,216,89840,2,0,L|144:152,2,60,0|2|0
208,216,90413,2,0,L|272:216,2,60,0|2|0
208,280,90987,2,0,L|208:352,3,60,0|2|0|4
352,264,91942,6,0,L|400:208|400:144,2,120,2|8|2
248,168,93088,1,8
160,56,93471,2,0,L|104:104|104:160,2,120,2|8|2
304,56,94617,2,0,L|432:56,2,120,8|2|8
384,176,95764,5,2
384,248,95955,1,0
312,248,96146,1,8
184,320,96528,2,0,L|184:256|120:208,1,120,2|8
32,120,97292,1,2
32,48,97483,1,0
104,48,97675,1,8
240,80,98057,6,0,L|320:80|352:128,2,120,2|8|2
232,224,99203,1,8
120,320,99585,2,0,L|64:272|64:200,1,120,2|8
208,200,100350,2,0,L|208:120|264:96,1,120,2|8
344,208,101114,6,0,L|344:312,2,90,2|2|2
416,208,101878,2,0,L|480:208,2,60,8|2|8
216,112,102643,6,0,L|216:216,2,90,2|2|2
144,112,103407,2,0,L|80:112,2,60,2|0|8
256,192,104171,12,4,106846
104,344,107229,6,0,L|104:264,1,60
176,280,107611,2,0,L|176:200,1,60
248,224,107993,2,0,L|248:152,1,60
320,168,108375,2,0,L|320:104,1,60,0|0
392,104,108757,2,0,L|392:32,3,60,0|0|0|4
