osu file format v7

[General]
AudioFilename: aftershock!!.mp3
AudioLeadIn: 0
PreviewTime: 70754
Countdown: 0
SampleSet: Normal
StackLeniency: 0.7
Mode: 0
LetterboxInBreaks: 1

[Editor]
Bookmarks: 13789,52018,80117
DistanceSpacing: 1.39999997615814
BeatDivisor: 4
GridSize: 8

[Metadata]
Title:aftershock!!
Artist:DM Ashura
Creator:nazenaze
Version:Insane
Source:Dance Dance Revolution Universe 3
Tags:ddr Skiboslaw

[Difficulty]
HPDrainRate:5
CircleSize:5
OverallDifficulty:8
SliderMultiplier:1.8
SliderTickRate:1

[Events]
//Background and Video events
0,0,"aftershock!!-bg.jpg"
//Break Periods
2,61951,63676
//Storyboard Layer 0 (Background)
//Storyboard Layer 1 (Fail)
//Storyboard Layer 2 (Pass)
//Storyboard Layer 3 (Foreground)
//Storyboard Sound Samples
//Background Colour Transformations
3,100,163,162,255

[TimingPoints]
3280,382.165605095541,4,1,0,70,1,0
9299,-100,4,1,0,60,0,0
9585,-100,4,1,0,80,0,0
10063,-100,4,1,0,60,0,0
10254,-100,4,1,0,80,0,0
10827,-100,4,1,0,70,0,0
11018,-100,4,1,0,80,0,0
13885,-100,4,1,0,50,0,0
14267,-100,4,1,0,60,0,0
14649,-100,4,1,0,60,0,0
15031,-100,4,1,0,70,0,0
15413,-100,4,1,0,75,0,0
21454,-100,4,2,0,90,0,0
27260,-100,4,1,0,85,0,0
27451,-100,4,1,0,75,0,0
33684,-100,4,2,0,90,0,0
39490,-100,4,1,0,85,0,0
39872,-100,4,1,0,75,0,0
46273,-100,4,1,0,70,0,0
46464,-100,4,1,0,80,0,0
52018,-100,4,2,0,90,0,0
52101,-100,4,2,0,70,0,0
52292,-100,4,2,0,90,0,0
53439,-100,4,2,0,90,0,0
54394,-100,4,2,0,70,0,0
54585,-100,4,2,0,90,0,0
55541,-100,4,2,0,70,0,0
55732,-100,4,2,0,90,0,0
56687,-100,4,2,0,70,0,0
56878,-100,4,2,0,90,0,0
57260,-100,4,2,0,70,0,0
57451,-100,4,2,0,90,0,0
57834,-100,4,2,0,70,0,0
58025,-100,4,2,0,90,0,0
58598,-100,4,2,0,70,0,0
58789,-100,4,2,0,90,0,0
59362,-100,4,2,0,70,0,0
59553,-100,4,2,0,90,0,0
60127,-100,4,2,0,80,0,0
60318,-100,4,2,0,90,0,0
60939,-100,4,2,0,65,0,0
61082,-100,4,2,0,90,0,0
61321,-100,4,2,0,70,0,0
61464,-100,4,2,0,60,0,0
64044,-100,4,2,0,90,0,0
70541,-100,4,1,0,100,0,0
70827,-100,4,1,0,80,0,0
74458,-100,4,1,0,85,0,0
77824,-50,4,2,0,90,0,0
79235,-100,4,2,0,90,0,0
79522,-50,4,2,0,90,0,0
79713,-100,4,1,0,90,0,1
79782,-100,4,2,0,100,0,0
79830,-100,4,2,0,90,0,1
91655,-100,4,2,0,90,0,0
91751,-100,4,2,0,90,0,1
104279,-100,4,2,0,10,0,0
107059,-100,4,1,0,5,0,0
107346,-100,4,1,0,15,0,0
107537,-100,4,1,0,25,0,0
107728,-100,4,1,0,35,0,0
107919,-100,4,1,0,45,0,0
108110,-100,4,1,0,55,0,0
108301,-100,4,1,0,65,0,0
108493,-100,4,1,0,75,0,0
108684,-100,4,1,0,85,0,0
108875,-100,4,1,0,90,0,0
109139,-100,4,1,0,85,0,0

[Colours]
Combo1 : 232,23,117
Combo2 : 209,209,209
Combo3 : 172,47,225
Combo4 : 7,168,228

[HitObjects]
256,192,3279,1,4
256,88,4617,6,0,B|256:40,2,45
256,144,4999,1,0
136,208,5286,1,0
184,336,5572,1,0
320,336,5859,1,0
376,208,6146,1,0
256,248,6337,5,4
256,192,7865,5,4
320,136,9203,5,0
256,192,9394,1,4
256,192,9967,5,0
336,272,10158,1,4
256,192,10732,5,0
152,288,10923,1,4
256,192,11114,1,0
152,96,11305,1,4
256,192,11496,1,0
360,96,11687,1,4
368,104,11783,1,0
376,112,11878,1,0
384,120,11973,1,0
392,128,12069,1,0
400,136,12164,1,0
408,144,12260,1,0
416,152,12356,1,0
424,160,12451,1,4
256,48,13980,5,0
24,192,14362,1,0
256,336,14744,1,0
480,192,15127,1,4
296,64,15509,5,0
296,96,15604,1,0
208,152,15795,1,0
208,112,15891,1,0
112,104,16082,1,0
72,192,16273,1,0
48,224,16369,1,0
112,296,16560,1,0
136,264,16655,1,0
240,272,16846,1,0
328,224,17037,1,0
352,200,17133,1,0
336,96,17324,1,0
304,120,17420,1,0
208,96,17611,2,0,B|136:24,3,90,0|0|0|6
72,104,18375,5,0
72,200,18566,1,0
72,240,18662,1,0
152,304,18853,1,0
152,272,18948,1,0
248,256,19139,1,0
336,296,19330,1,0
368,272,19426,1,0
376,176,19617,1,0
344,152,19713,1,0
408,72,19904,1,0
312,72,20095,1,0
280,96,20190,1,0
176,112,20381,1,0
144,88,20477,1,0
64,152,20668,2,0,B|64:288,3,90,0|0|0|6
280,240,21623,5,2
408,64,22006,1,8
344,152,22197,1,2
104,40,22579,1,0
80,72,22674,1,0
104,104,22770,1,8
80,136,22865,1,0
104,168,22961,1,0
80,200,23057,1,0
104,232,23152,1,0
80,264,23248,1,0
104,296,23343,1,0
80,328,23439,1,0
104,360,23534,1,8
104,360,23916,5,2
384,136,24299,1,8
184,56,24681,5,2
110,258,25063,1,8
148,157,25254,1,2
416,40,25636,1,0
392,72,25732,1,0
416,104,25827,1,8
392,136,25923,1,0
416,168,26018,1,0
392,200,26114,1,0
416,232,26209,1,0
392,264,26305,1,0
416,296,26401,1,0
392,328,26496,1,0
416,360,26592,1,8
416,360,26974,5,2
256,168,27356,1,4
24,240,27738,5,0
40,280,27834,1,0
144,280,28025,1,0
160,240,28120,1,0
88,160,28311,2,0,B|32:104|88:48|112:56,2,135,0|2|2
192,144,29076,1,0
248,240,29267,1,0
264,272,29362,1,0
368,272,29553,1,0
384,232,29649,1,0
488,232,29840,1,0
432,136,30031,1,0
432,136,30127,1,2
432,136,30222,1,0
432,32,30413,1,2
344,88,30604,5,0
240,72,30795,1,0
216,104,30891,1,0
248,208,31082,1,0
224,232,31178,1,0
120,200,31369,2,0,B|40:160|80:72|136:72,2,135,0|2|2
192,280,32133,1,0
280,216,32324,1,0
304,248,32420,1,0
376,328,32611,1,0
400,304,32706,1,0
448,208,32897,2,0,B|504:152|448:96|424:104,2,135,0|2|2
272,80,33853,5,2
164,267,34235,1,8
218,174,34426,1,2
408,344,34808,1,0
432,312,34904,1,0
408,280,34999,1,8
432,248,35095,1,0
408,216,35190,1,0
432,184,35286,1,0
408,152,35381,1,0
432,120,35477,1,0
408,88,35572,1,0
432,56,35668,1,0
408,24,35764,1,8
408,24,36146,5,2
128,248,36528,1,8
320,344,36910,5,2
393,140,37292,1,8
356,241,37483,1,2
64,352,37865,1,0
88,320,37961,1,0
64,288,38057,1,8
88,256,38152,1,0
64,224,38248,1,0
88,192,38343,1,0
64,160,38439,1,0
88,128,38534,1,0
64,96,38630,1,0
88,64,38725,1,0
64,32,38821,1,8
64,32,39203,5,2
248,96,39585,1,0
248,224,39776,1,0
144,192,39967,6,0,L|88:264|88:368,1,180
176,288,40541,1,0
280,288,40732,2,0,L|352:288|416:240,1,135
436,220,41114,1,8
112,72,41496,6,0,L|152:112|240:112,1,135
275,111,41878,1,8
360,40,42069,2,0,L|432:96|432:192,1,180
320,192,42643,1,8
320,296,42834,6,0,B|224:296,1,90
136,248,43216,1,0
112,272,43311,1,8
64,176,43502,1,0
40,144,43598,1,0
128,88,43789,2,0,B|200:184,1,90,0|0
288,160,44171,1,8
288,264,44362,5,8
376,328,44553,1,0
376,328,44649,1,0
376,328,44744,1,0
288,264,44936,2,0,B|200:336,1,90,8|0
216,216,45318,1,0
192,192,45413,1,8
80,200,45604,1,0
104,224,45700,1,8
160,320,45891,5,0
264,320,46082,2,0,B|408:320,2,140,0|4|8
216,240,46846,1,0
216,240,47037,1,0
216,240,47229,1,8
144,160,47420,6,0,B|48:64,2,90,0|0|0
200,72,47993,1,8
256,168,48184,2,0,B|352:264,2,90,0|0|0
152,200,48757,2,0,B|32:296,2,135,8|4|0
152,88,49522,1,8
256,128,49713,1,0
256,168,49808,1,0
328,248,49999,1,0
328,216,50095,1,0
432,176,50286,1,8
368,88,50477,1,0
280,144,50668,5,0
280,184,50764,1,0
232,280,50955,1,0
208,256,51050,1,8
104,240,51241,1,0
104,200,51337,1,0
104,168,51432,1,0
104,64,51623,1,8
184,144,51815,1,12
248,56,52006,5,2
352,64,52197,2,0,L|416:168|384:232,1,180,8|0
304,160,52770,1,0
200,160,52961,2,0,L|200:272,2,90,0|2|8
392,256,53725,5,2
400,152,53916,2,0,L|280:152,1,90
288,256,54299,1,0
288,256,54394,1,0
288,256,54490,1,8
200,320,54681,1,2
96,280,54872,2,0,L|48:200|120:104,1,180,0|0
168,48,55445,5,0
272,48,55636,1,8
224,144,55827,2,0,L|224:248,2,90,0|0|0
336,144,56401,2,0,L|432:128|480:224,1,180,2|8
424,304,56974,5,2
424,304,57069,1,0
424,304,57165,1,0
424,304,57356,1,8
320,296,57547,2,0,L|240:280|192:216,1,135,0|2
207,237,57929,1,8
176,120,58120,5,0
104,200,58311,2,0,L|8:200,2,90,0|0|8
152,296,58885,1,0
256,296,59076,1,2
208,200,59267,1,0
320,200,59458,1,8
424,240,59649,6,0,L|424:128,3,90,0|2|0|8
336,88,60413,1,0
336,88,60509,1,0
336,88,60604,1,2
288,216,60795,1,2
288,216,60891,1,0
288,216,60986,1,8
176,72,61177,1,2
176,72,61273,1,0
176,72,61369,1,8
96,264,61560,1,8
96,264,61751,1,4
72,72,64426,5,2
48,104,64522,1,0
72,136,64617,1,0
40,168,64713,1,0
72,200,64808,1,0
48,240,64904,1,0
72,272,64999,1,0
96,304,65095,1,0
136,288,65190,2,0,B|136:232,3,45
176,232,65572,5,2
208,208,65668,1,0
240,176,65764,1,0
272,152,65859,1,0
304,184,65955,2,0,B|304:248,3,45
336,248,66337,5,2
368,280,66432,1,0
400,312,66528,1,0
424,280,66623,1,0
456,248,66719,1,2
432,216,66815,1,0
464,184,66910,1,0
464,144,67006,1,0
440,112,67101,2,0,B|440:64,3,45,2|0|0|0
400,56,67483,5,0
368,88,67579,1,0
336,56,67674,1,0
296,40,67770,1,0
256,40,67865,1,2
224,64,67961,1,0
192,32,68057,1,0
160,56,68152,1,0
136,88,68248,6,0,B|136:136,3,45,0|0|0|0
160,160,68630,2,0,B|200:184,3,45,2|0|0|0
168,216,69012,6,0,B|144:256,3,45,0|0|0|0
184,272,69394,2,0,B|192:320,3,45,2|0|0|0
232,304,69776,6,0,B|264:344,3,45,0|0|0|0
280,296,70158,2,0,B|344:304,4,45,2|0|0|0|0
392,72,70923,5,0
472,168,71114,1,0
120,72,71496,1,0
40,168,71687,1,0
256,320,72069,5,0
256,320,72165,1,0
256,320,72260,1,0
328,192,72451,1,0
184,192,72643,1,0
432,48,73025,1,0
288,48,73216,1,0
400,312,73598,6,0,B|352:216,1,90
248,320,73980,1,0
136,232,74171,2,0,B|96:328,1,90
256,152,74553,1,0
256,152,74649,1,0
256,152,74744,1,0
288,56,74936,6,0,B|384:56,1,90,0|4
200,112,75318,2,0,B|96:112,1,90,0|4
328,176,75700,2,0,B|432:176,1,90,0|4
168,240,76082,2,0,B|56:240,1,90,0|4
360,304,76464,2,0,B|464:304,1,90,0|4
256,192,78184,6,0,B|272:208|296:176|264:152|216:176|256:200,8,90,0|0|0|0|0|0|0|0|2
256,104,79330,5,0
256,104,79426,1,0
256,104,79522,2,0,L|256:288,1,180,0|4
184,80,80095,5,0
88,264,80286,1,2
328,80,80668,1,0
424,264,80859,1,2
256,144,81241,5,0
256,40,81432,1,2
256,40,81528,1,0
256,40,81623,1,0
352,176,81815,2,0,B|416:272,1,90,0|2
160,176,82197,2,0,B|104:264,1,90,0|2
256,336,82579,1,0
336,240,82770,5,0
352,216,82865,1,0
176,240,83057,1,0
160,216,83152,1,0
312,136,83343,2,0,B|392:40,1,90,0|2
200,136,83725,2,0,B|120:40,1,90,0|2
264,320,84108,5,0
264,216,84299,1,0
264,112,84490,1,2
264,112,84585,1,0
264,112,84681,1,2
264,112,84872,1,0
176,168,85063,1,0
144,144,85158,1,2
352,168,85350,1,0
384,192,85445,1,2
296,328,85636,6,0,B|184:328,1,90,0|2
280,96,86018,2,0,L|357:152,1,90,0|0
160,288,86401,2,0,B|122:173,1,90,0|2
376,200,86783,2,0,L|341:306,1,90
144,144,87165,2,0,L|234:78,1,90,0|2
256,200,87547,5,0
256,200,87643,1,0
256,200,87738,1,2
256,200,87929,1,2
184,112,88120,1,0
208,88,88216,1,2
328,112,88407,1,0
304,88,88502,1,2
296,320,88694,6,0,B|384:264,1,90,0|2
216,320,89076,2,0,B|136:264,1,90,0|2
256,160,89458,2,0,B|256:64,3,90,0|2|2|6
400,192,90222,5,0
112,192,90413,1,0
256,336,90604,1,0
256,304,90700,1,0
256,272,90795,1,8
256,272,90987,1,0
184,96,91178,1,0
184,96,91273,1,2
328,96,91464,1,0
328,96,91560,1,8
256,200,91751,1,4
256,200,91942,6,0,B|256:64|256:64,1,135,0|0
256,64,92324,1,8
360,200,92515,2,0,B|424:304,1,90,0|2
152,200,92897,2,0,B|96:296,1,90,0|8
256,352,93280,5,0
312,248,93471,1,0
312,248,93566,1,2
192,248,93757,1,0
192,248,93853,1,8
104,72,94044,6,0,B|216:56,1,90,0|2
408,72,94426,2,0,B|288:56,1,90,0|8
256,232,94808,1,2
256,232,94904,1,0
256,232,94999,1,2
256,136,95190,6,0,B|256:8,2,90,0|8|0
200,256,95764,1,0
184,288,95859,1,2
312,256,96050,1,0
328,288,96146,1,8
256,128,96337,5,2
256,128,96432,1,0
256,128,96528,2,2,L|256:272,1,135,2|2
256,263,96910,1,8
344,200,97101,1,0
344,96,97292,1,2
344,96,97388,1,0
344,96,97483,1,2
256,32,97674,1,12
168,96,97865,2,0,B|128:184,1,90,0|0
336,288,98248,5,0
336,288,98343,1,0
336,288,98439,2,0,B|376:184,1,90,8|0
256,224,98821,1,0
256,224,98916,1,2
256,112,99108,1,0
256,112,99203,1,8
360,80,99394,5,0
336,48,99490,1,0
296,32,99585,1,2
256,24,99681,1,0
216,32,99776,1,0
176,48,99872,1,0
152,80,99967,1,10
256,144,100158,5,2
256,256,100350,1,2
256,256,100445,1,0
256,256,100541,2,0,B|256:352,1,90,0|10
256,346,100923,1,0
256,144,101114,2,0,B|256:8,1,90,0|2
120,192,101496,5,8
120,192,101592,1,2
392,192,101783,1,0
392,192,101878,1,8
256,232,102069,1,0
80,64,102260,2,0,B|160:168,1,90,2|10
432,320,102643,2,8,B|368:240,1,90,8|8
64,208,103025,5,0
96,224,103120,1,0
128,240,103216,1,0
160,248,103311,1,0
192,240,103407,1,2
224,224,103502,1,0
256,208,103598,1,0
288,192,103694,1,0
320,176,103789,1,2
352,168,103885,1,0
384,176,103980,1,0
416,192,104076,1,2
448,208,104171,1,6
256,192,104267,12,0,106846
248,344,107229,5,0
160,312,107420,1,0
104,232,107611,1,0
112,128,107802,1,0
184,48,107993,1,0
304,48,108184,1,0
400,136,108375,1,0
376,264,108566,1,0
256,336,108757,1,0
256,192,108948,1,0
256,192,109044,1,0
256,192,109235,1,0
256,192,109330,1,4
