osu file format v5

[General]
AudioFilename: DM Ashura feat_ Naoki-DM Ashura Productions-0 - MAX FOREVER.mp3
AudioLeadIn: 1004
PreviewTime: -1
Countdown: 1
SampleSet: Normal
StackLeniency: 0.4
Mode: 0
LetterboxInBreaks: 1
EditorBookmarks: 35248,38810,39210,39610,40010,40410,40810,41210,42010,42410,42810,43210,43610,44010,44347,44410,102444,128042,165107,214346,307240,316839

[Metadata]
Title:MAX FOREVER
Artist:DM Ashura
Creator:Rolled
Version:Challenge
Source:
Tags:

[Difficulty]
HPDrainRate:10
CircleSize:6
OverallDifficulty:6
SliderMultiplier:0.999999999999999
SliderTickRate:0.5

[Events]
//Background and Video events
//Break Periods
//Storyboard Layer 0 (Background)
//Storyboard Layer 1 (Failing)
//Storyboard Layer 2 (Passing)
//Storyboard Layer 3 (Foreground)
//Storyboard Sound Samples
//Background Colour Transformations
3,1348,255,255,255
3,1398,0,0,0
3,1448,255,255,255
3,1298,0,0,0
3,1698,255,255,255
3,1798,0,0,0
3,3398,255,255,255
3,5273,0,0,0
3,6548,255,255,255
3,6623,0,0,0
3,6798,255,255,255
3,6873,0,0,0
3,6998,255,255,255
3,7073,0,0,0
3,7198,255,255,255
3,7273,0,0,0
3,7398,255,255,255
3,7473,0,0,0
3,7698,255,255,255
3,7773,0,0,0
3,9598,255,255,255
3,9623,0,0,0
3,9798,255,255,255
3,9823,0,0,0
3,9998,255,255,255
3,10023,0,0,0
3,10198,255,255,255
3,10223,0,0,0
3,10398,255,255,255
3,10423,0,0,0
3,10598,255,255,255
3,10623,0,0,0
3,10798,255,255,255
3,10823,0,0,0
3,10998,255,255,255
3,11023,0,0,0
3,11198,255,255,255
3,11223,0,0,0
3,11398,255,255,255
3,11423,0,0,0
3,11598,255,255,255
3,11623,0,0,0
3,11798,255,255,255
3,11823,0,0,0
3,11998,255,255,255
3,12023,0,0,0
3,12198,255,255,255
3,12223,0,0,0
3,303988,0,0,0
3,307188,255,255,255
3,307213,0,0,0
3,307988,255,255,255
3,308013,0,0,0
3,308788,255,255,255
3,308813,0,0,0
3,309588,255,255,255
3,309613,0,0,0
3,310388,255,255,255
3,310413,0,0,0
3,311188,255,255,255
3,311213,0,0,0
3,311988,255,255,255
3,312013,0,0,0
3,312788,255,255,255
3,312813,0,0,0
3,313588,255,255,255
3,313613,0,0,0
3,313988,255,255,255
3,314013,0,0,0
3,314388,255,255,255
3,314413,0,0,0
3,314788,255,255,255
3,314813,0,0,0
3,315188,255,255,255
3,315213,0,0,0
3,315588,255,255,255
3,315613,0,0,0
3,315988,255,255,255
3,316013,0,0,0
3,316388,255,255,255
3,316413,0,0,0
3,316788,255,255,255
3,316813,0,0,0
3,317188,255,255,255
3,317213,0,0,0
3,317588,255,255,255
3,317613,0,0,0
3,317988,255,255,255
3,318013,0,0,0
3,318388,255,255,255
3,318413,0,0,0
3,318788,255,255,255
3,318813,0,0,0
3,319188,255,255,255
3,319213,0,0,0
3,319588,255,255,255
3,319613,0,0,0
3,319988,255,255,255
3,320013,0,0,0
3,320388,255,255,255
3,320413,0,0,0
3,320788,255,255,255
3,320813,0,0,0
3,321188,255,255,255
3,321213,0,0,0
3,321588,255,255,255
3,321613,0,0,0
3,321988,255,255,255
3,322013,0,0,0
3,322388,255,255,255
3,322413,0,0,0
3,322788,255,255,255
3,322813,0,0,0
3,323188,255,255,255
3,323213,0,0,0
3,323588,255,255,255
3,323613,0,0,0
3,323988,255,255,255
3,324013,0,0,0
3,324388,255,255,255
3,324413,0,0,0
3,324788,255,255,255
3,324813,0,0,0
3,325188,255,255,255
3,325213,0,0,0
3,325588,255,255,255
3,325613,0,0,0
3,325988,255,255,255
3,326013,0,0,0
3,326388,255,255,255
3,326413,0,0,0
3,326788,255,255,255
3,326813,0,0,0
3,327188,255,255,255
3,327213,0,0,0
3,327588,255,255,255
3,327613,0,0,0
3,327988,255,255,255
3,328013,0,0,0
3,328388,255,255,255
3,328413,0,0,0
3,328788,255,255,255
3,328813,0,0,0
3,329188,255,255,255
3,329213,0,0,0
3,329578,255,255,255
3,329603,0,0,0
3,329778,255,255,255
3,329803,0,0,0
3,329978,255,255,255
3,330003,0,0,0
3,330178,255,255,255
3,330203,0,0,0
3,330378,255,255,255
3,330403,0,0,0
3,330578,255,255,255
3,330603,0,0,0
3,330778,255,255,255
3,330803,0,0,0
3,330978,255,255,255
3,331003,0,0,0
3,331178,255,255,255
3,331203,0,0,0
3,331378,255,255,255
3,331403,0,0,0
3,331578,255,255,255
3,331603,0,0,0
3,331778,255,255,255
3,331803,0,0,0
3,331978,255,255,255
3,332003,0,0,0
3,332178,255,255,255
3,332203,0,0,0
3,332378,255,255,255
3,332403,0,0,0
3,332578,255,255,255
3,332603,0,0,0
3,332778,255,255,255
3,100,0,0,0
3,100,255,255,255
3,100,0,0,0
3,100,255,255,255
3,100,0,0,0
3,100,255,255,255
3,100,0,0,0

[TimingPoints]
12810,200,4,1,0,100,1

[Colours]
Combo1 : 252,157,29
Combo2 : 234,30,251
Combo3 : 16,62,220
Combo4 : 71,230,26
Combo5 : 249,44,21

[HitObjects]
72,80,12810,1,4
96,184,13010,1,0
168,104,13210,2,0,B|240:56|296:104,1,99.9999999999999
336,152,13610,1,4
264,224,13810,1,0
264,224,13910,1,0
264,224,14010,1,0
200,296,14210,1,0
288,344,14410,6,0,B|288:288,3,50,4|0|0|0
336,296,14810,2,0,B|336:240,3,50,4|0|0|0
384,248,15210,2,0,B|384:184,3,50,4|0|0|0
432,200,15610,2,0,B|424:120|352:88,1,99.9999999999999,4|0
208,72,16010,5,4
120,120,16210,1,0
208,160,16410,1,4
120,216,16610,1,0
208,256,16810,1,4
256,344,17010,5,8
256,344,17210,1,8
304,72,17610,5,4
392,120,17810,1,0
304,160,18010,1,4
392,216,18210,1,0
304,256,18410,1,4
256,344,18610,5,8
256,344,18810,1,8
140,110,19410,5,0
88,192,19210,6,0,B|104:96|264:56,1,200,4|4
256,160,19810,1,0
372,110,20210,1,0
424,192,20010,6,0,B|408:96|248:56,1,200,4|4
256,160,20610,1,0
256,295,21010,5,0
256,295,21410,1,0
256,295,21810,1,0
157,296,20810,6,4,B|381:296,3,200
256,240,22210,5,0
256,192,22410,12,0,25210
112,88,25610,6,4,B|240:88,1,99.9999999999999
432,152,26110,5,0
328,152,26310,2,2,B|256:152,3,50,2|2|2|2
80,232,26910,5,0
184,232,27110,2,2,B|256:232,3,50,2|2|2|2
400,296,27710,5,4
304,88,27910,5,4
304,88,28010,6,2,B|248:40|184:112,3,99.9999999999999
400,88,28810,6,4,B|272:88,1,99.9999999999999
80,152,29310,5,0
184,152,29510,2,2,B|256:152,3,50,2|2|2|2
432,232,30110,5,0
328,232,30310,2,2,B|256:232,3,50,2|2|2|2
112,296,30910,5,4
208,88,31110,5,4
208,88,31210,6,2,B|264:40|328:112,3,99.9999999999999
424,192,32010,6,0,B|312:192,1,99.9999999999999,4|0
208,224,32410,2,0,B|112:152,1,99.9999999999999,8|0
168,48,32810,2,0,B|272:40,1,99.9999999999999,4|0
360,112,33210,2,0,B|288:192,1,99.9999999999999,8|0
320,304,33610,2,0,B|432:336,1,99.9999999999999,4|0
392,216,34010,2,0,B|488:152,1,99.9999999999999,8|0
400,64,34410,2,0,B|296:8,1,99.9999999999999,4|8
311,16,34810,1,8
88,192,35210,6,0,B|200:192,1,99.9999999999999,4|0
304,160,35610,2,0,B|400:232,1,99.9999999999999,8|0
344,336,36010,2,0,B|240:344,1,99.9999999999999,4|0
152,272,36410,2,0,B|224:192,1,99.9999999999999,8|0
192,80,36810,2,0,B|80:48,1,99.9999999999999,4|0
120,168,37210,2,0,B|24:232,1,99.9999999999999,8|0
112,320,37610,2,0,B|216:376,1,99.9999999999999,4|8
200,367,37910,1,0
201,368,38010,1,8
392,96,38410,6,0,L|176:96|256:96|72:96|72:224|72:128|72:304|216:304|120:304|408:304,1,1400
120,96,41610,6,0,L|336:96|256:96|440:96|440:224|440:128|440:304|296:304|392:304|112:304,1,1400
40,128,44810,5,0
152,128,45010,5,0
88,32,45210,1,0
152,128,45410,5,0
208,32,45610,1,0
152,128,45810,5,0
256,128,46010,1,0
152,128,46210,5,0
208,224,46410,1,0
152,128,46610,5,0
88,224,46810,1,0
152,128,47010,5,0
40,128,47210,1,0
152,128,47410,5,0
256,128,47610,5,0
360,128,47810,5,0
472,128,48010,5,0
360,128,48210,1,0
416,32,48410,5,0
360,128,48610,1,0
296,32,48810,5,0
360,128,49010,1,0
256,128,49210,5,0
360,128,49410,1,0
296,216,49610,5,0
360,128,49810,1,0
424,216,50010,5,0
360,128,50210,1,0
456,128,50410,5,0
360,128,50610,5,0
256,128,50810,5,0
160,128,51010,5,0
256,192,51210,12,0,51810
256,192,51810,12,0,52610
256,192,52610,12,0,53410
256,192,53410,12,0,53810
256,192,53710,12,0,54010
256,192,54410,12,0,55010
256,192,55010,12,0,55810
256,192,55810,12,0,56610
256,192,56610,12,0,57010
256,192,56910,12,0,57210
88,192,166410,5,0
88,192,166510,1,0
200,192,166710,1,0
312,192,166910,1,0
408,192,167110,1,0
408,192,167310,1,0
312,192,167510,1,0
312,192,167610,1,0
200,192,167810,1,0
168,344,168010,6,0,L|168:200,1,99.9999999999999
224,344,168410,2,0,L|224:232,1,99.9999999999999
280,344,168810,2,0,L|280:232,1,99.9999999999999
336,344,169210,2,0,L|336:232,1,99.9999999999999
424,192,169610,5,0
424,192,169710,1,0
312,192,169910,1,0
200,192,170110,1,0
104,192,170310,1,0
104,192,170510,1,0
200,192,170710,1,0
200,192,170810,1,0
312,192,171010,1,0
336,24,171210,6,0,L|336:168,1,99.9999999999999
280,24,171610,2,0,L|280:136,1,99.9999999999999
224,24,172010,2,0,L|224:136,1,99.9999999999999
168,24,172410,2,0,L|168:136,1,99.9999999999999
168,125,172810,5,0
264,128,173010,1,0
264,213,173210,1,0
264,213,173410,1,0
352,173,173610,1,0
352,269,173810,1,0
248,269,174010,1,0
248,269,174210,1,0
304,349,174410,1,0
200,349,174610,1,0
200,245,174810,1,0
200,245,175010,1,0
112,293,175210,1,0
112,189,175410,1,0
208,189,175610,1,0
208,189,175810,1,0
256,80,176010,5,0
368,184,176210,1,0
256,288,176410,1,0
144,184,176610,1,0
176,112,176810,1,0
328,112,177010,1,0
328,264,177210,1,0
176,264,177410,1,0
256,192,177610,5,0
256,192,177810,1,0
256,192,178010,1,0
256,192,178210,1,0
256,192,178410,1,0
256,192,178510,1,0
256,192,178610,1,0
256,192,178710,1,0
256,192,178810,1,0
256,192,178910,1,0
256,192,179010,1,0
256,192,179110,1,0
256,192,179210,1,0
256,192,179210,12,0,182010
208,200,251210,6,0,B|110:490|248:497|422:489|288:160,1,599.999999999999
160,192,252810,5,0
160,192,252910,1,0
160,192,253010,1,0
160,192,253110,1,0
160,192,253210,1,0
352,192,253510,5,0
352,192,253610,1,0
352,192,253710,1,0
352,192,253810,1,0
352,192,253910,1,0
200,120,254410,6,0,B|110:-162|248:-169|422:-161|312:136,1,599.999999999999
256,192,255510,12,0,256010
80,184,256010,6,0,B|168:264,1,99.9999999999999,4|0
80,104,256410,2,0,B|160:176,1,99.9999999999999,4|0
80,24,256810,2,4,B|248:176,1,200,4|4
328,160,257410,5,8
400,88,257610,1,8
400,88,257810,1,8
400,288,258210,5,8
312,344,258410,1,8
232,280,258610,1,8
232,280,258710,2,8,B|192:240,1,50
120,176,259010,1,8
120,176,259110,6,8,B|160:136,1,50,8|12
232,80,259410,1,0
328,80,259610,1,4
408,136,259810,1,0
432,232,260010,2,4,B|224:232,1,200
184,232,260510,6,4,B|112:232,1,50,8|8
88,192,260710,2,8,B|152:192,1,50
208,128,261010,1,8
344,72,261310,5,8
344,72,261410,1,8
344,184,261610,2,8,L|352:192|344:200|352:208|344:216|352:224|344:232|352:240|344:248|352:256,1,99.9999999999999
350,254,261910,1,8
350,254,262010,1,8
272,336,262210,6,0,L|200:320|168:256,1,99.9999999999999,8|12
104,248,262610,1,0
192,200,262810,1,4
104,152,263010,1,0
104,48,263210,5,4
408,48,263610,1,4
360,136,263810,5,8
432,200,264010,1,8
360,272,264210,1,8
272,320,264410,2,8,L|168:272,1,99.9999999999999
148,149,264910,5,8
120,192,264810,2,8,L|184:96,1,99.9999999999999
175,108,265110,1,8
175,108,265210,1,8
175,108,265410,1,8
381,173,265810,5,0
381,173,266210,1,0
352,80,265610,6,0,B|416:168|344:288,3,200,4|4|4|4
112,192,267210,6,4,B|192:152|272:184,1,150
256,128,267610,6,4,B|176:88|96:120,1,150,0|0
112,64,268010,6,4,B|192:24|256:48,1,99.9999999999999,0|0
256,192,268010,12,4,268810
320,192,269010,5,0
384,120,269210,1,4
280,104,269410,1,0
192,152,269610,2,4,B|96:208|240:360,1,200
256,192,269710,12,8,270810
256,192,271010,5,8
256,192,271210,1,8
256,88,271410,1,8
256,88,271510,1,8
256,88,271610,1,8
344,40,271810,5,8
432,88,272010,1,4
408,184,272210,5,0
312,216,272410,1,4
240,280,272610,1,0
168,352,272810,2,0,B|72:312|144:152,1,200
256,192,272910,12,8,273610
256,104,273810,5,8
352,64,274010,5,8
160,64,274210,1,8
256,240,274410,1,8
256,240,274510,1,8
256,240,274610,1,8
256,240,274710,1,8
256,240,274810,1,8
256,240,275010,1,8
84,279,275210,6,0,B|48:225|90:173,1,99.9999999999999,4|0
200,280,275610,2,0,B|164:226|206:174,1,99.9999999999999,4|0
296,328,276010,2,4,B|344:272|344:192|288:128,1,200
256,192,276110,12,8,276810
304,104,277010,5,8
128,192,277410,1,8
176,192,277510,1,8
224,192,277610,2,8,B|256:248|224:288,1,99.9999999999999
176,288,277910,1,8
128,288,278010,2,8,B|88:336|136:376,1,99.9999999999999
134,375,278310,5,4
134,375,278410,2,4,B|240:368|312:272,1,200
256,192,279010,1,0
199,104,279210,2,4,B|264:17|370:10,1,200,4|4
368,128,279810,5,8
368,272,280010,1,8
368,128,280210,5,8
368,272,280410,1,8
256,192,280610,5,8
256,192,280810,12,0,281610
256,192,287610,5,0
256,192,281610,12,0,294010
56,344,294410,6,0,B|152:384|360:352|448:264|472:120|480:40,1,599.999999999999,4|0
368,128,296010,2,0,B|328:252|152:296|152:304,1,200,4|2
160,192,296610,2,0,B|298:156|304:-24,1,200,4|2
192,72,297210,2,0,B|168:120|88:136,1,99.9999999999999,4|2
40,56,297610,6,0,B|40:184|96:296|192:328|368:336|448:304|504:248,1,599.999999999999,4|0
336,240,299210,2,0,B|176:224|128:112,1,200,4|2
200,88,299810,2,0,B|272:200|464:160,1,200,4|2
368,96,300410,2,0,B|312:96|288:56,1,99.9999999999999,4|2
488,48,300810,6,0,B|480:184|474:380|253:376|88:320|0:328,1,599.999999999999,4|0
200,256,302410,2,0,B|340:263|392:136,1,200,4|2
320,88,303010,2,0,B|264:160|120:144,1,200,4|2
168,48,303610,1,4
168,48,303810,1,2
256,192,304010,12,0,306810
80,128,307210,5,12
160,72,307410,1,0
240,128,307610,1,0
320,72,307810,1,0
480,176,308010,5,12
400,232,308210,1,0
320,176,308410,1,0
240,232,308610,1,0
96,264,308810,6,0,B|56:312|104:368,1,99.9999999999999,12|0
200,184,309210,6,0,B|160:232|208:288,1,99.9999999999999,8|0
328,120,309610,6,0,B|288:168|336:224,1,99.9999999999999,12|0
432,40,310010,6,0,B|392:88|440:144,1,99.9999999999999,8|0
440,280,310410,5,12
344,304,310610,1,0
248,288,310810,1,0
184,208,311010,1,0
72,104,311210,5,12
168,80,311410,1,0
264,96,311610,1,0
328,176,311810,1,0
152,336,312010,6,0,B|200:368|256:336,1,99.9999999999999,12|0
360,240,312410,6,0,B|312:272|256:240,1,99.9999999999999,8|0
152,144,312810,6,0,B|200:176|256:144,1,99.9999999999999,12|0
360,48,313210,6,0,B|312:80|256:48,1,99.9999999999999,8|0
392,128,313610,5,12
440,216,313810,1,0
392,128,314010,1,0
288,128,314210,1,0
224,264,314410,5,12
120,264,314610,1,0
72,176,314810,1,0
120,264,315010,1,0
192,104,315210,6,0,B|248:72|240:16,1,99.9999999999999,12|0
352,184,315610,6,0,B|296:152|304:96,1,99.9999999999999,8|0
200,272,316010,6,0,B|256:240|248:184,1,99.9999999999999,12|0
360,352,316410,6,0,B|304:320|312:264,1,99.9999999999999,8|0
200,360,316810,5,12
112,280,317010,1,0
72,184,317210,1,0
120,96,317410,1,0
256,40,317610,5,12
344,120,317810,1,0
384,216,318010,1,0
336,304,318210,1,0
128,240,318410,5,12
152,256,318510,1,0
176,264,318610,1,0
200,272,318710,1,8
224,280,318810,1,0
248,280,318910,1,0
272,280,319010,1,8
296,272,319110,1,0
320,264,319210,1,8
344,248,319310,5,0
320,264,319410,1,0
296,272,319510,1,8
272,280,319610,1,0
248,280,319710,1,0
224,280,319810,1,8
200,272,319910,1,0
176,264,320010,5,12
120,176,320210,1,0
184,88,320410,1,0
296,80,320610,1,0
440,32,320810,5,12
496,120,321010,1,0
432,208,321210,1,0
320,216,321410,1,0
152,304,321610,6,0,B|48:304,1,99.9999999999999,12|0
0,192,322010,6,0,B|104:192,1,99.9999999999999,8|0
200,192,322410,6,0,B|100:192,1,99.9999999999999,12|0
52,80,322810,6,0,B|152:80,1,99.9999999999999,8|0
325,49,323210,5,12
373,137,323410,1,0
293,193,323610,1,0
325,289,323810,1,0
189,337,324010,5,12
141,249,324210,1,0
221,193,324410,1,0
189,97,324610,1,0
376,24,324810,6,0,B|448:56|432:128,1,99.9999999999999,12|0
296,152,325210,6,0,B|312:224|368:232,1,99.9999999999999,8|0
433,356,325610,6,0,B|505:324|489:252,1,99.9999999999999,12|0
353,228,326010,6,0,B|369:156|425:148,1,99.9999999999999,8|0
256,104,326410,5,12
176,160,326610,1,0
176,160,326710,1,0
176,160,326810,1,0
32,192,327010,5,8
32,192,327210,1,12
176,224,327410,5,0
176,224,327510,1,0
176,224,327610,1,0
272,192,327810,5,8
313,304,328010,6,0,B|369:296,3,50,8|0|0|8
353,240,328410,6,0,B|305:208,3,50,0|0|8|0
312,152,328810,6,0,B|354:125,3,50,8|0|0|8
363,68,329210,6,0,B|313:56,3,50,0|0|8|0
314,56,329610,5,12
194,56,329810,5,0
314,56,330010,5,0
194,56,330210,1,0
314,56,330410,5,12
194,56,330610,1,0
314,56,330810,5,0
194,56,331010,1,0
256,192,331210,5,8
256,192,331310,1,0
256,192,331410,1,0
256,192,331510,1,8
256,192,331610,1,0
256,192,331710,1,0
256,192,331810,1,8
256,192,331910,1,0
240,256,332010,6,4,B|288:256,16,25
