osu file format v9

[General]
AudioFilename: DM Ashura - Chaotic WHITE.mp3
AudioLeadIn: 3000
PreviewTime: 67506
Countdown: 0
SampleSet: Normal
StackLeniency: 0.6
Mode: 0
LetterboxInBreaks: 0

[Editor]
Bookmarks: 15006,30006,45006,60006,67506,82506,97506
DistanceSpacing: 0.8
BeatDivisor: 4
GridSize: 8

[Metadata]
Title:Chaotic WHITE
Artist:DM Ashura
Creator:AngelHoney
Version:Insane
Source:NeoD.E.V.A.
Tags:Euphorium 2 NeoDEVA ignorethis

[Difficulty]
HPDrainRate:6
CircleSize:4
OverallDifficulty:7
ApproachRate:9
SliderMultiplier:2
SliderTickRate:0.5

[Events]
//Background and Video events
0,0,"14666238.jpg"
//Break Periods
2,3252,7140
2,10752,12531
2,32081,36906
//Storyboard Layer 0 (Background)
//Storyboard Layer 1 (Fail)
//Storyboard Layer 2 (Pass)
//Storyboard Layer 3 (Foreground)
//Storyboard Sound Samples
Sample,50162,0,"normal-hitclap.wav",60
//Background Colour Transformations
3,100,0,0,0

[TimingPoints]
6,468.75,4,1,1,30,1,0
12662,-100,4,1,1,0,0,0
14771,-100,4,1,1,60,0,0
15006,-100,4,1,1,60,0,1
15064,-100,4,1,1,60,0,0
30006,-100,4,1,1,60,0,1
31881,-100,4,1,1,60,0,0
37037,-100,4,1,1,50,0,0
44947,-100,4,1,1,60,0,0
65162,-100,4,1,1,80,0,0
67447,-100,4,1,1,70,0,0
67506,-100,4,1,1,70,0,1
67564,-100,4,1,1,70,0,0
82506,-100,4,1,1,70,0,1
82564,-100,4,1,1,70,0,0
97506,-100,4,1,1,70,0,1
97623,-100,4,1,1,0,0,1
101256,-100,4,1,1,0,0,0

[Colours]
Combo1 : 255,255,128
Combo2 : 255,0,0
Combo3 : 128,255,128
Combo4 : 255,128,64

[HitObjects]
48,112,240,1,0
128,64,474,1,2
208,112,709,1,0
288,64,943,1,2
368,112,1177,1,2
448,64,1412,1,0
496,144,1646,1,2
416,192,1881,1,0
304,304,2349,2,0,B|160:384|16:304,1,300,2|2
416,128,7740,5,0
336,80,7974,1,2
272,144,8209,1,0
192,96,8443,1,2
128,160,8677,1,2
32,128,8912,1,0
0,224,9146,1,2
96,256,9381,1,0
480,320,9849,2,0,B|352:224|192:320,1,300,2|2
256,192,13131,12,0,14537
48,80,15006,5,4
144,144,15240,1,0
176,160,15357,1,0
208,176,15474,1,8
288,96,15709,2,0,B|400:96,1,100
336,208,16177,2,0,B|464:208,1,100,0|8
384,320,16646,1,0
256,336,16881,6,0,B|160:272|64:336,1,200,0|8
32,224,17584,1,0
48,192,17701,1,0
64,160,17818,1,0
80,128,17935,1,0
96,96,18052,1,0
224,48,18287,1,8
320,144,18521,1,0
320,144,18638,1,0
320,144,18756,6,0,B|432:176,1,100,4|0
192,192,19224,2,0,B|80:160,1,100,8|0
304,240,19693,2,0,B|352:368,1,100
232,112,20162,2,0,B|184:-16,1,100,8|0
352,64,20631,5,0
464,176,20865,1,0
384,304,21099,1,8
224,256,21334,1,0
208,224,21451,1,0
80,224,21685,1,8
64,200,21802,1,0
112,80,22037,1,8
240,96,22271,1,8
240,96,22388,1,8
240,96,22506,6,0,B|336:48,1,100,4|0
352,160,22974,2,0,B|480:96,1,100,8|0
464,224,23443,1,0
384,304,23677,1,0
352,288,23795,1,0
320,272,23912,1,8
208,320,24146,1,0
96,240,24381,5,0
48,96,24615,1,0
80,112,24732,1,0
112,128,24849,2,0,B|240:80,1,100,8|0
240,80,25201,1,0
272,64,25318,1,0
304,48,25435,1,0
336,32,25552,2,0,B|448:96,1,100,0|8
176,288,26021,1,0
176,288,26138,1,0
176,288,26256,6,0,B|288:272,1,100,4|0
400,128,26724,2,0,B|288:144,1,100,8|0
112,80,27193,2,0,B|176:208,1,100
352,272,27662,2,0,B|304:176,1,100,8|0
240,80,28131,5,0
128,144,28365,1,8
112,176,28482,1,0
192,272,28716,1,8
176,304,28834,1,0
336,320,29068,1,8
352,304,29185,1,0
368,288,29302,1,0
384,272,29420,1,8
400,256,29537,1,0
416,240,29654,1,0
432,224,29771,1,8
448,208,29888,1,8
464,192,30006,1,4
256,192,30240,12,0,31881
80,144,37506,5,0
112,128,37623,1,0
144,112,37740,1,0
176,96,37857,1,0
208,80,37974,1,8
288,144,38209,1,0
320,128,38326,1,0
416,144,38560,1,0
448,128,38677,1,0
464,256,38912,1,8
368,320,39146,1,0
336,336,39263,1,0
304,320,39381,5,0
272,304,39498,1,0
240,288,39615,1,0
208,272,39732,1,0
176,256,39849,1,8
48,288,40084,1,0
32,256,40201,1,0
96,144,40435,1,0
112,112,40552,1,0
224,48,40787,1,8
336,112,41021,1,0
368,96,41138,1,0
400,80,41256,5,0
432,112,41373,1,0
448,160,41490,1,0
432,208,41607,1,0
400,240,41724,1,8
288,304,41959,1,0
256,272,42076,1,0
144,256,42310,1,0
112,288,42427,1,0
32,192,42662,1,8
96,64,42896,1,0
128,80,43013,1,0
160,96,43131,5,0
192,96,43248,1,0
224,96,43365,1,0
256,96,43482,1,0
288,96,43599,1,8
416,160,43834,1,0
384,176,43951,1,0
240,224,44185,1,8
272,240,44302,1,0
144,336,44537,1,8
112,320,44654,1,0
80,304,44771,1,8
48,288,44888,1,8
16,256,45006,6,0,B|112:304|208:224,1,200,4|8
112,160,45709,2,0,B|192:80|304:128,1,200
368,224,46412,1,8
464,64,46646,1,0
464,64,46763,1,0
464,64,46881,2,0,B|432:176,1,100
304,304,47349,2,0,B|272:192,1,100,8|0
240,80,47818,1,2
80,288,48170,1,2
400,240,48521,1,2
80,128,48756,5,0
80,128,48873,1,0
80,128,48990,1,0
80,128,49107,1,0
80,128,49224,1,8
176,192,49459,1,0
144,304,49693,2,0,B|256:288,1,100
240,240,50045,2,0,B|352:272,1,100
368,240,50396,1,0
480,96,50631,5,0
464,144,50748,1,0
435,181,50865,1,0
394,205,50982,1,0
351,222,51099,1,8
240,128,51334,1,0
192,144,51451,2,0,B|144:256,1,100,0|8
192,256,51802,2,0,B|224:368,1,100,0|8
64,304,52271,1,8
48,272,52388,1,8
32,240,52506,6,0,B|80:112,1,100
80,112,52857,1,0
96,80,52974,1,8
224,48,53209,1,0
240,80,53326,1,0
352,64,53560,1,0
384,96,53677,1,0
480,192,53912,1,8
352,272,54146,1,0
352,272,54263,1,0
352,272,54381,6,0,B|280:248,1,50
216,296,54615,2,0,B|280:320,1,50
320,352,54849,1,8
240,160,55084,1,0
96,224,55318,1,0
32,96,55552,1,0
64,80,55670,1,0
96,64,55787,1,8
128,48,55904,1,0
160,32,56021,2,0,B|224:32,1,50,0|8
240,64,56256,5,0
368,80,56490,1,0
384,112,56607,1,0
400,144,56724,1,8
304,224,56959,1,0
160,272,57193,1,0
192,304,57310,2,0,B|304:320,1,100
320,352,57662,2,0,B|208:384,1,100,8|0
64,336,58131,5,0
32,224,58365,1,0
48,192,58482,1,0
64,160,58599,1,8
48,48,58834,1,0
176,64,59068,1,8
304,80,59302,1,0
336,112,59420,1,8
368,144,59537,1,0
400,176,59654,1,0
432,208,59771,1,8
464,240,59888,1,8
496,272,60006,5,4
128,304,60474,1,0
368,352,60826,1,0
272,208,61177,1,0
208,112,61412,1,0
432,64,61881,5,0
96,128,62349,1,0
320,160,62701,1,0
208,224,62935,1,0
224,256,63052,1,0
336,272,63287,1,0
448,304,63521,1,0
432,336,63638,1,0
416,368,63756,1,0
144,112,65513,6,0,B|128:80,2,25,0|0|8
160,144,65748,1,0
176,176,65865,1,0
192,208,65982,1,8
208,240,66099,1,0
224,272,66216,1,0
240,304,66334,1,8
416,96,66568,1,0
400,128,66685,1,8
384,160,66802,1,0
368,192,66920,1,0
352,224,67037,1,8
240,96,67271,1,8
208,80,67388,1,8
176,64,67506,6,0,B|112:32,2,50,4|0|0
144,208,67974,2,0,B|256:192,1,100,8|0
288,160,68326,1,0
336,128,68443,2,0,B|416:224,1,100
192,304,68912,2,0,B|304:320,1,100,8|0
448,256,69381,5,0
464,208,69498,1,0
480,160,69615,1,0
368,32,69849,2,0,B|256:128,1,100,8|0
256,128,70201,1,0
224,160,70318,1,0
64,96,70552,2,0,B|80:224,1,100,0|8
80,240,70904,1,0
88,288,71021,1,0
304,192,71256,5,0
288,240,71373,1,0
272,288,71490,2,0,B|368:352,1,100,0|8
192,208,71959,1,0
176,160,72076,1,0
160,112,72193,1,0
352,208,72427,2,0,B|464:160,1,100,0|8
464,128,72779,1,0
448,80,72896,6,0,B|352:16,1,100
320,32,73248,1,0
272,48,73365,1,0
112,48,73599,1,8
32,208,73834,1,0
80,224,73951,1,0
128,240,74068,1,0
240,336,74302,1,0
336,208,74537,1,8
336,208,74654,1,0
336,208,74771,1,8
336,208,74888,1,8
336,208,75006,6,0,B|432:208,2,50
192,128,75474,1,8
416,112,75709,2,0,B|496:96,2,50
288,48,76177,1,0
352,288,76412,2,0,B|336:352,2,50,8|0|0
96,112,76881,5,0
64,160,76998,1,0
48,208,77115,1,0
160,336,77349,1,8
256,192,77584,1,0
288,144,77701,1,0
296,88,77818,1,0
440,40,78052,2,0,B|472:88|472:152,1,100,0|8
472,184,78404,1,0
464,232,78521,1,0
128,64,78756,5,0
96,112,78873,1,0
80,168,78990,1,0
400,208,79224,1,8
208,48,79459,1,0
176,96,79576,1,0
160,152,79693,1,0
400,224,79927,1,0
280,40,80162,1,8
256,88,80279,1,0
240,144,80396,1,0
320,320,80631,5,0
320,320,80748,1,0
320,320,80865,1,0
352,80,81099,1,8
160,64,81334,1,0
165,115,81451,1,0
154,164,81568,1,0
125,206,81685,1,8
86,241,81802,1,0
398,299,82037,1,8
370,259,82154,1,0
346,213,82271,1,8
332,164,82388,1,8
333,111,82506,5,4
354,64,82623,1,0
387,28,82740,1,0
496,160,82974,1,8
272,288,83209,1,0
224,304,83326,1,0
176,320,83443,1,0
272,160,83677,1,0
160,240,83912,1,8
112,256,84029,1,0
64,272,84146,1,0
64,80,84381,5,0
112,96,84498,1,0
160,112,84615,1,0
352,48,84849,1,8
464,192,85084,1,0
416,224,85201,1,0
368,256,85318,1,0
208,352,85552,1,0
64,208,85787,1,8
112,192,85904,1,0
160,208,86021,1,0
208,192,86138,1,8
256,208,86256,6,0,B|368:208,1,100
400,192,86607,1,0
448,176,86724,1,8
288,64,86959,1,0
288,64,87076,1,0
288,64,87193,1,0
48,160,87427,1,0
144,304,87662,1,8
160,256,87779,1,0
176,208,87896,1,0
320,96,88131,5,0
336,144,88248,1,0
352,192,88365,1,0
480,224,88599,1,8
336,328,88834,1,0
288,328,88951,1,0
240,320,89068,1,0
192,304,89185,1,8
152,272,89302,1,0
120,240,89420,1,0
96,200,89537,2,0,B|96:144|128:88,1,100
104,56,89888,1,8
144,32,90006,6,0,B|208:16,2,50
336,112,90474,2,0,B|224:144,1,100,8|0
192,160,90826,1,0
144,176,90943,1,0
272,256,91177,1,0
320,272,91295,1,0
368,288,91412,1,8
464,192,91646,1,0
368,48,91881,5,0
320,32,91998,1,0
272,16,92115,1,0
80,96,92349,2,0,B|208:144,1,100,8|0
216,152,92701,1,0
264,168,92818,1,0
352,336,93052,1,0
304,320,93170,1,0
256,304,93287,2,0,B|144:272,1,100,8|0
48,160,93756,5,0
48,160,93873,1,0
48,160,93990,1,0
208,64,94224,1,8
384,96,94459,1,0
384,96,94576,1,0
384,96,94693,1,0
480,224,94927,1,0
320,288,95162,1,8
272,272,95279,1,0
224,256,95396,1,0
48,208,95631,5,0
192,128,95865,1,8
176,96,95982,1,0
320,96,96216,1,8
336,64,96334,1,0
448,176,96568,1,8
400,192,96685,1,0
352,208,96802,1,0
304,224,96920,1,8
256,240,97037,1,0
208,256,97154,1,0
160,272,97271,1,8
112,288,97388,1,8
64,304,97506,1,4
256,192,97740,12,0,101256
