osu file format v5

[General]
AudioFilename: SD.mp3
AudioLeadIn: 0
PreviewTime: -1
Countdown: 0
SampleSet: None
StackLeniency: 0.7
Mode: 0
LetterboxInBreaks: 1
EditorDistanceSpacing: 0.800000011920929

[Metadata]
Title:Sudden Death
Artist:DJ.HAMCHEESE
Creator:q373406626
Version:Super Hard Mix
Source:EZ2ON
Tags:ez2on

[Difficulty]
HPDrainRate:7
CircleSize:7
OverallDifficulty:10
SliderMultiplier:1.4
SliderTickRate:1

[Events]
//Background and Video events
0,0,"sd.jpg"
Video,2628,"Ez2On_Online 2009-07-29 19-33-40-20(1).AVI"
//Break Periods
2,24493,25716
//Storyboard Layer 0 (Background)
//Storyboard Layer 1 (Fail)
//Storyboard Layer 2 (Pass)
//Storyboard Layer 3 (Foreground)
//Storyboard Sound Samples
//Background Colour Transformations
3,100,163,162,255

[TimingPoints]
165,468.420641736279,4,0,0,100,1,0

[HitObjects]
192,192,11177,1,0
256,192,11412,5,0
256,192,11880,1,0
256,192,12348,5,0
256,192,12817,1,0
256,192,13285,5,0
256,192,13754,1,0
256,192,14222,5,0
256,192,14691,1,0
256,192,15159,5,0
256,192,15627,1,0
256,192,16096,5,0
256,192,16564,1,0
256,192,17033,5,0
256,192,17501,1,0
256,192,17969,5,0
256,192,18438,1,0
256,192,18672,1,0
256,192,18906,5,0
256,192,19375,1,0
256,192,19843,5,0
256,192,20312,1,0
256,192,20780,5,0
256,192,21248,1,0
256,192,21717,5,0
256,192,22185,1,0
256,192,22654,5,0
256,192,23122,1,0
256,192,23591,5,0
256,192,24059,1,0
256,192,24293,1,0
32,192,26166,5,0
112,192,26401,5,0
400,192,26869,5,0
112,192,27338,5,0
400,192,27806,5,0
112,192,28275,5,0
400,192,28743,5,0
112,192,29212,5,0
400,192,29680,5,0
112,192,30148,5,0
400,192,30617,5,0
112,192,31085,5,0
400,192,31554,5,0
112,192,32022,5,0
400,192,32491,5,0
112,192,32959,5,0
400,192,33427,5,0
112,192,33896,5,0
400,192,34364,5,0
112,192,34833,5,0
400,192,35301,5,0
112,192,35769,5,0
400,192,36238,5,0
112,192,36706,5,0
400,192,37175,5,0
112,192,37643,5,0
400,192,38112,5,0
112,192,38580,5,0
400,192,39048,5,0
112,192,39517,5,0
400,192,39985,5,0
112,192,40454,5,0
400,192,40922,5,0
256,64,41391,5,0
256,304,41859,5,0
256,64,42327,5,0
256,304,42796,5,0
256,64,43264,5,0
256,304,43733,5,0
256,64,44201,5,0
256,304,44670,5,0
256,64,45138,5,0
256,304,45607,5,0
256,64,46075,5,0
256,304,46544,5,0
256,64,47012,5,0
256,304,47481,5,0
256,64,47948,5,0
256,304,48417,5,0
112,192,48885,5,0
400,192,49354,5,0
112,192,49822,5,0
400,192,50291,5,0
112,192,50759,5,0
400,192,51228,5,0
112,192,51696,5,0
400,192,52165,5,0
256,64,52633,5,0
256,304,53101,5,0
256,64,53569,5,0
256,304,54037,5,0
96,304,54506,5,0
96,64,54975,5,0
384,64,55443,5,0
384,304,55912,5,0
256,192,56380,5,0
224,64,56848,5,0
96,128,57317,5,0
80,256,57785,5,0
192,352,58254,5,0
352,336,58722,5,0
432,208,59191,5,0
352,64,59659,5,0
224,128,60127,5,0
336,224,60596,5,0
208,304,61064,5,0
96,192,61533,5,0
208,64,62001,5,0
400,80,62469,5,0
400,288,62938,5,0
224,336,63406,5,0
128,192,63875,5,0
272,192,64343,5,0
352,48,64812,5,0
480,112,65280,5,0
480,272,65748,5,0
320,320,66217,5,0
336,176,66685,5,0
192,176,67154,5,0
48,288,67622,5,0
48,112,68090,5,0
176,64,68559,5,0
224,240,69027,5,0
384,176,69496,5,0
320,352,69964,5,0
144,304,70433,5,0
80,128,70901,5,0
256,192,71369,5,0
256,192,71838,5,0
256,192,72306,5,0
256,192,72775,5,0
256,192,73243,5,0
256,192,73712,5,0
256,192,74180,5,0
256,192,74648,5,0
256,192,75117,5,0
256,192,75585,5,0
256,192,76054,5,0
256,192,76522,5,0
256,192,76990,5,0
256,192,77459,5,0
256,192,77927,5,0
256,192,78396,5,0
256,192,78625,5,0
