osu file format v14

[General]
AudioFilename: Snake Stick.mp3
AudioLeadIn: 1500
PreviewTime: 48338
Countdown: 0
SampleSet: Soft
StackLeniency: 0.4
Mode: 0
LetterboxInBreaks: 0
WidescreenStoryboard: 1

[Editor]
Bookmarks: 13579,40063,41718,54960,68202,81444,94686,97996,107927,109583
DistanceSpacing: 1
BeatDivisor: 4
GridSize: 4
TimelineZoom: 1

[Metadata]
Title:Snake Stick
TitleUnicode:Snake Stick
Artist:DJ Yoshitaka VS. DJ Mass MAD Izm*
ArtistUnicode:DJ Yoshitaka VS. DJ Mass MAD Izm*
Creator:Axey
Version:Normal
Source:beatmaniaIIDX 19th Lincle
Tags:Kiddly yf_bmp konami bemani TTTTTTTTTTTT
BeatmapID:292585
BeatmapSetID:112455

[Difficulty]
HPDrainRate:2
CircleSize:4
OverallDifficulty:3
ApproachRate:5
SliderMultiplier:1.2
SliderTickRate:1

[Events]
//Background and Video events
0,0,"33700724.jpg",0,0
//Break Periods
2,58483,67014
//Storyboard Layer 0 (Background)
//Storyboard Layer 1 (Fail)
//Storyboard Layer 2 (Pass)
//Storyboard Layer 3 (Foreground)
//Storyboard Sound Samples

[TimingPoints]
350,413.807284768212,4,2,1,70,1,0
6441,-100,4,2,1,60,0,0
6648,-100,4,2,1,70,0,0
8096,-100,4,2,1,60,0,0
8302,-100,4,2,1,70,0,0
13993,-100,4,2,1,70,0,0
20511,-100,4,2,1,100,0,0
20718,-100,4,2,1,70,0,0
22166,-100,4,2,1,100,0,0
22373,-100,4,2,1,70,0,0
23821,-100,4,2,1,100,0,0
24028,-100,4,2,1,70,0,0
25476,-100,4,2,1,100,0,0
25683,-100,4,2,1,70,0,0
40063,-100,4,2,1,30,0,0
41718,-100,4,2,1,80,0,0
47925,-100,4,2,1,70,0,0
109583,-100,4,2,1,40,0,0

[HitObjects]
80,56,338,6,0,P|80:128|104:168,1,120,4|0,0:0|0:0,0:0:0:0:
432,320,2005,2,0,P|432:248|408:208,1,120,2|0,0:0|0:0,0:0:0:0:
72,336,3660,6,0,P|144:336|184:312,1,120,2|0,0:0|0:0,0:0:0:0:
420,42,5315,2,0,P|348:42|308:66,2,120,2|0|2,0:0|0:0|0:0,0:0:0:0:
452,160,6557,1,8,0:0:0:0:
340,196,6970,6,0,P|340:268|364:308,2,120,2|0|2,0:0|0:0|0:0,0:0:0:0:
456,160,8212,1,8,0:0:0:0:
256,192,8626,12,0,11936,0:0:0:0:
448,68,13591,6,0,L|500:12,2,60
328,68,14419,2,0,P|340:152|376:172,1,120,0|8,0:0|0:0,0:0:0:0:
480,196,15247,6,0,P|496:268|448:304,1,120
348,276,16074,2,0,L|224:276,1,120,0|8,0:0|0:0,0:0:0:0:
108,296,16902,6,0,L|56:352,2,60,4|0|0,0:0|0:0|0:0,0:0:0:0:
104,176,17729,1,0,0:0:0:0:
100,56,18143,1,8,0:0:0:0:
104,176,18557,6,0,L|48:232,2,60
208,116,19385,1,0,0:0:0:0:
208,116,19592,1,0,0:0:0:0:
208,116,19798,1,2,0:0:0:0:
252,228,20212,6,0,P|328:156|296:12,1,240,4|0,0:0|0:0,0:0:0:0:
204,84,21454,1,8,0:0:0:0:
120,172,21867,2,0,P|168:288|272:320,1,240,0|0,0:0|0:0,0:0:0:0:
348,228,23109,1,8,0:0:0:0:
308,116,23523,6,0,P|424:124|468:236,1,240,4|0,0:0|0:0,0:0:0:0:
348,228,24764,1,8,0:0:0:0:
392,340,25178,2,0,P|276:332|232:220,1,240
232,108,26419,1,8,0:0:0:0:
232,108,26833,5,4,0:0:0:0:
295,210,27247,1,0,0:0:0:0:
412,181,27661,1,0,0:0:0:0:
420,62,28075,1,0,0:0:0:0:
309,17,28488,5,0,0:0:0:0:
268,132,28902,1,0,0:0:0:0:
188,40,29316,1,0,0:0:0:0:
144,152,29730,1,0,0:0:0:0:
144,152,30144,6,0,L|164:228,1,60,4|0,0:0|0:0,0:0:0:0:
176,268,30557,1,8,0:0:0:0:
288,220,30971,2,0,B|312:176|284:120|284:76,1,120,0|8,0:0|0:0,0:0:0:0:
400,64,31799,6,0,L|420:140,1,60
432,180,32213,1,8,0:0:0:0:
312,180,32626,2,0,B|292:228|340:252|316:324,1,120,0|8,0:0|0:0,0:0:0:0:
208,336,33454,5,4,0:0:0:0:
120,252,33868,1,8,0:0:0:0:
16,188,34282,1,0,0:0:0:0:
128,224,34696,1,8,0:0:0:0:
248,232,35109,5,0,0:0:0:0:
248,232,35316,1,0,0:0:0:0:
248,232,35523,1,8,0:0:0:0:
248,112,35937,1,0,0:0:0:0:
248,112,36351,1,8,0:0:0:0:
340,188,36765,6,0,L|408:216,2,60,0|0|8,0:0|0:0|0:0,0:0:0:0:
248,112,37592,1,0,0:0:0:0:
156,188,38006,1,8,0:0:0:0:
256,192,38420,12,0,40075,0:0:0:0:
60,76,41730,6,0,L|80:152,1,60,4|2,0:0|0:0,0:0:0:0:
92,192,42144,1,0,0:0:0:0:
152,296,42558,2,0,L|144:376,2,60,0|2|0,0:0|0:0|0:0,0:0:0:0:
216,196,43385,5,4,0:0:0:0:
304,116,43799,1,0,0:0:0:0:
416,68,44213,2,0,L|488:88,2,60,0|2|0,0:0|0:0|0:0,0:0:0:0:
300,32,45041,5,4,0:0:0:0:
184,68,45454,1,0,0:0:0:0:
96,148,45868,2,0,L|12:140,2,60,0|2|0,0:0|0:0|0:0,0:0:0:0:
132,264,46696,6,0,L|204:284,1,60,4|2,0:0|0:0,0:0:0:0:
248,296,47110,1,0,0:0:0:0:
352,232,47524,2,0,L|440:220,2,60,0|2|4,0:0|0:0|0:0,0:0:0:0:
404,124,48351,6,0,P|472:176|436:336,1,240
376,228,49593,1,8,0:0:0:0:
256,224,50006,6,0,L|180:232,2,60,0|0|8,0:0|0:0|0:0,0:0:0:0:
212,112,50834,1,0,0:0:0:0:
212,112,51248,1,8,0:0:0:0:
96,88,51662,6,0,L|20:124,2,60,4|0|0,0:0|0:0|0:0,0:0:0:0:
132,204,52489,2,0,L|100:264,2,60
236,264,53317,2,0,L|256:344,2,60,0|0|0,0:0|0:0|0:0,0:0:0:0:
228,144,54144,1,0,0:0:0:0:
168,40,54558,6,2,P|224:28|300:48,1,120,0|4,0:0|0:0,0:0:0:0:
368,128,55386,2,0,P|384:196|360:252,2,120
252,160,56627,5,0,0:0:0:0:
168,244,57041,1,0,0:0:0:0:
256,328,57455,1,0,0:0:0:0:
256,328,57662,1,0,0:0:0:0:
256,328,57869,1,0,0:0:0:0:
340,244,58283,5,4,0:0:0:0:
40,48,68214,6,0,L|56:120,1,60,4|0,0:0|0:0,0:0:0:0:
472,336,69869,6,0,L|456:264,1,60,0|0,0:0|0:0,0:0:0:0:
472,48,71524,6,0,L|456:120,1,60,4|0,0:0|0:0,0:0:0:0:
40,336,73180,6,0,L|56:264,1,60,0|0,0:0|0:0,0:0:0:0:
112,108,74007,2,0,P|232:152|256:268,1,240
320,148,75249,1,0,0:0:0:0:
320,148,75662,6,0,P|200:192|176:308,1,240,0|0,0:0|0:0,0:0:0:0:
292,296,76904,1,0,0:0:0:0:
292,296,77318,2,0,P|436:284|468:192,2,240
356,196,79387,1,0,0:0:0:0:
356,196,79800,6,0,P|224:224|184:316,1,240
304,296,81042,1,4,0:0:0:0:
184,312,81456,6,0,L|56:288,1,120,0|8,0:0|0:0,0:0:0:0:
124,184,82283,2,0,L|196:144,2,60,0|0|8,0:0|0:0|0:0,0:0:0:0:
228,244,83111,6,0,L|364:228,1,120,0|8,0:0|0:0,0:0:0:0:
296,120,83939,2,0,L|232:108,2,60,0|0|8,0:0|0:0|0:0,0:0:0:0:
400,60,84766,6,0,L|464:192,1,120,0|8,0:0|0:0,0:0:0:0:
384,268,85594,2,0,L|364:200,2,60,0|0|8,0:0|0:0|0:0,0:0:0:0:
492,316,86421,6,0,P|424:352|264:332,1,240
164,272,87663,1,4,0:0:0:0:
108,168,88077,5,0,0:0:0:0:
108,168,88284,1,0,0:0:0:0:
108,168,88490,2,8,P|176:132|336:152,1,240
408,244,89732,5,0,0:0:0:0:
372,128,90146,1,8,0:0:0:0:
280,52,90559,1,0,0:0:0:0:
160,32,90973,1,8,0:0:0:0:
40,44,91387,5,0,0:0:0:0:
40,44,91594,1,0,0:0:0:0:
40,44,91801,2,8,P|20:180|64:292,1,240
160,328,93042,5,0,0:0:0:0:
160,328,93249,1,0,0:0:0:0:
160,328,93456,2,8,P|180:192|136:80,1,240
44,36,94698,5,4,0:0:0:0:
156,76,95111,1,0,0:0:0:0:
240,160,95525,1,0,0:0:0:0:
272,276,95939,1,8,0:0:0:0:
160,316,96353,5,4,0:0:0:0:
272,276,96767,1,0,0:0:0:0:
356,192,97180,1,0,0:0:0:0:
388,76,97594,1,8,0:0:0:0:
356,192,98008,6,0,P|256:292|136:320,1,240,4|0,0:0|0:0,0:0:0:0:
48,292,99249,1,8,0:0:0:0:
88,180,99663,6,0,P|188:80|308:52,1,240,4|0,0:0|0:0,0:0:0:0:
396,80,100905,1,8,0:0:0:0:
472,172,101318,6,0,L|352:228,1,120,4|0,0:0|0:0,0:0:0:0:
260,164,102146,2,0,L|120:188,1,120,0|8,0:0|0:0,0:0:0:0:
144,64,102974,6,0,L|4:44,1,120,4|0,0:0|0:0,0:0:0:0:
16,168,103801,2,0,L|60:224,2,60
60,56,104629,5,4,0:0:0:0:
60,56,104836,1,0,0:0:0:0:
60,56,105043,1,8,0:0:0:0:
152,132,105457,1,0,0:0:0:0:
196,244,105870,1,0,0:0:0:0:
208,364,106284,5,4,0:0:0:0:
208,364,106491,1,0,0:0:0:0:
208,364,106698,1,8,0:0:0:0:
300,288,107112,1,0,0:0:0:0:
416,256,107526,1,0,0:0:0:0:
256,192,107939,12,0,109595,0:0:0:0:
