osu file format v14

[General]
AudioFilename: Snake Stick.mp3
AudioLeadIn: 1500
PreviewTime: 48338
Countdown: 0
SampleSet: Soft
StackLeniency: 0.4
Mode: 0
LetterboxInBreaks: 0
WidescreenStoryboard: 1

[Editor]
Bookmarks: 13579,40063,41718,54960,68202,81444,94686,97996,107927,109583
DistanceSpacing: 0.8
BeatDivisor: 4
GridSize: 4
TimelineZoom: 1

[Metadata]
Title:Snake Stick
TitleUnicode:Snake Stick
Artist:DJ Yoshitaka VS. DJ Mass MAD Izm*
ArtistUnicode:DJ Yoshitaka VS. DJ Mass MAD Izm*
Creator:Axey
Version:Hyper
Source:beatmaniaIIDX 19th Lincle
Tags:Kiddly yf_bmp konami bemani TTTTTTTTTTTT
BeatmapID:314420
BeatmapSetID:112455

[Difficulty]
HPDrainRate:3
CircleSize:4
OverallDifficulty:5
ApproachRate:7
SliderMultiplier:1.5
SliderTickRate:1

[Events]
//Background and Video events
0,0,"33700724.jpg",0,0
//Break Periods
//Storyboard Layer 0 (Background)
//Storyboard Layer 1 (Fail)
//Storyboard Layer 2 (Pass)
//Storyboard Layer 3 (Foreground)
//Storyboard Sound Samples

[TimingPoints]
350,413.807284768212,4,2,1,70,1,0
2832,-100,4,2,1,30,0,0
3660,-100,4,2,1,50,0,0
4074,-100,4,2,1,60,0,0
4488,-100,4,2,1,70,0,0
6143,-100,4,2,1,30,0,0
6557,-100,4,2,1,70,0,0
6970,-100,4,1,1,70,0,0
8626,-100,4,1,1,75,0,0
9453,-100,4,1,1,80,0,0
12350,-83.3333333333333,4,1,1,70,0,0
12764,-100,4,2,1,70,0,0
13591,-100,4,2,2,70,0,0
26833,-100,4,2,2,80,0,0
40063,-100,4,2,1,30,0,0
41730,-100,4,2,2,80,0,1
47937,-83.3333333333333,4,2,1,80,0,0
48351,-100,4,2,2,80,0,1
54558,-83.3333333333333,4,2,1,70,0,0
54972,-100,4,2,2,70,0,0
68214,-66.6666666666667,4,2,2,70,0,0
68628,-100,4,2,2,70,0,0
69869,-66.6666666666667,4,2,2,70,0,0
70283,-100,4,2,2,70,0,0
71524,-66.6666666666667,4,2,2,70,0,0
71938,-100,4,2,2,70,0,0
73180,-66.6666666666667,4,2,2,70,0,0
73593,-100,4,2,2,70,0,0
109583,-100,4,2,1,80,0,0

[HitObjects]
36,272,350,6,0,B|108:248|108:248|180:264,1,150,4|2,0:0|0:0,0:0:0:0:
208,280,867,2,0,B|244:288|244:288|284:276,1,75
304,260,1177,2,0,L|380:268,1,75,0|2,0:0|0:0,0:0:0:0:
440,172,1591,2,0,L|364:164,1,75,2|0,0:0|0:0,0:0:0:0:
312,100,2005,1,10,0:0:0:0:
312,100,2832,6,0,P|236:112|184:68,1,150,0|8,0:0|0:0,0:0:0:0:
48,160,3660,6,0,L|36:236,1,75,2|0,0:0|0:0,0:0:0:0:
116,216,4074,2,0,L|104:292,1,75,2|0,0:0|0:0,0:0:0:0:
184,272,4488,2,0,B|216:288|216:288|256:288,1,75,2|0,0:0|0:0,0:0:0:0:
280,268,4798,2,0,B|316:260|316:260|356:268,1,75,2|0,0:0|0:0,0:0:0:0:
376,288,5108,2,0,B|416:288|416:288|448:272,1,75,2|0,0:0|0:0,0:0:0:0:
447,272,6143,6,0,P|476:208|456:132,1,150,0|8,0:0|0:0,0:0:0:0:
364,56,6970,6,0,L|288:48,1,75
260,124,7384,2,0,L|336:132,1,75
364,208,7798,2,0,L|356:282,1,75
280,244,8212,2,0,L|272:318,1,75
200,360,8626,6,0,P|160:364|128:352,1,75
72,292,9039,2,0,P|60:260|64:216,1,75
88,140,9453,2,0,L|84:60,1,75,0|0,0:0|0:0,0:0:0:0:
164,36,9867,2,0,L|168:116,1,75,0|0,0:0|0:0,0:0:0:0:
248,128,10281,5,0,0:0:0:0:
256,192,10488,12,0,11936,0:0:0:0:
232,68,12350,6,0,B|222:64|222:64|218:72|218:72|210:68|210:68|206:76|206:76|198:72|198:72|194:80|194:80|186:76|186:76|182:84|182:84|174:80|174:80|170:88|170:88|162:84|162:84|158:92|158:92|150:88|150:88|146:96|146:96|138:92|138:92|134:100|134:100|126:96|126:96|122:104|122:104|114:100|114:100|110:108,1,179.999994506836,2|2,1:3|0:0,0:0:0:0:
188,188,12971,2,0,L|264:164,1,75,0|4,0:0|0:3,0:0:0:0:
259,165,13591,5,4,0:0:0:0:
372,284,14005,2,0,P|398:258|406:222,1,75,8|2,1:2|0:0,0:0:0:0:
362,153,14419,1,0,1:0:0:0:
362,153,14522,2,0,P|335:178|327:214,1,75,8|2,0:0|0:0,0:0:0:0:
308,236,14833,2,0,L|232:244,1,75,8|2,1:2|0:0,0:0:0:0:
156,268,15247,6,0,P|120:272|84:252,1,75,0|0,1:0|0:0,0:0:0:0:
40,188,15660,1,8,1:2:0:0:
80,116,15867,1,2,0:0:0:0:
80,116,15971,1,2,0:0:0:0:
80,116,16074,2,0,L|92:40,1,75,0|0,1:0|0:0,0:0:0:0:
120,32,16385,2,0,B|156:40|156:40|196:28,1,75,2|0,0:0|0:0,0:0:0:0:
220,40,16695,2,0,B|256:29|256:29|292:37,1,75,2|4,0:0|0:0,0:0:0:0:
364,76,17109,5,2,0:0:0:0:
444,48,17316,2,0,P|448:84|436:124,1,75,8|2,1:2|0:0,0:0:0:0:
356,228,17729,2,0,P|352:192|364:152,1,75,2|0,1:2|0:0,0:0:0:0:
432,200,18143,1,10,1:2:0:0:
416,280,18350,1,2,0:2:0:0:
416,280,18454,1,0,0:0:0:0:
416,280,18557,6,0,P|380:304|344:308,1,75,0|2,1:0|0:0,0:0:0:0:
268,308,18971,2,0,P|231:301|201:279,1,75,8|2,1:2|0:0,0:0:0:0:
160,208,19385,2,0,P|156:188|156:168,2,37.5,2|0|0,1:2|0:0|0:0,0:0:0:0:
124,284,19798,2,0,P|116:292|104:300,4,18.75,8|0|0|0|8,0:0|0:0|0:0|0:0|0:0,0:0:0:0:
84,212,20212,6,0,P|80:176|88:136,1,75,4|2,0:0|0:0,0:0:0:0:
128,68,20626,1,8,1:2:0:0:
128,68,20730,2,0,L|240:52,1,112.5,0|2,0:0|1:2,0:0:0:0:
276,128,21247,1,2,0:2:0:0:
300,124,21350,1,0,0:0:0:0:
324,120,21454,2,0,L|400:108,1,75,8|2,1:2|0:0,0:0:0:0:
424,188,21867,6,0,L|264:212,1,150,0|10,1:0|1:2,0:0:0:0:
232,280,22488,1,0,0:0:0:0:
284,344,22695,1,0,1:0:0:0:
364,356,22902,1,2,0:0:0:0:
364,356,23005,1,0,0:0:0:0:
364,356,23109,2,0,P|400:356|436:332,1,75,10|0,1:2|1:0,0:0:0:0:
476,268,23523,6,0,B|500:220|456:164|476:116,1,150,4|8,0:0|1:2,0:0:0:0:
500,44,24143,1,2,0:0:0:0:
420,60,24350,2,0,P|396:96|392:128,1,75,0|2,1:0|0:0,0:0:0:0:
400,208,24764,2,0,B|356:212|332:180|332:180|312:192|312:216,1,112.5,10|0,1:2|0:0,0:0:0:0:
316,248,25178,6,0,L|324:356,1,75,0|2,1:0|0:0,0:0:0:0:
240,344,25592,2,0,L|232:236,1,75,8|2,1:2|0:0,0:0:0:0:
152,260,26006,2,0,L|160:368,1,75,0|0,1:0|0:0,0:0:0:0:
76,352,26420,1,8,1:2:0:0:
73,314,26523,1,0,1:0:0:0:
70,277,26626,1,0,1:0:0:0:
67,239,26730,1,0,1:0:0:0:
65,202,26833,6,0,L|88:124,1,75,4|0,0:0|0:0,0:0:0:0:
144,72,27247,2,0,B|180:84|180:84|216:68,1,75,8|2,1:2|0:0,0:0:0:0:
264,136,27661,2,0,B|297:120|297:120|333:132,1,75,0|0,1:0|0:0,0:0:0:0:
360,144,27971,2,0,L|440:136,1,75,2|0,0:0|0:0,0:0:0:0:
464,132,28281,1,2,0:0:0:0:
436,56,28488,5,2,1:2:0:0:
420,220,28902,1,8,1:2:0:0:
412,304,29109,1,2,0:0:0:0:
340,260,29316,2,0,P|332:280|328:304,3,37.5,0|2|0|2,1:0|0:0|0:0|0:0,0:0:0:0:
308,316,29730,2,0,B|268:324|268:324|232:312,1,75,8|2,1:2|0:0,0:0:0:0:
168,344,30040,5,0,0:0:0:0:
148,352,30144,2,0,L|112:280,1,75,2|0,1:3|0:0,0:0:0:0:
60,220,30557,2,0,B|44:188|44:188|60:152,1,75,8|0,1:2|0:0,0:0:0:0:
140,72,30971,2,0,B|156:104|156:104|140:140,1,75,0|0,1:0|0:0,0:0:0:0:
204,192,31385,1,8,1:2:0:0:
268,244,31592,6,0,B|304:252|304:252|344:244,1,75,0|0,0:0|1:0,0:0:0:0:
412,284,32006,1,0,0:0:0:0:
484,324,32213,2,0,B|496:288|496:288|484:248,1,75,8|0,1:2|0:0,0:0:0:0:
424,132,32626,2,0,B|412:168|412:168|424:208,1,75,0|0,1:0|0:0,0:0:0:0:
488,84,33040,2,0,L|496:56,4,18.75,10|0|2|0|2,1:2|0:0|0:0|0:0|0:0,0:0:0:0:
412,52,33454,6,0,B|372:56|372:56|336:48,1,75,0|2,1:0|0:0,0:0:0:0:
260,80,33868,2,0,L|220:72,1,37.5,8|2,1:2|0:0,0:0:0:0:
120,116,34178,2,0,L|160:124,1,37.5,0|0,0:0|1:0,0:0:0:0:
200,228,34489,1,2,0:0:0:0:
200,228,34592,1,2,0:0:0:0:
200,228,34696,2,0,P|200:272|184:304,1,75,8|0,1:2|0:0,0:0:0:0:
124,352,35109,6,0,P|56:356|4:300,1,150,0|8,1:0|1:2,0:0:0:0:
4,216,35730,1,2,0:0:0:0:
4,216,35833,1,2,0:0:0:0:
4,216,35937,2,0,L|8:136,1,75,0|0,1:0|0:0,0:0:0:0:
20,116,36247,2,0,B|52:100|52:100|96:100,1,75,2|0,0:0|0:0,0:0:0:0:
120,112,36558,2,0,B|159:112|159:112|191:96,1,75,2|4,0:0|0:0,0:0:0:0:
256,44,36971,5,0,0:0:0:0:
320,96,37178,2,0,P|373:109|420:81,1,112.5,8|0,1:2|0:0,0:0:0:0:
440,60,37592,2,0,L|448:136,1,75,0|0,1:0|0:0,0:0:0:0:
460,216,38006,1,8,1:2:0:0:
432,228,38109,2,0,B|396:240|396:240|360:232,1,75
332,220,38420,6,0,P|292:264|324:344,1,150,0|8,1:0|1:2,0:0:0:0:
248,380,39040,2,0,P|208:388|172:376,1,75,0|0,0:0|1:0,0:0:0:0:
152,360,39351,2,0,P|132:332|132:288,1,75
136,264,39661,2,0,L|140:240,8,18.75,8|0|0|0|0|0|0|0|4,1:2|0:0|0:0|0:0|0:0|0:0|0:0|0:0|0:3,0:0:0:0:
139,245,41730,6,0,L|112:176,1,75,4|2,0:0|0:0,0:0:0:0:
184,136,42144,2,0,L|176:96,1,37.5,10|0,1:2|0:0,0:0:0:0:
256,80,42454,2,0,L|256:32,1,37.5,2|0,0:0|1:0,0:0:0:0:
335,99,42765,2,0,L|328:136,1,37.5,2|0,0:0|0:0,0:0:0:0:
400,176,43075,2,0,L|384:220,3,37.5,0|2|0|2,0:0|0:0|0:0|1:2,0:0:0:0:
452,264,43592,6,0,L|388:308,1,75,0|10,0:0|1:2,0:0:0:0:
364,320,43903,2,0,L|286:310,1,75,0|2,0:0|0:0,0:0:0:0:
260,308,44213,2,0,L|181:324,1,75,0|2,1:0|0:0,0:0:0:0:
156,328,44523,2,0,L|82:314,1,75,0|2,0:0|0:0,0:0:0:0:
52,308,44834,2,0,L|16:328,2,37.5,0|2|0,0:0|0:0|1:0,0:0:0:0:
80,232,45248,5,0,0:0:0:0:
100,152,45454,2,0,L|80:112,1,37.5,10|0,1:2|0:0,0:0:0:0:
144,64,45765,2,0,L|160:97,1,37.5,2|0,0:0|1:0,0:0:0:0:
236,128,46075,2,0,L|276:128,1,37.5,2|0,0:0|0:0,0:0:0:0:
351,97,46386,2,0,L|368:64,3,37.5,2|0|2|0,0:0|0:0|0:0|1:0,0:0:0:0:
428,118,46903,6,0,B|408:152|408:152|416:192,1,75,0|10,0:0|1:2,0:0:0:0:
400,212,47213,2,0,B|407:218|420:245|420:245|413:280,1,75,0|2,0:0|0:0,0:0:0:0:
392,300,47524,2,0,B|356:312|356:312|316:300,1,75,0|2,1:0|0:0,0:0:0:0:
292,292,47834,1,0,0:0:0:0:
260,280,47937,6,0,P|168:292|120:224,1,179.999994506836,10|0,1:2|1:0,0:0:0:0:
104,216,48455,6,0,L|96:180,1,37.5,2|0,0:0|0:0,0:0:0:0:
176,160,48765,2,0,L|172:120,1,37.5,2|0,1:2|0:0,0:0:0:0:
256,116,49075,2,0,L|256:76,1,37.5,2|0,0:0|1:0,0:0:0:0:
339,122,49386,2,0,L|336:160,1,37.5,2|0,0:0|0:0,0:0:0:0:
416,180,49696,2,0,L|408:216,2,37.5,2|0|0,0:0|0:0|0:0,0:0:0:0:
424,156,50006,2,0,L|432:120,2,37.5,2|0|0,1:2|0:0|0:0,0:0:0:0:
496,200,50420,6,0,B|500:220|500:220|496:240,1,37.5,2|0,1:2|0:0,0:0:0:0:
440,328,50731,2,0,B|436:308|436:308|440:288,1,37.5,2|0,0:0|1:0,0:0:0:0:
352,232,51041,2,0,B|356:252|356:252|352:272,1,37.5,2|0,0:0|0:0,0:0:0:0:
292,356,51351,2,0,B|288:336|288:336|292:316,3,37.5,2|0|2|0,0:0|0:0|0:0|1:0,0:0:0:0:
220,276,51869,6,0,P|188:248|180:212,1,75,0|2,0:0|1:2,0:0:0:0:
180,188,52179,2,0,P|192:144|216:124,1,75,0|2,0:0|0:0,0:0:0:0:
240,108,52489,2,0,P|280:96|312:104,1,75,0|2,1:0|0:0,0:0:0:0:
380,148,52903,1,0,1:0:0:0:
408,160,53006,1,2,0:0:0:0:
440,160,53110,1,0,0:0:0:0:
468,148,53213,1,2,0:0:0:0:
488,124,53317,6,0,P|496:88|488:48,1,75,0|2,1:0|0:0,0:0:0:0:
412,20,53731,2,0,P|388:16|368:16,1,37.5,2|0,1:2|0:0,0:0:0:0:
296,40,54041,2,0,P|277:43|258:44,1,37.5,2|0,0:0|1:0,0:0:0:0:
176,32,54351,1,0,0:0:0:0:
176,32,54455,1,0,0:0:0:0:
176,32,54558,6,0,P|148:92|172:152,1,134.999995880127,2|0,0:0|0:0,0:0:0:0:
228,204,54972,6,0,P|200:224|152:224,1,75,4|0,0:0|0:0,0:0:0:0:
88,184,55386,2,0,P|72:156|64:112,1,75,8|0,1:2|0:0,0:0:0:0:
88,264,55800,2,0,P|72:292|64:336,1,75,0|0,1:0|0:0,0:0:0:0:
144,324,56213,1,8,1:2:0:0:
224,340,56420,1,0,0:0:0:0:
224,340,56524,1,0,0:0:0:0:
224,340,56627,6,0,P|264:340|296:320,1,75,0|0,1:0|0:0,0:0:0:0:
260,192,57041,2,0,P|240:226|241:264,1,75,8|0,1:2|0:0,0:0:0:0:
372,296,57455,2,0,P|352:261|318:243,2,75,0|0|8,1:2|0:0|1:2,0:0:0:0:
356,376,58076,1,0,0:0:0:0:
472,308,58283,6,0,P|492:300|508:300,2,37.5,0|0|0,1:0|0:0|0:0,0:0:0:0:
444,232,58696,2,0,P|456:216|476:204,2,37.5,8|0|0,1:2|0:0|0:0,0:0:0:0:
380,180,59110,2,0,P|384:136|404:108,1,75,0|0,1:0|0:0,0:0:0:0:
424,92,59420,2,0,P|464:72|496:72,2,75
396,84,59938,6,0,L|324:64,1,75,0|0,1:0|0:0,0:0:0:0:
252,24,60352,2,0,P|240:64|248:100,1,75,8|0,1:2|0:0,0:0:0:0:
268,244,60765,2,0,P|280:204|272:168,1,75,0|0,1:0|0:0,0:0:0:0:
192,160,61179,2,0,P|116:172|60:132,1,150,8|0,1:2|1:0,0:0:0:0:
136,100,61800,6,0,P|112:192|60:216,1,150
12,276,62421,2,0,P|-4:316|4:352,1,75
80,324,62834,2,0,L|236:340,1,150,8|0,1:2|1:0,0:0:0:0:
229,339,63662,5,8,1:2:0:0:
316,316,63869,1,0,0:0:0:0:
392,356,64076,1,0,1:0:0:0:
412,192,64490,1,8,1:2:0:0:
328,216,64697,1,0,0:0:0:0:
249,175,64903,6,0,P|227:139|224:104,1,75,0|0,1:0|0:0,0:0:0:0:
280,44,65317,2,0,P|301:79|305:115,1,75,8|0,1:2|0:0,0:0:0:0:
252,252,65731,2,0,B|220:276|176:248|140:272,2,112.5,0|0|0,1:0|0:0|0:0,0:0:0:0:
320,300,66559,6,0,P|352:312|400:304,1,75,0|0,1:0|0:0,0:0:0:0:
460,264,66972,2,0,P|484:236|488:196,1,75,8|0,1:2|0:0,0:0:0:0:
456,52,67386,5,8,1:2:0:0:
312,88,67593,1,8,0:0:0:0:
408,200,67800,1,8,0:0:0:0:
408,200,68214,6,0,L|296:232,1,112.500004291535,4|4,0:0|0:0,0:0:0:0:
299,230,69042,2,0,P|264:280|280:332,2,112.5,0|0|0,1:0|1:0|1:0,0:0:0:0:
184,192,69869,6,0,L|72:160,1,112.500004291535,4|4,0:0|0:0,0:0:0:0:
75,161,70697,2,0,P|39:111|55:59,2,112.5,0|0|0,1:0|1:0|1:0,0:0:0:0:
184,192,71524,6,0,P|204:244|184:296,1,112.500004291535,4|4,0:0|0:0,0:0:0:0:
186,294,72352,2,0,P|133:319|85:295,2,112.5,0|0|0,1:0|1:0|1:0,0:0:0:0:
280,232,73180,6,0,P|325:214|388:224,1,112.500004291535,4|4,0:0|0:0,0:0:0:0:
460,260,73593,1,0,1:0:0:0:
460,260,73697,2,0,P|468:212|460:184,1,75,2|0,0:0|0:0,0:0:0:0:
448,160,74007,2,0,P|444:136|448:120,8,37.5,0|0|0|0|0|0|0|0|0,1:0|1:0|1:0|1:0|1:0|1:0|1:0|1:0|1:0,0:0:0:0:
256,192,75042,12,2,79800,0:0:0:0:
220,216,79938,6,0,B|192:220|192:220|168:216,2,50,2|2|2,0:0|0:0|0:0,0:0:0:0:
292,216,80352,2,0,B|320:220|320:220|344:216,2,50,2|2|2,0:0|0:0|0:0,0:0:0:0:
292,216,81042,6,0,P|264:164|280:116,1,112.5,2|0,0:0|0:0,0:0:0:0:
328,60,81456,6,0,P|364:69|404:60,1,75,4|0,1:2|0:0,0:0:0:0:
472,20,81870,2,0,L|476:100,1,75,8|0,1:2|0:0,0:0:0:0:
444,172,82283,1,0,1:0:0:0:
444,172,82387,1,0,0:0:0:0:
444,172,82490,2,0,P|432:212|440:244,1,75,2|8,0:0|1:2,0:0:0:0:
488,312,82904,1,2,0:0:0:0:
460,324,83008,1,0,0:0:0:0:
432,324,83111,6,0,P|396:316|360:324,1,75,0|0,1:0|0:0,0:0:0:0:
284,360,83525,1,8,1:2:0:0:
284,360,83732,1,8,0:0:0:0:
220,308,83939,1,0,1:0:0:0:
220,308,84042,2,0,P|196:260|212:204,1,112.5,8|8,0:0|1:2,0:0:0:0:
264,144,84559,1,2,0:0:0:0:
220,76,84766,5,0,1:0:0:0:
220,76,84870,2,0,P|167:90|117:66,1,112.5,8|8,0:0|1:2,0:0:0:0:
52,20,85387,2,0,L|40:56,1,37.5,0|2,0:0|0:0,0:0:0:0:
36,84,85594,2,0,L|32:164,1,75,0|2,1:0|0:0,0:0:0:0:
28,240,86008,1,8,1:2:0:0:
80,304,86215,2,0,L|120:320,1,37.5,0|2,0:0|0:0,0:0:0:0:
144,324,86421,6,0,L|224:320,1,75,0|2,1:0|0:0,0:0:0:0:
288,272,86835,1,8,1:2:0:0:
288,272,87042,1,8,0:0:0:0:
328,200,87249,1,0,1:0:0:0:
328,200,87352,2,0,P|340:148|316:92,1,112.5,8|8,0:0|0:0,0:0:0:0:
220,228,88077,5,2,1:2:0:0:
288,272,88284,1,0,0:0:0:0:
372,268,88490,2,0,B|392:264|408:248|408:248|452:264|492:244|500:200,1,150,8|0,1:2|1:0,0:0:0:0:
512,128,89111,1,2,0:0:0:0:
456,68,89318,2,0,B|400:40|360:88|304:64,1,150,8|0,1:2|1:0,0:0:0:0:
232,36,89939,6,0,L|184:32,1,37.5
188,116,90249,2,0,L|140:120,1,37.5,0|8,0:0|0:0,0:0:0:0:
124,196,90559,1,2,1:2:0:0:
124,196,90663,1,8,0:0:0:0:
124,196,90766,2,0,P|116:236|124:272,1,75,2|8,0:0|1:2,0:0:0:0:
172,336,91180,1,0,0:0:0:0:
252,364,91387,6,0,L|344:352,1,75,2|0,1:2|0:0,0:0:0:0:
344,272,91801,2,0,L|436:260,1,75,8|2,1:2|0:0,0:0:0:0:
464,192,92215,2,0,P|472:156|464:120,1,75,0|2,1:0|0:0,0:0:0:0:
448,92,92525,2,0,P|408:100|376:88,1,75,0|2,0:0|0:0,0:0:0:0:
352,72,92835,2,0,P|316:60|280:68,1,75,0|2,0:0|1:2,0:0:0:0:
208,108,93249,5,2,0:0:0:0:
132,144,93456,2,0,P|92:152|56:140,1,75,8|8,1:2|0:0,0:0:0:0:
100,68,93870,1,0,1:0:0:0:
200,188,94077,1,0,1:0:0:0:
356,172,94284,2,0,L|364:144,4,18.75,2|2|2|2|2,0:0|0:0|0:0|0:0|0:0,0:0:0:0:
447,182,94698,6,0,L|424:260,1,75,4|0,0:0|0:0,0:0:0:0:
368,312,95112,2,0,B|332:300|332:300|296:316,1,75,8|2,1:2|0:0,0:0:0:0:
248,248,95526,2,0,B|215:264|215:264|179:252,1,75,0|0,1:0|0:0,0:0:0:0:
152,240,95836,2,0,L|72:248,1,75,2|0,0:0|0:0,0:0:0:0:
48,252,96146,1,2,0:0:0:0:
76,328,96353,5,2,1:2:0:0:
92,164,96767,1,8,1:2:0:0:
100,80,96974,1,2,0:0:0:0:
172,124,97181,2,0,P|180:104|184:80,3,37.5,0|2|0|2,1:0|0:0|0:0|0:0,0:0:0:0:
204,68,97595,2,0,B|244:60|244:60|280:72,1,75,8|2,1:2|0:0,0:0:0:0:
344,40,97905,5,0,0:0:0:0:
364,32,98009,2,0,L|400:104,1,75,2|0,1:3|0:0,0:0:0:0:
452,164,98422,2,0,B|468:196|468:196|452:232,1,75,8|0,1:2|0:0,0:0:0:0:
372,312,98836,2,0,B|356:280|356:280|372:244,1,75,0|0,1:0|0:0,0:0:0:0:
308,192,99250,1,8,1:2:0:0:
244,140,99457,6,0,B|208:132|208:132|168:140,1,75,0|0,0:0|1:0,0:0:0:0:
100,100,99871,1,0,0:0:0:0:
28,60,100078,2,0,B|16:96|16:96|28:136,1,75,8|0,1:2|0:0,0:0:0:0:
88,252,100491,2,0,B|100:216|100:216|88:176,1,75,0|0,1:0|0:0,0:0:0:0:
24,300,100905,2,0,L|16:328,4,18.75,10|0|2|0|2,1:2|0:0|0:0|0:0|0:0,0:0:0:0:
100,332,101319,6,0,B|140:328|140:328|176:336,1,75,0|2,1:0|0:0,0:0:0:0:
252,304,101733,2,0,L|292:312,1,37.5,8|2,1:2|0:0,0:0:0:0:
392,268,102043,2,0,L|352:260,1,37.5,0|0,0:0|1:0,0:0:0:0:
312,156,102354,1,2,0:0:0:0:
312,156,102457,1,2,0:0:0:0:
312,156,102561,2,0,P|312:112|328:80,1,75,8|0,1:2|0:0,0:0:0:0:
388,32,102974,6,0,P|456:28|508:84,1,150,0|8,1:0|1:2,0:0:0:0:
508,168,103595,1,2,0:0:0:0:
508,168,103698,1,2,0:0:0:0:
508,168,103802,2,0,L|504:248,1,75,0|0,1:0|0:0,0:0:0:0:
492,268,104112,2,0,B|460:284|460:284|416:284,1,75,2|0,0:0|0:0,0:0:0:0:
392,272,104423,2,0,B|353:272|353:272|321:288,1,75,2|4,0:0|0:0,0:0:0:0:
256,340,104836,5,0,0:0:0:0:
192,288,105043,2,0,P|139:275|92:303,1,112.5,8|0,1:2|0:0,0:0:0:0:
72,324,105457,2,0,L|64:248,1,75,0|0,1:0|0:0,0:0:0:0:
52,168,105871,1,8,1:2:0:0:
80,156,105974,2,0,B|116:144|116:144|152:152,1,75
180,160,106284,6,0,L|256:156,1,75,2|2,1:2|0:0,0:0:0:0:
300,88,106698,1,8,1:2:0:0:
320,68,106801,1,2,0:0:0:0:
348,56,106905,2,0,P|388:48|424:60,1,75,0|0,0:0|1:0,0:0:0:0:
444,76,107216,2,0,P|464:104|464:148,1,75,2|0,0:0|0:0,0:0:0:0:
460,172,107526,2,0,L|456:196,8,18.75,10|2|2|2|2|2|2|2|4,1:2|0:0|0:0|0:0|0:0|0:0|0:0|0:0|0:3,0:0:0:0:
256,192,108043,12,2,109569,0:0:0:0:
