osu file format v14

[General]
AudioFilename: Snake Stick.mp3
AudioLeadIn: 1500
PreviewTime: 48338
Countdown: 0
SampleSet: Soft
StackLeniency: 0.4
Mode: 0
LetterboxInBreaks: 0
WidescreenStoryboard: 1

[Editor]
Bookmarks: 3338,41925,55167,92203,109583
DistanceSpacing: 1
BeatDivisor: 4
GridSize: 4
TimelineZoom: 1

[Metadata]
Title:Snake Stick
TitleUnicode:Snake Stick
Artist:DJ Yoshitaka VS. DJ Mass MAD Izm*
ArtistUnicode:DJ Yoshitaka VS. DJ Mass MAD Izm*
Creator:Axey
Version:Another
Source:beatmaniaIIDX 19th Lincle
Tags:Kiddly yf_bmp konami bemani TTTTTTTTTTTT
BeatmapID:292100
BeatmapSetID:112455

[Difficulty]
HPDrainRate:8
CircleSize:5
OverallDifficulty:8
ApproachRate:9
SliderMultiplier:3.1
SliderTickRate:1

[Events]
//Background and Video events
0,0,"33700724.jpg",0,0
//Break Periods
//Storyboard Layer 0 (Background)
//Storyboard Layer 1 (Fail)
//Storyboard Layer 2 (Pass)
//Storyboard Layer 3 (Foreground)
//Storyboard Sound Samples

[TimingPoints]
350,413.807284768212,4,2,1,70,1,0
3579,-100,4,2,1,50,0,0
11924,-200,4,2,1,80,0,0
13579,-100,4,2,2,100,0,0
15131,-100,4,2,1,80,0,0
15338,-100,4,2,2,100,0,0
19786,-66.6666666666667,4,2,2,100,0,0
19993,-100,4,2,2,100,0,0
21855,-200,4,2,2,100,0,0
22476,-100,4,2,2,100,0,0
28476,-200,4,2,2,100,0,0
28890,-100,4,2,2,100,0,0
47925,-66.6666666666667,4,2,2,100,0,0
48132,-100,4,2,2,100,0,0
54546,-66.6666666666667,4,2,2,100,0,0
54960,-100,4,2,2,100,0,0
80202,-200,4,2,2,100,0,0
81030,-100,4,2,2,100,0,0
87651,-66.6666666666667,4,2,2,100,0,0
87754,-100,4,2,2,100,0,0

[HitObjects]
56,104,338,6,0,B|132:92|132:92|220:104|220:104|220:112,1,155,0|0,0:0|0:0,0:0:0:0:
276,128,660,1,0,0:0:0:0:
340,80,763,1,0,0:0:0:0:
400,36,867,1,0,0:0:0:0:
412,116,970,5,0,0:0:0:0:
348,160,1074,1,0,0:0:0:0:
416,196,1177,1,0,0:0:0:0:
484,152,1281,1,0,0:0:0:0:
488,232,1384,1,0,0:0:0:0:
420,276,1487,1,0,0:0:0:0:
348,240,1591,1,2,0:0:0:0:
280,200,1694,1,0,0:0:0:0:
212,240,1798,1,0,0:0:0:0:
280,280,1901,1,0,0:0:0:0:
344,320,2005,6,2,P|288:356|212:316,1,155,10|0,0:0|0:0,0:0:0:0:
148,284,2315,1,0,0:0:0:0:
84,324,2419,2,0,L|12:356,1,77.5,0|0,0:0|0:0,0:0:0:0:
16,272,2625,2,0,L|92:240,1,77.5,0|0,0:0|0:0,0:0:0:0:
124,176,2832,2,0,L|152:104,1,77.5,0|0,0:0|0:0,0:0:0:0:
80,92,3039,2,0,L|108:20,1,77.5,0|0,0:0|0:0,0:0:0:0:
184,36,3246,2,0,L|276:56,1,77.5,0|0,0:0|0:0,0:0:0:0:
332,32,3453,2,0,L|424:52,1,77.5,0|0,0:0|0:0,0:0:0:0:
480,76,3660,6,2,P|492:168|452:208,1,155,2|0,0:0|0:0,0:0:0:0:
376,196,3970,1,0,0:0:0:0:
304,164,4074,2,0,P|292:72|332:32,1,155,2|0,0:0|0:0,0:0:0:0:
488,288,4488,2,0,L|392:300,1,77.5,2|0,0:0|0:0,0:0:0:0:
340,312,4694,1,0,0:0:0:0:
264,324,4798,1,2,0:0:0:0:
188,332,4901,6,0,P|132:288|100:196,2,155,0|0|0,0:0|0:0|0:0,0:0:0:0:
256,192,5729,1,0,0:0:0:0:
60,144,6143,1,0,0:0:0:0:
108,84,6246,1,0,0:0:0:0:
172,44,6350,1,0,0:0:0:0:
248,40,6453,1,0,0:0:0:0:
324,52,6557,2,0,P|380:96|412:184,1,155,0|0,0:0|0:0,0:0:0:0:
468,344,6970,6,0,P|416:340|376:344,1,77.5,0|0,0:0|0:0,0:0:0:0:
356,280,7177,2,0,P|312:296|260:296,1,77.5,0|0,0:0|0:0,0:0:0:0:
236,352,7384,2,0,B|200:332|156:332,1,77.5,0|0,0:0|0:0,0:0:0:0:
112,284,7591,2,0,P|68:316|48:340,1,77.5,0|0,0:0|0:0,0:0:0:0:
184,260,7798,2,0,P|156:220|120:204,1,77.5,0|0,0:0|0:0,0:0:0:0:
56,224,8005,2,0,P|64:168|88:144,1,77.5,0|0,0:0|0:0,0:0:0:0:
120,88,8212,5,0,0:0:0:0:
184,44,8315,1,0,0:0:0:0:
256,76,8419,1,0,0:0:0:0:
328,44,8522,1,0,0:0:0:0:
392,88,8626,2,0,P|384:136|388:168,1,77.5,0|0,0:0|0:0,0:0:0:0:
400,240,8833,2,0,P|412:280|408:320,1,77.5,0|0,0:0|0:0,0:0:0:0:
332,320,9039,2,0,L|160:328,1,155,0|0,0:0|0:0,0:0:0:0:
56,224,9453,6,0,B|96:232|132:224,1,77.5,0|0,0:0|0:0,0:0:0:0:
208,248,9660,2,0,P|264:220|288:196,1,77.5,0|0,0:0|0:0,0:0:0:0:
348,180,9867,2,0,P|364:140|368:104,1,77.5,0|0,0:0|0:0,0:0:0:0:
404,44,10074,1,0,0:0:0:0:
328,44,10177,1,0,0:0:0:0:
252,24,10281,2,0,P|212:24|192:56,1,77.5,0|0,0:0|0:0,0:0:0:0:
116,44,10488,2,0,P|120:88|140:112,1,77.5,0|0,0:0|0:0,0:0:0:0:
220,120,10695,2,0,P|248:188|204:252,1,155,0|0,0:0|0:0,0:0:0:0:
128,252,11005,1,0,0:0:0:0:
168,316,11108,6,0,P|212:336|252:356,1,77.5,0|0,0:0|0:0,0:0:0:0:
380,280,11315,2,0,P|400:236|420:196,1,77.5,0|0,0:0|0:0,0:0:0:0:
344,68,11522,2,0,P|300:48|260:28,1,77.5,0|0,0:0|0:0,0:0:0:0:
132,104,11729,2,0,P|112:148|92:188,1,77.5,0|0,0:0|0:0,0:0:0:0:
24,188,11936,6,8,L|44:264,1,77.5,0|0,0:0|0:0,0:0:0:0:
16,336,12350,2,0,L|176:360,1,155,2|0,1:3|0:0,0:0:0:0:
236,320,12971,1,0,0:0:0:0:
312,312,13178,1,0,0:0:0:0:
384,340,13384,1,0,0:0:0:0:
432,240,13591,6,0,P|412:180|432:92,1,155,4|0,0:0|0:0,0:0:0:0:
476,32,13902,1,0,0:0:0:0:
352,60,14005,2,0,L|275:73,1,77.5,8|0,1:2|0:0,0:0:0:0:
236,148,14212,2,0,L|148:132,1,77.5,0|0,0:0|0:0,0:0:0:0:
72,120,14419,1,0,1:0:0:0:
60,276,14626,1,0,0:0:0:0:
60,276,14729,2,0,L|48:180,1,77.5,0|0,0:0|0:0,0:0:0:0:
72,120,14936,2,0,L|60:32,1,77.5,0|0,0:0|0:0,0:0:0:0:
140,240,15247,6,0,P|212:220|224:148,1,155,0|0,1:0|0:0,0:0:0:0:
184,80,15557,1,0,0:0:0:0:
184,80,15660,1,8,1:2:0:0:
336,48,15867,1,2,0:0:0:0:
336,48,15971,2,0,L|440:80,1,77.5,2|0,0:0|0:0,0:0:0:0:
480,100,16178,1,0,0:0:0:0:
452,172,16281,1,0,0:0:0:0:
456,248,16385,2,0,P|456:292|468:324,1,77.5,2|0,0:0|0:0,0:0:0:0:
312,332,16695,1,2,0:0:0:0:
236,348,16798,1,0,0:0:0:0:
160,328,16902,6,0,P|120:328|84:312,1,77.5,0|0,0:0|0:0,0:0:0:0:
20,352,17109,2,0,L|4:264,1,77.5,2|0,0:0|0:0,0:0:0:0:
0,200,17316,2,0,P|40:200|76:184,1,77.5,8|0,1:2|0:0,0:0:0:0:
140,224,17523,2,0,L|156:136,1,77.5,0|0,0:0|0:0,0:0:0:0:
256,88,17729,2,0,L|240:176,1,77.5,2|0,1:2|0:0,0:0:0:0:
332,156,17936,1,0,0:0:0:0:
392,204,18040,1,0,0:0:0:0:
456,248,18143,2,0,L|480:172,3,77.5,10|0|0|0,1:2|0:0|0:0|0:0,0:0:0:0:
376,56,18557,6,0,P|292:40|256:88,1,155,0|0,1:0|0:0,0:0:0:0:
20,256,18971,2,0,P|104:272|140:224,1,155,8|0,1:2|0:0,0:0:0:0:
52,12,19385,2,0,L|128:68,1,77.5,2|0,1:2|0:0,0:0:0:0:
148,128,19592,2,0,L|224:180,1,77.5,0|0,0:0|0:0,0:0:0:0:
204,288,19798,6,0,P|252:252|312:248,1,116.250004434586,8|0,0:0|0:0,0:0:0:0:
344,316,20005,2,0,B|384:336|436:324,1,77.5,0|0,0:0|0:0,0:0:0:0:
404,252,20212,6,0,P|464:200|452:120,1,155,4|0,0:0|0:0,0:0:0:0:
392,172,20523,1,0,0:0:0:0:
388,44,20626,2,0,P|336:52|316:68,1,77.5,8|0,1:2|0:0,0:0:0:0:
292,140,20833,2,0,P|256:136|216:120,1,77.5,0|0,0:0|0:0,0:0:0:0:
152,80,21040,2,0,P|132:112|100:136,1,77.5,0|0,0:0|0:0,0:0:0:0:
32,172,21247,1,2,0:2:0:0:
64,324,21454,1,8,1:2:0:0:
124,272,21557,1,0,0:0:0:0:
200,256,21661,1,0,0:0:0:0:
276,268,21764,1,0,0:0:0:0:
400,344,21867,6,0,L|480:332,1,77.5,0|0,1:0|0:0,0:0:0:0:
276,268,22281,2,0,L|196:256,1,77.5,0|0,0:0|0:0,0:0:0:0:
84,44,22695,6,0,P|160:56|188:124,1,155,0|0,1:0|0:0,0:0:0:0:
256,160,23005,1,0,0:0:0:0:
324,121,23109,2,0,P|355:54|428:44,1,155,10|0,1:2|0:0,0:0:0:0:
400,116,23419,1,0,0:0:0:0:
476,108,23523,6,0,L|492:272,1,155,4|0,0:0|0:0,0:0:0:0:
496,340,23833,1,0,0:0:0:0:
408,228,23937,2,0,L|424:392,1,155,0|0,0:0|0:0,0:0:0:0:
256,304,24350,1,0,1:0:0:0:
104,340,24557,5,0,0:0:0:0:
40,296,24661,1,0,0:0:0:0:
136,224,24764,1,10,1:2:0:0:
104,152,24868,1,0,0:0:0:0:
236,128,24971,1,0,0:0:0:0:
248,52,25074,1,0,0:0:0:0:
368,120,25178,6,0,P|408:108|456:112,1,77.5,0|0,1:0|0:0,0:0:0:0:
408,228,25385,2,0,P|416:272|416:312,1,77.5,0|0,0:0|0:0,0:0:0:0:
284,312,25592,2,0,P|244:324|196:320,1,77.5,8|0,1:2|0:0,0:0:0:0:
244,204,25799,2,0,P|236:160|236:120,1,77.5,0|0,0:0|0:0,0:0:0:0:
348,156,26006,5,0,1:0:0:0:
376,232,26109,1,0,0:0:0:0:
304,264,26212,1,0,0:0:0:0:
276,192,26316,1,0,0:0:0:0:
208,156,26419,1,8,1:2:0:0:
132,160,26523,1,0,1:0:0:0:
68,204,26626,1,0,1:0:0:0:
52,280,26730,1,0,1:0:0:0:
84,348,26833,6,0,P|160:344|240:368,1,155,4|0,0:0|0:0,0:0:0:0:
312,376,27144,1,0,0:0:0:0:
388,376,27247,2,0,L|424:304,1,77.5,8|0,1:2|0:0,0:0:0:0:
376,232,27454,2,0,L|364:152,1,77.5,0|0,0:0|0:0,0:0:0:0:
404,88,27661,1,0,1:0:0:0:
200,56,27868,1,0,0:0:0:0:
124,44,27971,1,2,0:0:0:0:
128,140,28075,1,0,0:0:0:0:
44,156,28178,2,0,P|64:192|88:236,1,77.5,0|0,0:0|0:0,0:0:0:0:
48,316,28385,1,0,0:0:0:0:
148,296,28488,6,2,P|220:284|300:300,1,155,2|0,1:2|0:0,0:0:0:0:
364,344,29006,1,0,0:0:0:0:
396,256,29109,1,2,0:0:0:0:
472,280,29213,1,0,0:0:0:0:
440,168,29316,6,0,P|432:108|432:68,1,77.5,0|0,1:0|0:0,0:0:0:0:
344,88,29523,2,0,L|256:52,1,77.5,0|0,0:0|0:0,0:0:0:0:
228,148,29730,2,0,P|236:208|236:248,1,77.5,8|0,1:2|0:0,0:0:0:0:
324,228,29937,2,0,L|412:264,1,77.5,0|0,0:0|0:0,0:0:0:0:
244,336,30144,6,0,P|160:316|132:256,1,155,2|0,1:3|0:0,0:0:0:0:
120,180,30454,1,0,0:0:0:0:
48,156,30557,2,2,B|36:136|36:136|48:124|48:124|40:108|40:108|52:100|52:100|92:80|92:32,1,155,8|0,1:2|0:0,0:0:0:0:
240,76,30971,1,0,1:0:0:0:
92,33,31075,6,0,L|220:48,1,77.5,0|0,0:0|0:0,0:0:0:0:
240,76,31282,1,0,0:0:0:0:
317,100,31385,2,0,L|472:116,1,155,8|0,1:2|0:0,0:0:0:0:
256,336,31799,5,0,0:0:0:0:
381,120,32006,1,0,0:0:0:0:
132,119,32213,1,8,1:2:0:0:
152,336,32420,5,0,0:0:0:0:
188,268,32523,1,0,0:0:0:0:
256,232,32626,1,0,1:0:0:0:
324,268,32730,1,0,0:0:0:0:
360,336,32833,1,0,0:0:0:0:
256,336,32937,2,0,L|256:376,10,38.75,0|0|0|0|0|0|0|0|0|0|0,0:0|0:0|0:0|0:0|0:0|0:0|0:0|0:0|0:0|0:0|0:0,0:0:0:0:
460,184,33661,6,0,P|424:160|372:144,1,77.5,0|0,0:0|0:0,0:0:0:0:
372,72,33868,2,0,P|328:92|288:100,1,77.5,8|0,1:2|0:0,0:0:0:0:
232,64,34075,1,0,0:0:0:0:
156,68,34178,1,0,0:0:0:0:
88,108,34282,6,0,L|136:204,1,77.5,0|0,0:0|0:0,0:0:0:0:
68,240,34489,1,2,0:0:0:0:
28,304,34592,1,2,0:0:0:0:
148,288,34696,1,8,1:2:0:0:
224,280,34799,1,0,0:0:0:0:
300,272,34902,1,0,0:0:0:0:
376,264,35006,1,0,0:0:0:0:
468,328,35109,6,0,P|488:244|460:184,1,155,0|0,1:0|0:0,0:0:0:0:
456,76,35420,1,0,0:0:0:0:
348,104,35523,2,0,P|304:92|268:96,1,77.5,0|0,0:0|0:0,0:0:0:0:
120,168,35730,2,0,P|164:180|200:176,1,77.5,2|0,0:0|0:0,0:0:0:0:
296,196,35937,2,0,L|300:280,1,77.5,0|0,1:0|0:0,0:0:0:0:
164,80,36144,2,0,L|160:-4,1,77.5,0|0,0:0|0:0,0:0:0:0:
64,88,36351,1,0,0:0:0:0:
32,160,36454,1,0,0:0:0:0:
28,236,36558,1,2,0:0:0:0:
56,308,36661,1,0,0:0:0:0:
112,360,36765,6,0,B|224:340|224:340|272:356,1,155,0|0,0:0|0:0,0:0:0:0:
336,384,37075,1,0,0:0:0:0:
480,296,37178,2,0,B|368:316|368:316|320:300,1,155,8|0,1:2|0:0,0:0:0:0:
260,264,37489,1,0,0:0:0:0:
388,232,37592,2,0,B|432:224|432:224|456:204|456:204|464:172|464:172|480:120,1,155,0|0,1:0|0:0,0:0:0:0:
496,52,37903,1,0,0:0:0:0:
420,72,38006,2,0,B|376:80|376:80|352:100|352:100|344:132|344:132|328:184,1,155,8|0,1:2|0:0,0:0:0:0:
32,116,38420,6,0,L|200:108,1,155,0|0,1:0|0:0,0:0:0:0:
256,64,38730,2,0,P|264:112|256:148,1,77.5,0|0,0:0|0:0,0:0:0:0:
240,216,38937,1,0,0:0:0:0:
192,276,39040,1,0,0:0:0:0:
480,268,39247,6,0,L|312:276,1,155,0|0,0:0|0:0,0:0:0:0:
192,276,39558,1,0,0:0:0:0:
116,272,39661,1,8,1:2:0:0:
48,308,39765,1,0,0:0:0:0:
20,380,39868,1,0,0:0:0:0:
256,192,40075,12,0,41730,0:0:0:0:
64,96,41937,5,0,0:0:0:0:
140,232,42144,2,0,L|304:212,1,155,10|0,1:2|0:0,0:0:0:0:
448,192,42558,1,0,0:0:0:0:
424,40,42765,1,2,0:0:0:0:
424,40,42868,2,0,L|436:124,1,77.5,0|0,0:0|0:0,0:0:0:0:
372,324,43179,2,0,L|280:332,1,77.5,0|0,0:0|0:0,0:0:0:0:
216,336,43385,1,0,0:0:0:0:
236,260,43489,1,0,0:0:0:0:
256,184,43592,1,0,0:0:0:0:
436,116,43799,6,0,L|280:108,1,155,0|0,0:0|0:0,0:0:0:0:
160,12,44213,2,0,P|132:72|140:168,1,155,0|0,1:0|0:0,0:0:0:0:
164,232,44523,1,0,0:0:0:0:
236,260,44627,1,0,0:0:0:0:
360,352,44834,2,0,P|380:316|384:280,1,77.5,0|0,0:0|0:0,0:0:0:0:
352,212,45041,6,0,P|344:172|348:136,3,77.5,0|0|0|0,0:0|0:0|0:0|0:0,0:0:0:0:
380,60,45454,2,0,P|300:64|264:128,1,155,10|0,1:2|0:0,0:0:0:0:
120,324,45868,2,0,P|200:320|236:256,1,155,0|0,0:0|0:0,0:0:0:0:
164,232,46179,1,0,0:0:0:0:
92,208,46282,1,0,0:0:0:0:
220,120,46489,1,0,0:0:0:0:
284,80,46592,1,0,0:0:0:0:
352,44,46696,6,0,L|380:124,1,77.5,0|0,0:0|0:0,0:0:0:0:
448,148,46903,2,0,L|420:228,1,77.5,0|0,0:0|0:0,0:0:0:0:
464,288,47110,2,0,L|296:312,1,155,0|0,0:0|0:0,0:0:0:0:
124,276,47524,1,0,1:0:0:0:
92,208,47730,1,0,0:0:0:0:
92,208,47834,1,0,0:0:0:0:
92,208,47937,6,2,P|52:296|156:344,1,232.500008869171,10|0,1:2|0:0,0:0:0:0:
312,320,48351,5,0,0:0:0:0:
388,304,48455,1,2,0:0:0:0:
464,288,48558,1,0,0:0:0:0:
348,188,48765,1,2,1:2:0:0:
288,140,48868,1,0,0:0:0:0:
108,100,49075,1,2,0:0:0:0:
144,32,49179,2,0,P|184:84|152:164,1,155,0|0,0:0|0:0,0:0:0:0:
92,208,49489,2,0,P|52:260|84:340,1,155,0|0,0:0|0:0,0:0:0:0:
160,336,49799,1,0,0:0:0:0:
236,328,49903,1,0,0:0:0:0:
312,320,50006,6,0,L|296:244,1,77.5,2|0,1:2|0:0,0:0:0:0:
348,188,50213,1,0,0:0:0:0:
424,52,50420,1,2,1:2:0:0:
452,124,50524,1,0,0:0:0:0:
316,48,50731,1,2,0:0:0:0:
224,40,50834,2,0,P|180:104|220:172,1,155,0|0,0:0|0:0,0:0:0:0:
256,108,51144,2,0,P|286:175|243:234,1,155,0|0,0:0|0:0,0:0:0:0:
164,240,51455,1,0,0:0:0:0:
96,276,51558,1,0,0:0:0:0:
76,352,51662,6,0,P|36:328|20:296,2,77.5,0|0|0,0:0|0:0|0:0,0:0:0:0:
228,328,52075,2,0,P|264:316|304:320,1,77.5,0|0,0:0|0:0,0:0:0:0:
380,340,52282,2,0,P|424:336|448:316,1,77.5,0|0,0:0|0:0,0:0:0:0:
460,240,52489,2,0,L|476:80,1,155,0|0,1:0|0:0,0:0:0:0:
328,32,52903,2,0,L|312:192,1,155,0|0,1:0|0:0,0:0:0:0:
300,264,53213,1,2,0:0:0:0:
224,248,53317,1,0,1:0:0:0:
148,364,53524,2,0,L|52:376,1,77.5,0|0,0:0|0:0,0:0:0:0:
24,312,53731,6,0,P|56:244|28:168,1,155,2|0,1:2|0:0,0:0:0:0:
16,96,54041,1,2,0:0:0:0:
88,120,54144,2,0,L|264:112,1,155,0|0,0:0|0:0,0:0:0:0:
256,192,54455,12,0,54972,0:0:0:0:
256,192,55179,5,0,0:0:0:0:
256,192,55282,1,0,0:0:0:0:
256,192,55386,1,8,1:2:0:0:
256,348,55593,1,0,0:0:0:0:
388,268,55800,6,0,P|412:192|388:120,1,155,0|0,1:0|0:0,0:0:0:0:
122,122,56213,2,0,P|99:195|124:268,1,155,8|0,1:2|0:0,0:0:0:0:
176,324,56524,1,0,0:0:0:0:
256,348,56627,5,0,1:0:0:0:
390,122,56834,1,0,0:0:0:0:
122,122,57041,1,8,1:2:0:0:
276,236,57248,1,0,0:0:0:0:
284,152,57351,1,0,0:0:0:0:
207,187,57455,5,0,1:2:0:0:
256,348,57662,1,0,0:0:0:0:
388,244,57869,1,0,0:0:0:0:
256,56,58076,5,0,0:0:0:0:
180,72,58179,1,0,0:0:0:0:
122,122,58283,2,2,P|84:200|96:268,1,155,0|0,1:0|0:0,0:0:0:0:
256,348,58696,2,0,P|294:270|282:202,1,155,8|0,1:2|0:0,0:0:0:0:
256,56,59110,1,0,1:0:0:0:
412,68,59317,1,0,0:0:0:0:
412,68,59420,2,0,L|448:168,1,77.5,0|0,0:0|0:0,0:0:0:0:
464,216,59627,1,0,0:0:0:0:
312,292,59834,1,0,0:0:0:0:
256,348,59938,6,0,L|92:360,1,155,0|0,1:0|0:0,0:0:0:0:
8,236,60352,2,0,L|172:224,1,155,8|0,1:2|0:0,0:0:0:0:
204,76,60765,1,0,1:0:0:0:
336,156,60972,1,0,0:0:0:0:
412,160,61076,1,0,0:0:0:0:
372,228,61179,2,0,P|392:320|348:372,1,155,8|0,1:2|0:0,0:0:0:0:
208,332,61593,6,0,L|112:340,1,77.5,0|0,0:0|0:0,0:0:0:0:
108,264,61800,2,0,L|32:236,1,77.5,0|0,0:0|0:0,0:0:0:0:
60,164,62007,2,0,P|44:84|92:36,1,155,0|0,0:0|0:0,0:0:0:0:
216,132,62421,1,0,0:0:0:0:
340,40,62627,1,0,0:0:0:0:
416,64,62731,1,0,0:0:0:0:
488,88,62834,2,0,L|456:244,1,155,8|0,1:2|0:0,0:0:0:0:
304,208,63248,6,0,P|224:204|144:208,1,155,0|0,0:0|0:0,0:0:0:0:
72,212,63559,1,0,0:0:0:0:
28,328,63662,2,0,P|108:324|188:328,1,155,8|0,1:2|0:0,0:0:0:0:
352,348,64076,2,0,L|384:192,1,155,0|0,1:0|0:0,0:0:0:0:
400,120,64386,1,0,0:0:0:0:
416,44,64490,2,0,P|328:40|240:48,1,155,8|0,1:2|0:0,0:0:0:0:
108,64,64903,5,0,1:0:0:0:
72,212,65110,1,0,0:0:0:0:
148,192,65214,1,0,0:0:0:0:
224,176,65317,1,8,1:2:0:0:
200,328,65524,1,0,0:0:0:0:
428,280,65731,2,0,L|264:312,1,155,0|0,1:0|0:0,0:0:0:0:
200,328,66041,1,0,0:0:0:0:
124,340,66145,2,0,P|72:288|72:208,1,155,0|0,0:0|0:0,0:0:0:0:
72,132,66455,1,0,0:0:0:0:
108,64,66559,6,0,P|140:60|184:68,1,77.5,0|0,1:0|0:0,0:0:0:0:
252,104,66766,2,0,P|296:104|328:92,1,77.5,0|0,0:0|0:0,0:0:0:0:
396,60,66972,1,8,1:2:0:0:
428,280,67179,1,0,0:0:0:0:
168,364,67386,5,8,1:2:0:0:
151,29,67593,1,8,0:0:0:0:
448,182,67800,2,0,P|448:232|384:312,1,155,8|0,0:0|0:0,0:0:0:0:
172,143,68214,5,4,0:0:0:0:
339,240,68421,1,0,0:0:0:0:
123,192,69869,1,4,0:0:0:0:
388,192,70076,1,0,0:0:0:0:
71,237,71524,1,4,0:0:0:0:
440,146,71731,1,0,0:0:0:0:
33,282,73180,1,4,0:0:0:0:
478,101,73386,1,0,0:0:0:0:
200,48,73593,6,0,P|192:96|196:128,1,77.5,0|0,1:0|0:0,0:0:0:0:
312,336,73904,2,0,P|320:288|316:256,1,77.5,0|0,0:0|0:0,0:0:0:0:
292,184,74111,1,0,0:0:0:0:
216,164,74214,1,0,0:0:0:0:
140,176,74318,1,0,0:0:0:0:
76,216,74421,1,0,0:0:0:0:
33,282,74524,1,0,0:0:0:0:
48,204,74628,1,0,0:0:0:0:
40,128,74731,1,0,0:0:0:0:
8,56,74835,5,0,0:0:0:0:
8,56,75042,1,0,0:0:0:0:
164,40,75249,1,0,0:0:0:0:
240,60,75352,1,0,0:0:0:0:
316,60,75456,1,0,0:0:0:0:
392,40,75559,1,0,0:0:0:0:
464,16,75662,2,0,P|488:100|456:160,1,155,0|0,0:0|0:0,0:0:0:0:
396,204,75973,1,0,0:0:0:0:
332,244,76076,2,0,P|308:328|340:388,1,155,0|0,0:0|0:0,0:0:0:0:
64,356,76490,6,0,L|228:344,1,155,0|0,0:0|0:0,0:0:0:0:
108,236,76904,1,0,0:0:0:0:
132,164,77007,1,0,0:0:0:0:
156,92,77111,1,0,0:0:0:0:
180,20,77214,1,0,0:0:0:0:
256,88,77318,6,0,L|420:76,1,155,0|0,0:0|0:0,0:0:0:0:
400,152,77628,1,0,0:0:0:0:
472,184,77731,2,0,L|308:172,1,155,0|0,0:0|0:0,0:0:0:0:
416,292,78145,5,0,0:0:0:0:
340,272,78249,1,0,0:0:0:0:
264,276,78352,1,0,0:0:0:0:
188,292,78456,1,0,0:0:0:0:
124,336,78559,1,0,0:0:0:0:
48,356,78663,5,0,0:0:0:0:
68,280,78766,1,0,0:0:0:0:
64,204,78869,1,0,0:0:0:0:
48,128,78973,1,0,0:0:0:0:
4,64,79076,1,0,0:0:0:0:
76,88,79180,5,0,0:0:0:0:
152,108,79283,1,0,0:0:0:0:
228,104,79387,1,0,0:0:0:0:
304,88,79490,1,0,0:0:0:0:
368,44,79594,1,0,0:0:0:0:
376,120,79697,1,0,0:0:0:0:
384,196,79800,2,0,L|400:360,1,155,0|0,0:0|0:0,0:0:0:0:
244,260,80214,6,0,L|236:156,1,77.5,0|0,0:0|0:0,0:0:0:0:
228,104,80628,1,0,0:0:0:0:
152,108,80835,1,0,0:0:0:0:
76,88,81042,1,2,0:0:0:0:
48,328,81456,6,0,P|124:316|208:324,1,155,4|0,1:2|0:0,0:0:0:0:
280,328,81766,1,0,0:0:0:0:
356,344,81870,1,8,1:2:0:0:
480,248,82076,1,0,0:0:0:0:
448,96,82283,1,0,1:0:0:0:
376,68,82387,1,0,0:0:0:0:
304,40,82490,2,0,L|212:80,1,77.5,2|0,0:0|0:0,0:0:0:0:
176,20,82697,2,0,L|104:168,1,155,0|0,0:0|0:0,0:0:0:0:
52,104,83008,1,0,0:0:0:0:
28,176,83111,6,0,L|60:252,1,77.5,0|0,1:0|0:0,0:0:0:0:
136,252,83318,1,0,0:0:0:0:
212,232,83421,1,0,0:0:0:0:
212,232,83525,2,0,P|292:220|368:228,1,155,8|0,1:2|0:0,0:0:0:0:
408,292,83835,1,0,0:0:0:0:
448,360,83939,2,0,P|368:372|292:364,1,155,0|0,1:0|0:0,0:0:0:0:
140,344,84352,6,0,P|88:324|52:320,1,77.5,0|0,0:0|0:0,0:0:0:0:
64,244,84559,2,0,P|36:200|28:172,1,77.5,2|0,0:0|0:0,0:0:0:0:
92,132,84766,2,0,P|132:72|216:52,1,155,0|0,1:0|0:0,0:0:0:0:
364,36,85180,2,0,L|352:124,1,77.5,0|0,0:0|0:0,0:0:0:0:
432,112,85387,1,0,0:0:0:0:
420,188,85490,2,0,L|408:276,1,77.5,0|0,0:0|0:0,0:0:0:0:
256,300,85801,1,0,0:0:0:0:
256,144,86008,1,8,1:2:0:0:
256,300,86215,6,0,L|80:312,2,155,0|0|0,0:0|0:0|0:0,0:0:0:0:
392,224,86835,1,8,1:2:0:0:
256,144,87042,1,8,0:0:0:0:
120,224,87249,2,0,P|108:192|92:136,1,77.5,0|0,1:0|0:0,0:0:0:0:
24,124,87456,2,0,L|48:48,1,77.5,0|0,0:0|0:0,0:0:0:0:
140,72,87663,6,0,P|256:48|372:72,1,232.500008869171,0|0,0:0|0:0,0:0:0:0:
476,304,88077,6,0,P|404:324|308:308,1,155,2|0,1:2|0:0,0:0:0:0:
248,304,88387,1,0,0:0:0:0:
176,280,88490,1,8,1:2:0:0:
36,348,88697,1,0,0:0:0:0:
56,196,88904,2,0,P|36:104|52:44,2,155,0|0|0,0:0|0:0|0:0,0:0:0:0:
212,184,89525,1,0,0:0:0:0:
288,180,89628,1,0,0:0:0:0:
364,176,89732,6,0,L|468:168,1,77.5,0|0,0:0|0:0,0:0:0:0:
332,60,89939,1,0,0:0:0:0:
256,68,90042,2,0,L|152:76,1,77.5,0|0,0:0|0:0,0:0:0:0:
56,196,90249,1,0,0:0:0:0:
132,192,90353,1,0,0:0:0:0:
72,336,90559,2,0,P|120:328|160:336,1,77.5,2|0,1:2|0:0,0:0:0:0:
224,312,90766,2,0,P|280:332|320:332,1,77.5,2|0,0:0|0:0,0:0:0:0:
372,352,90973,2,0,L|392:256,1,77.5,0|0,0:0|0:0,0:0:0:0:
464,256,91180,2,0,L|452:176,1,77.5,0|0,0:0|0:0,0:0:0:0:
408,48,91387,6,0,L|252:68,1,155,2|0,1:2|0:0,0:0:0:0:
176,76,91697,1,0,0:0:0:0:
100,84,91801,1,8,1:2:0:0:
64,252,92008,1,0,0:0:0:0:
216,168,92215,2,0,P|244:248|224:312,1,155,0|0,1:0|0:0,0:0:0:0:
176,376,92525,2,0,L|320:292,1,155,0|0,0:0|0:0,0:0:0:0:
380,264,92835,1,0,0:0:0:0:
408,48,93042,6,0,L|264:132,1,155,0|0,0:0|0:0,0:0:0:0:
204,88,93353,1,0,0:0:0:0:
140,44,93456,1,8,1:2:0:0:
96,192,93663,1,0,0:0:0:0:
56,340,93870,2,0,P|172:308|216:300,1,155,0|0,1:0|0:0,0:0:0:0:
380,264,94284,2,0,B|384:240|384:240|412:248|412:248|412:224|412:224|440:232|440:232|440:204|440:204|472:208|472:208|476:168|476:128,1,232.5,2|0,0:0|0:0,0:0:0:0:
408,48,94698,6,0,L|240:32,1,155,4|0,0:0|0:0,0:0:0:0:
204,88,95008,1,0,0:0:0:0:
176,16,95111,2,0,P|128:80|152:144,1,155,8|0,1:2|0:0,0:0:0:0:
208,196,95422,1,0,0:0:0:0:
268,244,95525,1,0,1:0:0:0:
64,332,95732,2,0,P|120:328|172:344,1,77.5,0|0,0:0|0:0,0:0:0:0:
216,352,95939,2,0,P|272:348|304:336,1,77.5,0|0,0:0|0:0,0:0:0:0:
368,348,96146,1,2,0:0:0:0:
432,304,96249,1,0,0:0:0:0:
496,260,96353,6,0,L|456:96,1,155,2|0,1:2|0:0,0:0:0:0:
320,36,96767,2,0,P|228:64|160:52,1,155,8|0,1:2|0:0,0:0:0:0:
96,44,97077,1,0,0:0:0:0:
24,76,97180,2,0,P|32:128|32:164,1,77.5,0|0,1:0|0:0,0:0:0:0:
168,304,97387,2,0,P|163:266|168:228,1,77.5,0|0,0:0|0:0,0:0:0:0:
216,132,97594,2,0,L|112:140,1,77.5,8|0,1:2|0:0,0:0:0:0:
0,252,97801,2,0,L|104:244,1,77.5,0|0,0:0|0:0,0:0:0:0:
260,264,98008,6,0,L|432:252,1,155,2|0,1:3|0:0,0:0:0:0:
492,248,98318,1,0,0:0:0:0:
448,184,98422,2,0,B|480:128|452:80|452:80|400:56|400:56,1,155,8|0,1:2|0:0,0:0:0:0:
256,40,98836,1,0,1:0:0:0:
180,52,98939,2,0,L|96:72,1,77.5,0|0,0:0|0:0,0:0:0:0:
28,88,99146,1,0,0:0:0:0:
168,132,99249,2,0,L|8:172,1,155,8|0,1:2|0:0,0:0:0:0:
104,300,99663,5,0,0:0:0:0:
256,272,99870,1,0,0:0:0:0:
408,300,100077,1,8,1:2:0:0:
444,148,100284,1,0,0:0:0:0:
388,96,100387,1,0,0:0:0:0:
312,100,100491,1,0,1:0:0:0:
244,132,100594,1,0,0:0:0:0:
168,132,100698,1,0,0:0:0:0:
100,100,100801,2,0,L|116:64,10,38.75,0|0|0|0|0|0|0|0|0|0|0,0:0|0:0|0:0|0:0|0:0|0:0|0:0|0:0|0:0|0:0|0:0,0:0:0:0:
44,244,101525,5,0,0:0:0:0:
172,332,101732,1,8,1:2:0:0:
248,328,101836,1,0,0:0:0:0:
324,328,101939,1,0,0:0:0:0:
400,324,102043,2,0,P|424:232|456:156,1,155,0|0,0:0|0:0,0:0:0:0:
488,108,102353,1,2,0:0:0:0:
412,96,102456,2,0,B|372:88|372:88|324:96,1,77.5,2|0,0:0|0:0,0:0:0:0:
184,60,102663,2,0,B|224:68|224:68|272:60,2,77.5,0|0|0,0:0|0:0|0:0,0:0:0:0:
104,44,102974,6,0,B|104:88|64:96|64:96|32:136|52:176,1,155,0|0,1:0|0:0,0:0:0:0:
132,192,103284,1,0,0:0:0:0:
72,248,103388,2,0,P|60:288|40:320,1,77.5,0|0,0:0|0:0,0:0:0:0:
132,324,103594,2,0,P|192:352|236:360,1,77.5,2|0,0:0|0:0,0:0:0:0:
212,276,103801,2,0,P|312:272|372:264,1,155,0|0,1:0|0:0,0:0:0:0:
444,244,104112,1,2,0:0:0:0:
492,184,104215,1,0,0:0:0:0:
344,128,104422,1,2,0:0:0:0:
272,104,104525,1,0,0:0:0:0:
196,80,104629,6,0,P|96:92|32:112,1,155,0|0,0:0|0:0,0:0:0:0:
92,168,104939,1,0,0:0:0:0:
152,220,105043,2,0,P|52:232|-12:252,1,155,8|0,1:2|0:0,0:0:0:0:
284,320,105457,2,0,P|348:324|384:332,2,77.5,0|0|0,1:0|0:0|0:0,0:0:0:0:
240,256,105767,1,0,0:0:0:0:
248,180,105870,1,8,1:2:0:0:
272,104,105974,2,0,L|456:84,1,155,0|0,0:0|0:0,0:0:0:0:
492,48,106284,6,0,P|432:108|440:172,1,155,2|0,1:2|0:0,0:0:0:0:
468,244,106595,1,0,0:0:0:0:
504,312,106698,1,8,1:2:0:0:
428,308,106801,1,2,0:0:0:0:
352,316,106905,2,0,P|292:324|256:340,1,77.5,0|0,0:0|0:0,0:0:0:0:
200,348,107112,5,0,0:0:0:0:
124,344,107215,1,2,0:0:0:0:
60,300,107319,1,0,0:0:0:0:
28,228,107422,1,0,0:0:0:0:
32,152,107526,1,10,1:2:0:0:
56,80,107629,1,0,0:0:0:0:
116,32,107732,1,0,0:0:0:0:
192,24,107836,1,0,0:0:0:0:
256,192,107939,12,0,109595,0:0:0:0:
