osu file format v9

[General]
AudioFilename: Claiomh Solais.mp3
AudioLeadIn: 1015
PreviewTime: 39365
Countdown: 0
SampleSet: Normal
StackLeniency: 0.4
Mode: 0
LetterboxInBreaks: 1

[Editor]
Bookmarks: 1183,7365,16093,39365,51002,62638,74274,85911,109183,113547
DistanceSpacing: 1
BeatDivisor: 8
GridSize: 4

[Metadata]
Title:Claiomh Solais
Artist:DJ Yoshitaka VS S.S.D.
Creator:Aria
Version:Normal
Source:beatmania IIDX
Tags:The Sword of Light Impossiblexu Gomo Psivarh Wmfchris

[Difficulty]
HPDrainRate:5
CircleSize:4
OverallDifficulty:4
ApproachRate:5
SliderMultiplier:1
SliderTickRate:1

[Events]
//Background and Video events
0,0,"BG.jpg"
//Break Periods
2,42533,49861
//Storyboard Layer 0 (Background)
//Storyboard Layer 1 (Fail)
//Storyboard Layer 2 (Pass)
//Storyboard Layer 3 (Foreground)
//Storyboard Sound Samples
//Background Colour Transformations
3,100,0,0,0

[TimingPoints]
152,363.636363636364,4,2,1,50,1,0
1515,-100,4,2,1,36,0,0
1697,-100,4,2,1,43,0,0
2242,-100,4,2,1,35,0,0
2424,-100,4,2,1,54,0,0
2606,-100,4,2,1,34,0,0
2788,-100,4,2,1,44,0,0
3697,-100,4,2,1,40,0,0
3879,-100,4,2,1,57,0,0
6606,-100,4,2,1,54,0,0
6788,-100,4,2,1,75,0,0
10242,-100,4,2,1,31,0,0
10606,-100,4,2,1,41,0,0
10970,-100,4,2,1,61,0,0
11333,-100,4,2,1,40,0,0
11697,-100,4,2,1,21,0,0
12061,-100,4,2,1,41,0,0
12424,-100,4,2,1,60,0,0
12788,-100,4,2,1,39,0,0
13152,-100,4,2,1,29,0,0
13515,-100,4,2,1,50,0,0
13879,-100,4,2,1,70,0,0
14242,-100,4,2,1,49,0,0
14606,-100,4,2,1,71,0,0
15152,-100,4,2,1,31,0,0
15879,-100,4,2,1,52,0,0
16115,-100,4,2,1,66,0,0
21933,-100,4,2,1,68,0,0
27751,-100,4,2,1,77,0,0
32842,-100,4,2,1,51,0,0
33569,-100,4,2,1,77,0,0
37933,-100,4,2,1,52,0,0
38478,-100,4,2,1,36,0,0
39024,-100,4,2,1,18,0,0
51024,-100,4,1,1,52,0,0
52115,-100,4,1,2,53,0,0
52296,-100,4,1,1,51,0,0
53569,-100,4,1,2,49,0,0
53751,-100,4,1,1,49,0,0
55024,-100,4,1,2,49,0,0
55206,-100,4,1,1,49,0,0
58660,-100,4,1,1,50,0,0
61206,-100,4,1,1,40,0,0
61569,-100,4,1,1,26,0,0
61933,-100,4,1,1,49,0,0
62660,-100,4,1,2,52,0,0
63387,-100,4,2,2,52,0,0
63569,-100,4,1,2,52,0,0
64296,-100,4,1,2,5,0,0
64478,-100,4,1,2,52,0,0
64660,-100,4,1,2,5,0,0
64842,-100,4,2,2,52,0,0
65024,-100,4,1,2,52,0,0
65933,-100,4,1,2,56,0,0
66296,-100,4,2,2,52,0,0
66478,-100,4,1,2,52,0,0
67152,-100,4,1,2,40,0,0
67333,-100,4,1,2,52,0,0
67515,-100,4,1,2,40,0,0
67697,-100,4,1,2,52,0,0
68660,-100,4,2,2,52,0,0
73751,-100,4,1,2,52,0,0
75024,-100,4,2,2,52,0,0
75206,-100,4,1,2,52,0,0
76478,-100,4,2,2,52,0,0
76660,-100,4,1,2,52,0,0
77569,-100,4,2,2,52,0,0
77751,-100,4,1,2,52,0,0
78296,-100,4,2,2,52,0,0
78478,-100,4,1,2,52,0,0
79024,-100,4,2,2,52,0,0
79206,-100,4,1,2,52,0,0
79751,-100,4,2,2,52,0,0
79933,-100,4,1,2,52,0,0
80842,-100,4,2,2,52,0,0
81024,-100,4,1,2,52,0,0
82660,-100,4,2,2,52,0,0
82842,-100,4,1,2,52,0,0
83387,-100,4,2,1,52,0,0
84478,-100,4,1,2,100,0,0
85569,-100,4,2,1,70,0,0
85970,-100,4,2,1,81,0,1
107606,-100,4,2,1,70,0,0
107788,-100,4,2,1,70,0,1
107833,-100,4,2,1,70,0,0
108333,-100,4,2,1,70,0,1
108379,-100,4,2,1,70,0,0
109242,-100,4,2,2,65,0,1
109288,-100,4,2,2,70,0,1

[Colours]
Combo1 : 128,255,255
Combo2 : 255,128,255

[HitObjects]
180,136,1242,1,0
252,68,1606,2,0,B|360:28|456:96,1,200,8|8
496,172,2697,1,8
412,228,3061,2,0,B|468:256|476:324,2,100,0|8|8
372,320,4152,5,0
272,324,4515,2,0,B|160:288|140:164,1,200,8|8
240,152,5606,1,8
336,124,5970,2,0,B|368:80|416:52,2,100,0|8|8
404,196,7061,5,0
304,204,7424,2,0,B|272:240|204:256,2,100,8|0|8
332,108,8515,1,0
236,88,8879,2,0,B|184:96|148:140,1,100,8|0
156,188,9424,6,0,B|112:192|92:180,1,50,0|8
124,284,9970,2,0,B|168:280|188:292,1,50,0|2
224,284,10333,6,0,B|276:272|320:244,2,100,8|2|0
228,184,11424,1,0
320,144,11788,2,0,B|288:104|237:80,2,100,0|2|0
228,184,12879,1,0
144,128,13242,2,0,B|128:168|130:231,2,100,0|2|0
228,184,14333,1,0
312,132,14697,6,0,B|328:172|326:235,1,100
360,268,15242,2,0,B|452:244|488:172,1,150
420,84,16152,6,0,B|368:48,1,50,0|2
336,52,16515,2,0,B|268:56|224:48,1,100,8|2
144,88,17242,1,8
112,184,17606,6,0,B|128:248,1,50,0|2
172,252,17970,2,0,B|228:244|284:256,2,100,8|2|8
200,348,19061,6,0,B|260:348,1,50,0|2
300,348,19424,2,0,B|368:348,1,50,8|2
400,348,19788,2,0,B|416:300|444:252,1,100,0|8
368,156,20515,6,0,B|356:76|352:40,1,100,0|8
248,136,21242,2,12,B|248:200|240:240,1,100,4|0
128,224,21970,6,0,B|120:168,1,50
116,120,22333,2,0,B|128:60|188:32,1,100,8|0
240,116,23061,1,8
340,124,23424,6,0,B|368:88|392:76,1,50
400,132,23788,2,0,B|348:188|312:200,1,100,8|0
232,232,24515,1,8
140,268,24879,6,0,B|80:296,2,50,0|0|10
232,232,25606,2,0,B|272:280,2,50,0|0|10
176,152,26333,2,0,B|64:140,1,100,0|10
120,52,27061,2,0,B|228:48,1,100,6|14
292,120,27788,6,0,B|352:112|404:120,1,100,0|8
400,168,28333,1,2
400,220,28515,2,0,B|388:268|400:332,1,100,0|8
296,320,29242,6,0,B|308:272|296:208,1,100,0|8
292,172,29788,1,2
256,136,29970,2,0,B|208:116,2,50,0|0|8
348,96,30697,6,0,B|432:28,1,100,0|10
408,160,31424,2,0,B|320:220,1,100,0|10
300,120,32152,2,0,B|200:172,1,100,0|10
168,192,32697,1,0
128,220,32879,2,0,B|124:320,1,100,6|14
220,296,33606,6,0,B|316:348,1,100,0|8
360,344,34152,2,0,B|420:344,1,50,2|0
396,296,34515,2,0,B|488:256,1,100,2|2
476,208,35061,6,0,B|452:96,1,100,8|0
408,96,35606,2,0,B|364:60,1,50,2|8
364,116,35970,2,0,B|260:88,1,100,2|2
240,132,36515,6,0,B|228:188,1,50,8|2
184,204,36879,2,0,B|224:256,1,50,0|2
192,288,37242,2,0,B|252:288,1,50,8|2
284,312,37606,2,0,B|312:256,1,50,0|2
328,220,37970,5,12
272,88,38515,1,4
416,44,39061,1,4
256,192,39424,12,0,42333
264,88,51061,5,14
360,64,51424,1,8
344,164,51788,2,0,B|384:264,1,100,10|0
280,256,52515,2,0,B|316:356,2,100,10|10|10
204,188,53606,1,2
248,88,53970,5,10
152,64,54333,1,10
100,148,54697,2,0,B|89:170|60:248,1,100,10|0
144,300,55424,2,0,B|252:316,1,100,10|10
292,320,55970,2,0,B|364:320,1,50,0|10
420,232,56515,6,0,B|388:164|364:136,1,100,10|10
272,148,57242,1,0
188,92,57606,1,10
184,192,57970,6,0,B|192:264|232:296,1,100,0|10
308,328,58697,1,10
356,332,58879,2,0,B|424:336,1,50,0|10
456,248,59424,5,10
396,168,59788,2,0,B|324:84,2,100,10|0|10
296,184,60879,1,0
200,208,61242,2,0,B|208:100,2,100,14|14|14
376,112,62697,6,0,B|424:204|364:308,1,200,14|8
268,296,63788,2,0,B|232:248,1,50,2|0
220,208,64151,2,0,B|108:208,2,100,0|10|8
276,124,65242,1,2
280,24,65606,6,0,B|352:32,1,50,8|0
360,68,65970,2,0,B|396:108,1,50,8|0
404,152,66333,1,8
400,252,66697,2,0,B|384:304,1,50
340,324,67061,2,0,B|240:348|228:340,2,100,8|0|0
292,128,68515,6,0,B|204:68|88:116,1,200,0|10
36,188,69606,2,0,B|36:248,1,50
40,288,69970,2,0,B|80:328|148:332,2,100,10|0|10
120,228,71061,1,0
140,132,71424,2,0,B|256:112,1,100,10|0
284,136,71970,2,0,B|332:172,1,50,2|10
420,140,72515,2,0,B|444:248|448:252,1,100,0|10
248,184,73606,1,8
248,40,74333,6,0,B|368:32|448:52,1,200,12|10
440,152,75424,2,0,B|408:200,1,50
368,216,75788,2,0,B|252:228,2,100,0|0|10
328,124,76879,1,0
420,88,77242,6,0,B|464:200,1,100,0|10
404,264,77970,2,0,B|296:264,1,100,0|10
272,168,78697,2,0,B|312:64,1,100,0|10
408,72,79424,2,0,B|476:160,1,100,0|10
392,216,80151,6,0,B|344:252|300:252,2,100,0|0|10
416,120,81242,1,0
316,112,81606,2,0,B|272:40|280:4,2,100,8|8|0
248,188,82697,1,10
304,268,83061,5,8
208,292,83424,2,0,B|156:304,1,50,8|8
248,188,83970,2,0,B|300:176,1,50,0|8
264,84,84515,1,0
352,64,85606,6,0,B|368:116|360:168,1,100,0|4
356,212,86151,1,0
352,260,86333,2,0,B|280:308|248:312,1,100,8|0
164,307,87061,6,0,B|148:307|76:259,1,100,10|0
92,212,87606,2,0,B|112:164,3,50,0|8|0|0
144,72,88515,6,0,B|200:72,1,50,10|0
244,76,88879,1,0
320,140,89242,2,0,B|360:192,1,50,8|0
324,224,89606,2,0,B|324:276|284:336,1,100,0|8
196,316,90333,6,0,B|166:273|166:221,1,100,8|0
164,172,90879,1,0
164,120,91061,2,0,B|164:68|204:8,1,100,8|10
272,88,91788,6,0,B|320:112|388:124,1,100,8|0
300,232,92515,2,0,B|240:208|188:200,1,100,8|0
72,188,93242,6,0,B|100:244|104:300,1,100,8|0
140,316,93788,1,0
188,328,93970,2,0,B|240:312|308:312,1,100,8|0
388,304,94697,6,0,B|440:344,2,50,8|0|0
348,212,95424,2,0,B|296:200,2,50,8|0|0
440,172,96151,2,0,B|420:128|376:84,1,100,10|0
336,68,96697,1,0
288,56,96879,2,0,B|232:44,2,50,10|0|0
236,140,97606,6,0,B|184:112|128:96,1,100,8|0
128,200,98333,2,0,B|184:220|232:256,1,100,8|0
344,224,99061,6,0,B|384:176,2,50,8|0|0
316,264,99606,1,0
280,300,99788,2,0,B|248:332|192:348,1,100,10|0
124,276,100515,6,0,B|104:256|84:184,1,100,0|8
152,72,101242,2,0,B|182:57|272:44,1,100,2|8
360,104,101970,2,0,B|380:124|400:196,1,100,0|10
396,244,102515,2,0,B|396:276|376:312,1,50
304,216,103061,1,8
276,120,103424,5,0
196,64,103788,1,8
152,40,103970,2,0,B|92:40,3,50,0|0|0|10
120,140,104879,5,0
132,240,105242,1,8
168,276,105424,2,0,B|212:312,3,50,0|0|0|10
284,244,106333,6,0,B|336:200,1,50
336,160,106697,2,0,B|296:108,1,50,8|0
256,120,107061,2,0,B|200:132,2,50,0|0|8
252,220,107788,6,0,B|168:236|124:304,2,150,4|4|4
256,192,109242,12,6,113606
