osu file format v9

[General]
AudioFilename: Claiomh Solais.mp3
AudioLeadIn: 1000
PreviewTime: 39365
Countdown: 0
SampleSet: Normal
StackLeniency: 0.4
Mode: 0
LetterboxInBreaks: 1

[Editor]
DistanceSpacing: 1.2
BeatDivisor: 4
GridSize: 4

[Metadata]
Title:Claiomh Solais
Artist:DJ Yoshitaka VS S.S.D.
Creator:Aria
Version:Harvisp
Source:beatmania IIDX
Tags:The Sword of Light Impossiblexu Gomo Psivarh Wmfchris

[Difficulty]
HPDrainRate:6
CircleSize:4
OverallDifficulty:7
ApproachRate:8
SliderMultiplier:1.6
SliderTickRate:1

[Events]
//Background and Video events
0,0,"BG.jpg"
//Break Periods
2,39624,49947
//Storyboard Layer 0 (Background)
//Storyboard Layer 1 (Fail)
//Storyboard Layer 2 (Pass)
//Storyboard Layer 3 (Foreground)
//Storyboard Sound Samples
//Background Colour Transformations
3,100,0,0,0

[TimingPoints]
152,363.636363636364,4,2,1,50,1,0
7424,-100,4,2,1,80,0,0
10333,-100,4,2,1,60,0,0
13242,-100,4,2,1,30,0,0
14333,-100,4,2,2,50,0,0
14697,-100,4,1,0,70,0,0
16152,-100,4,1,0,68,0,0
36515,-100,4,1,2,100,0,0
50697,-100,4,2,1,95,0,0
57242,-100,4,2,2,95,0,0
57606,-100,4,2,1,95,0,0
57970,-100,4,2,2,95,0,0
58331,-100,4,2,1,95,0,0
59970,-100,4,2,1,70,0,0
60515,-100,4,2,1,95,0,0
60697,-100,4,2,1,60,0,0
61242,-100,4,2,1,95,0,0
61333,-100,4,2,1,50,0,0
61606,-100,4,2,1,95,0,0
61788,-100,4,2,1,50,0,0
61970,-100,4,2,1,95,0,0
62152,-100,4,2,1,50,0,0
62697,-100,4,2,1,95,0,0
62788,-100,4,2,1,50,0,0
71424,-90.9090909090909,4,2,1,60,0,0
74333,-90.9090909090909,4,2,1,95,0,0
78970,-90.9090909090909,4,2,1,81,0,0
79333,-90.9090909090909,4,2,1,72,0,0
79697,-90.9090909090909,4,2,1,64,0,0
80061,-90.9090909090909,4,2,1,87,0,0
84515,-90.9090909090909,4,2,2,100,0,0
85242,-90.9090909090909,4,2,0,80,0,0
85970,-90.9090909090909,4,1,0,75,0,1
106333,-66.6666666666667,4,1,2,100,0,1
107697,-66.6666666666667,4,1,2,100,0,0
107788,-66.6666666666667,4,1,2,100,0,1
107879,-66.6666666666667,4,1,2,100,0,0
113606,-66.6666666666667,4,2,0,0,0,0

[Colours]
Combo1 : 128,255,255
Combo2 : 255,128,255

[HitObjects]
256,192,1242,2,0,B|340:192|404:136,1,160,0|8
256,192,1970,2,0,B|172:192|108:248,1,160,0|8
256,316,2697,1,0
256,316,3061,2,0,B|340:316|404:260,1,160
444,192,3606,2,0,B|476:156|444:120,1,80,0|8
256,192,4152,6,0,B|256:276|312:340,1,160,0|8
256,192,4879,2,0,B|256:108|200:44,1,160,0|8
76,192,5606,1,0
76,192,5788,1,0
76,192,5970,2,0,B|96:248|132:272,1,80
180,312,6333,2,0,B|256:360|332:312,1,160,2|8
256,192,7061,6,0,B|256:104,2,80
384,288,7788,1,2
256,192,8152,1,0
128,288,8515,1,2
140,128,8879,2,0,B|212:95,1,80
372,127,9242,2,0,B|299:95,1,80
256,192,9606,1,8
444,160,9970,6,0,B|444:240,2,80
256,32,10697,1,2
68,160,11061,1,0
256,288,11424,1,0
256,96,11788,5,0
444,224,12152,1,2
256,352,12515,1,0
68,224,12879,1,0
256,192,13242,12,8,14333
256,192,14697,5,0
256,192,15242,1,0
256,192,15788,1,0
256,192,16152,6,0,B|336:192,1,80,6|0
388,132,16515,2,0,B|328:80,1,80
248,64,16879,1,0
168,72,17061,1,0
108,128,17242,1,0
72,200,17424,1,0
108,272,17606,6,0,B|168:272|168:272|208:304|208:304|260:304,1,160,2|0
336,304,18152,1,0
376,236,18333,2,0,B|460:236,2,80,2|0|0
256,48,19061,5,6
256,128,19242,1,0
304,192,19424,2,0,B|384:192,1,80
208,192,19788,2,0,B|128:192,1,80,0|0
256,256,20152,1,0
256,336,20333,1,0
256,256,20515,6,0,B|256:172,1,80,2|0
256,96,20879,2,0,B|256:12,1,80
156,52,21242,1,2
256,164,21424,1,0
356,52,21606,1,2
356,52,21788,6,0,B|408:52,2,40,0|0|6
356,132,22152,1,0
408,192,22333,1,0
156,52,22697,1,2
156,132,22879,1,0
104,192,23061,1,0
256,192,23424,6,0,B|183:234,1,80,2|0
256,192,23788,2,0,B|328:234,1,80,2|0
256,192,24152,2,0,B|256:272,1,80,2|0
256,348,24515,1,0
104,192,24879,6,0,B|192:56,1,160,6|0
408,192,25606,2,0,B|320:328,1,160,2|0
44,160,26333,6,0,B|132:24,1,160,6|0
468,224,27061,1,6
468,224,27242,1,0
468,224,27424,1,2
468,224,27606,6,0,B|436:272,2,40,0|0|6
468,144,27970,1,0
424,76,28152,1,0
360,124,28333,1,0
296,76,28515,2,0,B|212:76,1,80,0|0
256,148,28879,2,0,B|256:232,1,80
188,272,29242,5,2
188,272,29424,1,0
256,348,29606,1,0
256,348,29788,1,0
324,272,29970,1,2
324,272,30152,1,0
256,196,30333,1,0
216,40,30697,6,0,B|80:128,1,160,6|0
32,192,31242,1,0
81,257,31424,2,0,B|216:344,1,160,2|0
296,344,31970,1,0
364,304,32152,6,0,B|364:216,1,80,2|0
364,144,32515,1,0
292,104,32697,1,0
292,104,32879,2,0,B|292:196,1,80,2|0
220,144,33242,1,2
220,144,33424,1,0
172,208,33606,6,0,B|240:256,1,80,6|0
332,276,33970,2,0,B|408:240,1,80
440,152,34333,2,0,B|380:88,1,80,2|0
296,60,34697,2,0,B|212:72,1,80
128,112,35061,5,2
52,160,35242,1,0
52,160,35424,1,2
128,112,35606,1,0
204,160,35788,1,2
280,208,35970,1,0
356,164,36152,1,2
432,208,36333,1,0
432,208,36515,6,0,B|464:244|432:280,1,80,4|0
256,84,37061,2,0,B|256:0,1,80,0|0
80,208,37606,2,0,B|48:244|80:280,1,80,0|0
80,208,37970,5,4
124,104,38152,1,0
432,208,38515,1,4
388,104,38697,1,0
256,304,39061,1,4
256,192,39242,1,0
256,80,39424,1,4
72,192,50697,6,0,B|40:268,2,80,0|0|12
256,192,51424,2,0,B|288:116,2,80,0|0|10
440,192,52151,2,0,B|408:268|408:268|328:268,1,160,0|4
140,268,52879,1,0
80,192,53061,1,0
140,116,53242,1,10
440,44,53606,6,0,B|404:16|368:44,2,80,0|0|12
440,192,54333,2,0,B|360:192,2,80,0|0|10
440,340,55061,2,0,B|404:368|368:340,1,80
218,280,55424,2,0,B|256:252|292:280,1,80,12|0
145,339,55788,2,0,B|108:368|72:340,2,80,10|0|10
256,192,56515,5,0
256,104,56697,1,0
256,16,56879,1,4
408,280,57242,1,8
256,16,57606,1,4
104,280,57970,1,8
256,16,58333,5,4
256,104,58515,1,0
256,272,58697,2,0,B|256:192,1,80,4|0
256,192,59061,1,4
440,192,59424,6,0,B|408:116,1,80
348,192,59788,1,4
348,192,59970,1,0
256,192,60151,2,0,B|288:268,1,80
164,192,60515,1,4
164,192,60697,1,0
72,192,60879,2,0,B|40:116,1,80
120,64,61242,5,4
160,40,61333,1,0
200,64,61424,1,0
284,108,61606,1,4
368,60,61788,1,0
408,36,61879,1,0
448,60,61970,1,4
408,148,62151,1,0
328,196,62333,1,0
416,232,62515,1,0
336,280,62697,6,0,B|336:344|336:344|236:344,1,160,4|8
176,104,63424,2,0,B|176:40|176:40|276:40,1,160,0|8
196,332,64151,6,0,B|140:332|140:332|140:284|140:284|84:284,1,160,0|8
316,52,64879,2,0,B|372:52|372:52|372:100|372:100|428:100,1,160,0|8
184,332,65606,5,0
80,116,65970,1,8
232,332,66333,1,0
196,96,66697,1,8
280,332,67061,5,0
316,96,67424,1,8
328,332,67788,1,0
432,116,68151,1,8
476,192,68333,1,0
432,268,68515,6,0,B|388:268|388:268|332:236|332:236|280:236,1,160,2|8
228,308,69061,1,0
176,236,69242,1,8
124,308,69424,2,0,B|48:332,1,80,0|8
72,236,69788,1,0
72,236,69879,1,0
72,236,69970,6,0,B|72:192|72:192|104:136|104:136|104:84,1,160,10|0
192,84,70515,2,0,B|192:136|192:136|224:192|224:192|224:236,1,160,8|0
148,284,71061,1,8
364,284,71424,5,2
440,240,71606,1,0
440,328,71788,1,8
440,152,72151,1,0
364,196,72333,1,0
364,108,72515,1,8
440,64,72697,1,0
440,152,72879,6,0,B|440:240|440:240|364:284,1,175.999994754791,8|0
364,196,73424,2,0,B|364:108|364:108|288:64,1,175.999994754791,0|0
288,152,73970,1,8
144,276,74333,5,4
216,224,74515,1,0
164,152,74697,2,0,B|224:84,1,87.9999973773957,8|0
312,92,75061,1,0
380,148,75242,1,0
348,232,75424,2,0,B|288:300,1,87.9999973773957,8|0
256,192,75788,6,0,B|171:156,1,87.9999973773957,4|0
256,192,76151,2,0,B|291:107,1,87.9999973773957,8|0
256,192,76515,2,0,B|340:227,1,87.9999973773957
256,192,76879,2,0,B|220:276,1,87.9999973773957,8|0
144,316,77242,5,4
144,228,77424,1,0
56,228,77606,1,0
456,156,77970,1,4
368,156,78151,1,0
368,68,78333,1,8
229,292,78697,5,4
154,218,78879,1,0
181,118,79061,1,4
282,91,79242,1,0
356,165,79424,1,4
329,265,79606,1,0
256,192,79788,1,12
112,264,80151,6,0,B|184:354|256:264,1,175.999994754791,4|0
256,264,80879,2,0,B|346:192|256:120,1,175.999994754791,2|0
256,120,81606,2,0,B|166:192|256:264,1,175.999994754791,4|0
256,264,82333,2,0,B|328:354|400:264,1,175.999994754791,2|0
256,192,83061,12,8,84515
256,192,85242,1,0
256,192,85606,1,0
256,192,85970,6,0,B|344:192,1,87.9999973773957,6|0
404,128,86333,2,0,B|336:72,1,87.9999973773957
256,40,86697,1,0
172,60,86879,1,0
104,112,87061,1,0
64,192,87242,1,0
104,272,87424,6,0,B|172:272|172:272|204:240|204:240|268:240,1,175.999994754791,2|0
344,192,87970,1,0
388,116,88151,2,0,B|484:116,2,87.9999973773957,2|0|0
344,40,88697,1,0
256,40,88879,5,6
256,128,89061,1,0
196,192,89242,2,0,B|108:192,1,87.9999973773957
316,192,89606,2,0,B|404:192,1,87.9999973773957,0|0
256,256,89970,1,0
256,344,90151,1,0
256,256,90333,6,0,B|256:344,1,87.9999973773957,2|0
256,88,90697,2,0,B|256:176,1,87.9999973773957,0|0
256,176,91061,1,2
336,40,91242,1,0
176,40,91424,1,2
176,40,91606,6,0,B|132:40,2,43.9999986886979,0|0|6
176,128,91970,1,0
112,192,92151,2,0,B|24:192,1,87.9999973773957
112,192,92515,1,2
176,256,92697,1,0
176,344,92879,1,0
176,256,93061,1,0
240,192,93242,6,0,B|284:268,1,87.9999973773957,2|0
240,192,93606,2,0,B|284:115,1,87.9999973773957,2|0
240,192,93970,2,0,B|328:192,1,87.9999973773957,2|0
416,192,94333,1,2
416,192,94515,1,0
416,192,94697,6,0,B|284:76,1,175.999994754791,6|0
176,108,95242,1,0
96,192,95424,2,0,B|228:308,1,175.999994754791,6|0
336,276,95970,1,0
416,192,96151,6,0,B|344:128,1,87.9999973773957,6|0
336,276,96515,2,0,B|256:232,1,87.9999973773957,2|0
176,108,96879,2,0,B|256:152,1,87.9999973773957,6|0
96,192,97242,2,0,B|168:256,1,87.9999973773957,2|0
161,250,97515,1,0
161,250,97606,5,6
220,316,97788,1,0
300,276,97970,1,0
368,332,98151,1,0
452,312,98333,2,0,B|452:224,1,87.9999973773957,0|0
492,144,98697,2,0,B|404:144,1,87.9999973773957
324,112,99061,5,2
324,112,99242,1,0
256,192,99424,1,0
256,192,99606,1,0
188,112,99788,1,2
188,112,99970,1,0
256,32,100151,1,0
256,32,100333,1,0
168,28,100515,6,0,B|104:28|104:28|64:68|64:68|64:124,1,175.999994754791,6|0
120,192,101061,1,0
64,260,101242,2,0,B|64:315|64:315|104:355|104:355|168:355,1,175.999994754791,2|0
256,356,101788,1,0
332,312,101970,6,0,B|332:224,1,87.9999973773957,2|0
332,132,102333,1,0
256,84,102515,1,0
256,84,102697,2,0,B|256:176,1,87.9999973773957,2|0
180,132,103061,1,2
180,132,103242,1,0
116,192,103424,6,0,B|192:244,1,87.9999973773957,6|0
288,280,103788,2,0,B|368:240,1,87.9999973773957
436,160,104151,2,0,B|376:96,1,87.9999973773957,2|0
276,56,104515,2,0,B|180:60,1,87.9999973773957
88,100,104879,5,2
57,199,105061,1,0
110,292,105242,1,2
217,279,105424,1,0
304,344,105606,1,6
397,290,105788,1,0
420,189,105970,1,2
397,290,106151,1,0
420,189,106333,6,0,B|472:136|420:84,1,119.999996423721,6|4
196,348,106879,2,0,B|320:348,1,119.999996423721
92,189,107424,2,0,B|40:136|92:84,1,119.999996423721
92,189,107788,5,4
192,56,107970,1,0
420,189,108333,1,4
320,56,108515,1,0
256,304,108879,1,4
256,80,109061,1,0
256,304,109242,1,4
256,192,109424,12,0,113606
