osu file format v9

[General]
AudioFilename: GOLD RUSH.mp3
AudioLeadIn: 0
PreviewTime: 64302
Countdown: 0
SampleSet: Normal
StackLeniency: 0.3
Mode: 0
LetterboxInBreaks: 1

[Editor]
DistanceSpacing: 1.2
BeatDivisor: 4
GridSize: 16

[Metadata]
Title:GOLD RUSH
Artist:DJ YOSHITAKA-G feat. Michael a la mode
Creator:Heatherfield
Version:Normal
Source:beatmania IIDX 14 GOLD
Tags:Megurine Luka meiguodage Alace reckless rave

[Difficulty]
HPDrainRate:3
CircleSize:4
OverallDifficulty:3
ApproachRate:5
SliderMultiplier:1.3
SliderTickRate:1

[Events]
//Background and Video events
0,0,"mother's 2yu.png"
//Break Periods
2,40705,44120
//Storyboard Layer 0 (Background)
//Storyboard Layer 1 (Fail)
//Storyboard Layer 2 (Pass)
//Storyboard Layer 3 (Foreground)
//Storyboard Sound Samples
//Background Colour Transformations
3,100,163,162,255

[TimingPoints]
506,370.37037037037,4,1,0,50,1,0
3283,-100,4,1,0,10,0,0
3376,-100,4,1,0,50,0,0
27543,-100,4,1,0,50,0,1
28654,-80,4,1,0,50,0,1
29024,-100,4,1,0,50,0,0
45783,-133.333333333333,4,2,0,50,0,0
46339,-133.333333333333,4,1,0,50,0,0
47265,-133.333333333333,4,2,0,50,0,0
47820,-133.333333333333,4,1,0,50,0,0
48746,-133.333333333333,4,2,0,50,0,0
49302,-133.333333333333,4,1,0,50,0,0
50228,-133.333333333333,4,2,0,50,0,0
50783,-133.333333333333,4,1,0,50,0,0
51524,-133.333333333333,4,2,0,50,0,0
52265,-133.333333333333,4,1,0,50,0,0
56154,-133.333333333333,4,2,0,50,0,0
56709,-133.333333333333,4,1,0,50,0,0
57450,-133.333333333333,4,2,0,50,0,0
58191,-133.333333333333,4,1,0,50,0,0
61246,-100,4,1,0,50,0,0
62728,-100,4,1,0,50,0,1
68283,-133.333333333333,4,1,0,10,0,0
68376,-100,4,1,0,50,0,0
68654,-80,4,1,0,50,0,0
93098,-133.333333333333,4,1,0,45,0,0
93468,-133.333333333333,4,1,0,40,0,0
93839,-133.333333333333,4,1,0,30,0,0
94209,-133.333333333333,4,1,0,20,0,0
94580,-133.333333333333,4,1,0,10,0,0

[Colours]
Combo1 : 60,197,39
Combo2 : 243,197,12
Combo3 : 0,128,255

[HitObjects]
256,192,2172,12,0,3283
208,80,3468,6,0,B|96:80,2,97.5,4|0|0
352,160,4394,2,0,B|432:160,2,65
320,240,4950,2,0,B|432:240,2,97.5,4|0|0
176,320,5876,6,0,B|176:256,2,65
96,288,6431,2,0,B|96:192,2,97.5,4|0|0
176,160,7357,6,0,B|241:160,2,65
112,112,7913,2,0,B|112:16,2,97.5,4|0|0
256,64,8839,2,0,B|176:64,2,65
304,128,9394,6,0,B|368:208,2,97.5,4|0|0
208,128,10135,2,0,B|144:208,2,97.5,4|0|0
256,192,10876,12,4,12357
176,176,13839,5,2
128,112,14024,1,2
176,48,14209,2,0,B|304:48,1,130
384,48,14765,1,2
384,48,14950,2,0,B|400:128|384:192,1,130,2|0
304,176,15505,5,2
304,176,15691,2,0,B|288:256|304:320,1,130,2|0
384,304,16246,1,2
464,304,16431,1,2
448,144,16802,5,0
368,144,16987,2,0,B|240:96,1,130,0|2
176,144,17543,2,0,B|32:80,1,130
64,240,18283,5,2
192,320,18654,1,2
352,320,19024,2,0,B|416:320,2,65,0|2|0
464,96,19765,5,0
384,96,19950,2,2,B|240:64,1,130,2|2
224,144,20505,2,0,B|80:112,1,130
64,272,21246,5,2
208,336,21617,1,2
368,336,21987,2,0,B|432:336,2,65,0|2|0
448,208,22728,5,0
400,144,22913,2,2,B|352:80,1,65,2|0
320,32,23283,2,0,B|192:80,1,130
112,96,23839,1,0
96,256,24209,5,2
240,320,24580,1,2
400,304,24950,1,0
400,304,25320,1,0
448,160,25691,5,0
448,160,25876,2,0,B|400:32,1,130,0|2
320,48,26431,2,0,B|368:176,1,130
240,128,27172,2,2,B|112:128,3,130
64,256,28654,6,0,B|240:288,1,162.499997578561,0|2
384,304,29394,6,0,B|448:192,1,130
352,64,30135,2,0,B|416:32,2,65,2|0|2
208,64,30876,1,0
208,64,31061,1,2
208,64,31246,1,0
80,160,31617,6,0,B|208:160,1,130,0|2
192,240,32172,2,0,B|320:240,1,130,0|0
384,288,32728,1,0
416,176,33098,5,2
416,176,33284,1,0
416,176,33469,1,2
288,96,33839,2,0,B|288:32,2,65,0|2|0
128,96,34580,5,0
144,176,34765,2,2,B|176:304,1,130,2|2
256,304,35320,1,0
416,304,35691,1,2
416,144,36061,6,0,B|416:64,2,65,2|0|2
272,80,36802,2,0,B|272:16,2,65,0|2|0
144,176,37543,5,0
192,240,37728,2,2,B|320:240,1,130
352,160,38283,2,0,B|352:80,2,65,0|2|0
208,128,39024,6,0,B|208:64,2,65,2|0|2
48,96,39765,2,0,B|48:32,2,65,0|2|0
48,256,40505,5,4
96,112,45320,6,0,B|176:112,1,70.3124979045243
272,112,45876,6,2,B|240:64,2,48.7499985471368
336,96,46431,2,0,B|400:32,2,73.1249978207052
272,192,47357,6,2,B|208:192,2,48.7499985471368
336,192,47912,2,0,B|400:128,2,73.1249978207052
272,288,48839,6,2,B|224:320,2,48.7499985471368
320,272,49394,2,0,B|400:272,2,73.1249978207052
224,208,50320,6,2,B|224:160,2,48.7499985471368
176,240,50876,2,0,B|96:240,2,73.1249978207052
144,128,51802,6,2,B|144:80,2,48.7499985471368
208,128,52357,2,0,B|208:48,2,73.1249978207052
272,224,53283,5,0
352,304,53654,2,0,B|416:304,1,48.7499985471368
432,192,54209,1,0
432,192,54394,2,0,B|352:112,1,97.4999970942737
272,48,55135,1,0
272,48,55320,6,0,B|192:48,1,73.1249978207052
128,112,55876,1,0
96,208,56246,6,2,B|32:208,2,48.7499985471368
144,240,56802,1,0
224,240,57080,1,0
304,240,57357,1,0
416,192,57728,6,2,B|416:144,2,48.7499985471368
352,176,58284,1,0
272,128,58562,1,0
192,80,58839,1,0
144,192,59209,6,0,B|144:240,1,48.7499985471368
144,304,59580,2,0,B|208:304,1,48.7499985471368
368,304,60135,2,0,B|304:304,1,48.7499985471368
256,208,60691,1,0
256,96,61061,2,0,B|272:32,1,48.7499985471368
112,64,61987,5,0
112,64,62357,1,0
64,128,62728,6,0,B|16:128,2,32.5,8|0|0
64,208,63098,2,0,B|16:208,2,32.5,8|0|0
64,288,63468,2,0,B|16:288,2,32.5,8|0|0
64,368,63839,6,0,B|16:368,3,43.3333333333333,8|0|0|4
256,192,64302,12,0,68283
240,48,68654,6,0,B|240:240,1,162.499997578561,0|2
224,304,69209,2,0,B|128:304,1,81.2499987892807
80,128,69765,5,0
80,128,69950,1,0
80,128,70135,2,0,B|192:128,1,81.2499987892807,2|0
256,128,70505,2,0,B|336:128,1,81.2499987892807,2|0
432,128,70876,2,0,B|480:48,3,81.2499987892807
368,64,71617,5,0
176,16,71987,1,2
0,112,72357,1,0
192,144,72728,5,0
240,336,73098,2,0,B|128:336,1,81.2499987892807,2|0
224,256,73468,2,0,B|304:256,1,81.2499987892807,2|0
352,176,73839,2,0,B|256:176,1,81.2499987892807,0|2
336,96,74209,2,0,B|416:96,1,81.2499987892807,0|2
352,16,74580,5,0
176,112,74950,1,2
320,240,75320,1,2
144,336,75691,1,0
112,144,76061,5,2
144,48,76246,1,0
240,32,76431,2,0,B|320:32,1,81.2499987892807,2|0
304,112,76802,2,0,B|400:112,1,81.2499987892807,0|2
448,176,77172,1,0
304,304,77543,6,0,B|192:304,1,81.2499987892807
272,224,77913,2,0,B|160:224,1,81.2499987892807,2|0
112,160,78283,1,0
112,32,78654,1,0
304,48,79024,6,0,B|384:48,1,81.2499987892807,2|0
320,128,79394,2,0,B|224:160,1,81.2499987892807,2|0
320,208,79765,2,0,B|384:272,1,81.2499987892807,0|2
288,288,80135,2,0,B|240:368,1,81.2499987892807,0|2
176,288,80505,5,0
0,192,80876,1,2
176,96,81246,1,0
352,192,81617,1,0
208,320,81987,6,0,B|144:256,1,81.2499987892807,2|0
240,224,82357,2,0,B|304:144,1,81.2499987892807,2|0
224,96,82728,1,0
224,96,82913,1,2
224,96,83098,1,0
32,144,83468,5,0
32,336,83839,1,2
224,336,84209,1,0
224,144,84580,1,0
416,128,84950,6,0,B|416:304,1,162.499997578561,2|2
224,304,85691,2,0,B|128:304,1,81.2499987892807,0|2
144,208,86061,2,0,B|32:208,1,81.2499987892807,0|2
80,112,86431,5,0
256,48,86802,1,2
432,112,87172,1,0
256,192,87543,1,0
64,256,87913,5,2
256,192,88283,1,2
432,272,88654,1,0
256,336,89024,1,0
128,192,89394,6,0,B|128:80,1,81.2499987892807
192,192,89765,2,0,B|192:288,1,81.2499987892807,2|0
256,192,90135,2,0,B|256:96,1,81.2499987892807
320,192,90505,2,0,B|320:272,1,81.2499987892807
384,192,90876,6,0,B|464:192,3,81.2499987892807,2|0|2|0
400,112,91617,6,0,B|320:64,1,81.2499987892807,0|2
240,128,91987,2,0,B|160:80,1,81.2499987892807,0|2
80,96,92357,5,4
256,192,92450,12,0,94580
