osu file format v9

[General]
AudioFilename: GOLD RUSH.mp3
AudioLeadIn: 0
PreviewTime: 64302
Countdown: 0
SampleSet: Normal
StackLeniency: 0.3
Mode: 0
LetterboxInBreaks: 1

[Editor]
DistanceSpacing: 1.2
BeatDivisor: 4
GridSize: 16

[Metadata]
Title:GOLD RUSH
Artist:DJ YOSHITAKA-G feat. Michael a la mode
Creator:Heatherfield
Version:Another
Source:beatmania IIDX 14 GOLD
Tags:Megurine Luka meiguodage Alace reckless rave

[Difficulty]
HPDrainRate:6
CircleSize:4
OverallDifficulty:7
ApproachRate:8
SliderMultiplier:1.8
SliderTickRate:1

[Events]
//Background and Video events
0,0,"mother's 2yu.png"
//Break Periods
//Storyboard Layer 0 (Background)
//Storyboard Layer 1 (Fail)
//Storyboard Layer 2 (Pass)
//Storyboard Layer 3 (Foreground)
//Storyboard Sound Samples
//Background Colour Transformations
3,100,163,162,255

[TimingPoints]
506,370.37037037037,4,1,0,50,1,0
3283,-100,4,1,0,10,0,0
3376,-100,4,1,0,50,0,0
27543,-100,4,1,0,50,0,1
28654,-80,4,1,0,50,0,1
29024,-100,4,1,0,50,0,0
40505,-133.333333333333,4,1,0,50,0,0
41339,-133.333333333333,4,2,0,50,0,0
41888,-133.333333333333,4,1,0,50,0,0
42820,-133.333333333333,4,2,0,50,0,0
43376,-133.333333333333,4,1,0,50,0,0
44302,-133.333333333333,4,2,0,50,0,0
44857,-133.333333333333,4,1,0,50,0,0
45783,-133.333333333333,4,2,0,50,0,0
46339,-133.333333333333,4,1,0,50,0,0
47265,-133.333333333333,4,2,0,50,0,0
47820,-133.333333333333,4,1,0,50,0,0
48746,-133.333333333333,4,2,0,50,0,0
49302,-133.333333333333,4,1,0,50,0,0
49950,-133.333333333333,4,1,0,40,0,0
50598,-133.333333333333,4,1,0,50,0,0
51524,-133.333333333333,4,2,0,50,0,0
52265,-133.333333333333,4,1,0,50,0,0
56061,-133.333333333333,4,1,0,40,0,0
56709,-133.333333333333,4,1,0,50,0,0
57450,-133.333333333333,4,2,0,50,0,0
58191,-133.333333333333,4,1,0,50,0,0
61246,-100,4,1,0,50,0,0
62728,-100,4,1,0,50,0,1
65505,-133.333333333333,4,1,0,10,0,0
65598,-100,4,1,0,50,0,0
68654,-80,4,1,0,50,0,0
93098,-133.333333333333,4,1,0,45,0,0
93468,-133.333333333333,4,1,0,40,0,0
93839,-133.333333333333,4,1,0,30,0,0
94209,-133.333333333333,4,1,0,20,0,0
94580,-133.333333333333,4,1,0,10,0,0

[Colours]
Combo1 : 60,197,39
Combo2 : 243,197,12
Combo3 : 0,128,255

[HitObjects]
256,192,2172,12,0,3283
112,288,3468,6,0,B|48:256|16:160,2,135,4|0|0
400,96,4394,2,0,B|464:128|496:160,2,90
320,192,4950,1,4
224,288,5228,1,0
96,288,5505,2,0,B|64:176|96:80,1,180,0|0
176,144,6061,1,0
256,96,6246,1,0
336,144,6431,5,4
256,304,6709,1,0
176,144,6987,1,0
368,64,7357,5,0
256,32,7543,1,0
144,64,7728,1,0
96,176,7913,5,4
256,112,8191,1,0
416,176,8468,1,0
368,320,8839,5,0
256,352,9024,1,0
144,320,9209,1,0
96,208,9394,5,4
256,272,9672,1,0
416,192,9950,1,0
480,112,10135,5,4
256,192,10413,1,0
32,112,10691,1,0
192,96,10876,6,0,B|240:16,2,60,0|0|0
128,160,11246,2,0,B|32:176,2,60,0|0|0
208,176,11617,1,0
256,176,11709,1,0
288,208,11802,1,0
320,240,11894,1,0
368,240,11987,1,0
416,256,12110,2,0,B|416:336,2,60,0|0|4
64,64,13839,5,2
128,128,14024,1,2
192,64,14209,1,2
240,64,14302,1,0
352,144,14487,2,2,B|416:144|496:112,1,135,2|2
480,208,14950,1,2
448,240,15043,1,0
384,304,15228,2,2,B|304:272|208:288,1,135
176,240,15691,1,2
144,208,15783,1,0
64,240,15968,6,2,B|32:160|64:80,1,135
144,288,16431,1,0
224,96,16617,1,2
304,288,16802,1,0
384,256,16987,6,0,B|448:176,1,90,0|2
464,144,17265,1,2
400,80,17450,2,0,B|336:48|240:48,1,135
176,64,17913,6,2,B|128:112,1,45,2|2
96,176,18191,2,2,B|112:256|96:320,1,135
192,304,18654,1,2
224,320,18746,1,0
304,272,18931,2,2,B|304:160|240:112,1,135
112,48,19394,1,0
272,144,19580,1,2
112,48,19765,5,0
64,128,19950,2,0,B|80:176|64:240,1,90,0|2
80,256,20228,2,0,B|208:256,1,90,2|0
368,320,20691,1,0
416,240,20876,5,2
432,208,20968,1,0
384,128,21154,2,2,B|288:96|224:96,1,135
160,96,21617,1,2
160,96,21709,1,0
48,192,21894,1,2
160,288,22080,1,0
160,288,22172,1,2
48,192,22357,2,2,B|160:192,1,90,0|0
256,112,22728,5,0
336,192,22913,1,0
256,272,23098,1,2
256,272,23191,1,2
176,192,23376,2,0,B|16:192,1,135
80,112,23839,5,2
96,80,23931,1,0
176,112,24117,2,2,B|256:128|320:112,1,135
400,96,24580,1,2
432,112,24672,1,0
448,208,24857,2,2,B|384:256|288:272,1,135
256,80,25320,1,0
176,256,25505,1,2
96,80,25691,1,0
48,160,25876,6,0,B|16:224|16:272,1,90,0|2
48,272,26154,1,2
128,320,26339,2,0,B|240:336|304:320,1,135
336,272,26802,5,2
368,288,26894,1,0
432,224,27080,2,0,B|480:160|496:64,1,135
400,80,27543,1,2
400,80,27635,1,0
336,144,27820,1,2
272,208,28005,1,2
272,208,28098,1,0
208,272,28283,1,2
208,272,28376,1,0
208,272,28468,1,2
208,272,28561,1,0
208,272,28654,6,0,B|144:192|96:64,1,224.999996647239,0|2
144,32,29117,1,2
208,96,29302,2,0,B|304:112|384:96,1,135
416,48,29765,5,2
432,80,29857,1,0
448,176,30043,2,2,B|432:240|448:288,1,90,0|0
448,304,30320,2,2,B|352:288|320:304,1,90,2|2
320,320,30598,2,0,B|240:336|192:320,1,90,2|2
192,304,30876,5,2
80,192,31061,1,2
192,80,31246,1,0
304,192,31431,1,2
400,144,31617,6,0,B|448:208|448:256,1,90,0|0
400,304,31987,2,2,B|336:288,1,45
288,352,32265,2,0,B|192:352|128:304,1,135
96,256,32728,5,2
112,224,32820,1,0
80,144,33005,2,2,B|16:224|16:304,1,135
80,336,33468,1,2
112,304,33561,2,0,B|160:272|176:224,1,90
336,240,33931,1,2
368,272,34024,2,0,B|416:336|464:336,1,90,2|0
480,256,34394,1,0
464,128,34580,5,0
400,64,34765,1,0
336,128,34950,1,2
336,128,35043,1,2
272,64,35228,2,0,B|208:80|128:64,1,135
80,128,35691,5,2
48,160,35783,1,0
80,240,35968,2,2,B|176:288|240:288,1,135
304,288,36431,6,2,B|368:272,1,45,2|0
432,256,36709,1,2
256,80,36987,5,2
80,192,37172,1,0
256,304,37357,1,2
256,192,37543,6,0,B|336:208|384:192,1,90,0|0
400,128,37913,2,2,B|416:80,1,45
288,96,38191,2,0,B|352:64,1,45
176,64,38468,1,0
64,96,38654,6,0,B|32:144,1,45,2|0
80,288,38931,2,2,B|160:256|256:272,1,135
304,304,39394,1,2
336,336,39487,1,0
400,272,39672,1,2
368,192,39857,1,2
336,192,39950,1,2
304,192,40043,1,0
272,192,40135,1,0
240,192,40228,1,0
208,192,40320,1,2
176,192,40413,1,0
144,192,40505,6,0,B|80:192,1,33.7499989941716,0|0
16,64,40783,1,0
144,64,41061,2,0,B|208:80|304:64,1,134.999995976687,0|2
368,64,41617,1,2
464,64,41802,1,2
464,304,41987,6,0,B|416:304,1,33.7499989941716
336,336,42265,1,0
192,336,42543,2,0,B|96:352|32:320,1,134.999995976687,0|2
160,256,43098,2,2,B|112:240|64:240,1,67.4999979883433
80,80,43468,6,0,B|128:80,1,33.7499989941716
208,64,43746,1,0
352,80,44024,2,0,B|432:64|512:96,1,134.999995976687,0|2
384,160,44580,2,2,B|432:160|464:144,1,67.4999979883433
448,352,44950,6,0,B|368:336|320:352,2,101.249996982515
96,320,45876,5,2
80,304,46061,5,2
96,288,46246,5,2
80,272,46431,6,0,B|64:212|80:160,2,101.249996982515
256,64,47357,5,2
272,80,47543,5,2
256,96,47728,5,2
272,112,47913,6,0,B|287:171|272:224,2,101.249996982515
416,320,48839,5,2
432,304,49024,5,2
416,288,49209,5,2
432,272,49394,6,0,B|447:212|432:160,2,101.249996982515
384,272,50043,2,0,B|352:304,1,33.7499989941716
336,272,50228,2,0,B|304:304,1,33.7499989941716
288,272,50413,2,0,B|256:304,1,33.7499989941716
144,272,50691,1,0
64,192,50876,6,0,B|128:176|192:176,2,101.249996982515
48,96,51617,2,0,B|48:80,4,16.8749994970858,0|0|0|0|2
144,80,51987,2,2,B|224:128,1,67.4999979883433
272,80,52357,2,0,B|416:48,1,134.999995976687
448,208,52913,6,0,B|384:256|304:288,1,134.999995976687
144,320,53654,1,0
80,144,53839,1,0
80,144,54209,1,0
144,320,54394,2,0,B|256:336|304:320,1,134.999995976687
464,96,55135,1,0
464,96,55320,6,0,B|368:16,1,101.249996982515
368,176,55876,2,0,B|272:176,1,67.4999979883433
256,176,56154,2,0,B|224:144,1,33.7499989941716
208,176,56339,2,0,B|176:144,1,33.7499989941716
160,176,56524,2,0,B|128:144,1,33.7499989941716
80,272,56802,5,0
208,336,57080,2,0,B|320:336|336:320,1,101.249996982515
384,272,57543,2,0,B|384:256,4,16.8749994970858,0|0|0|0|2
480,272,57913,2,2,B|464:224|480:176,1,67.4999979883433
448,112,58283,2,0,B|368:128|320:112,1,101.249996982515
208,80,58839,6,0,B|144:144|128:208,1,134.999995976687
464,304,59580,2,0,B|416:352,1,67.4999979883433
48,304,60135,2,0,B|96:352,1,67.4999979883433
48,96,60691,1,0
464,96,61061,1,0
384,144,61246,6,0,B|432:192,2,45
288,144,61617,1,0
192,144,61802,1,0
112,320,61987,6,0,B|48:288,2,45
208,320,62357,1,0
304,320,62543,1,0
400,80,62728,5,8
400,80,62820,1,0
400,80,62913,1,0
112,128,63098,1,8
112,128,63191,1,0
112,128,63283,1,0
400,192,63468,1,8
400,192,63561,1,0
400,192,63654,1,0
176,256,63839,1,12
224,304,63962,1,4
288,304,64086,1,4
336,256,64209,1,4
256,192,64302,12,0,65505
96,144,65691,5,2
192,80,65876,1,2
288,144,66061,1,2
336,144,66154,1,0
416,64,66339,2,2,B|464:128|480:208,1,135
416,288,66802,1,2
416,288,66894,1,0
416,288,67080,2,2,B|336:272|240:304,1,135
282,292,67543,1,2
282,292,67635,1,0
282,292,67820,6,2,B|192:304|144:272,1,135
64,192,68283,1,2
112,80,68468,1,2
224,80,68654,1,0
256,192,68839,1,2
352,256,69024,5,2
400,272,69117,1,2
464,176,69302,2,0,B|416:96|320:48,1,168.749997485429
256,128,69765,5,2
256,128,69857,1,0
144,112,70043,2,2,B|144:160|144:240,1,112.499998323619,2|0
96,256,70320,2,2,B|96:192|96:128,1,112.499998323619,2|0
48,176,70598,2,2,B|48:304,1,112.499998323619
256,288,71061,5,2
432,192,71246,1,0
256,96,71431,1,2
256,192,71617,6,0,B|192:208|128:192,1,112.499998323619,0|0
112,80,71987,1,2
112,80,72080,2,0,B|224:80,1,112.499998323619,2|0
256,96,72357,2,0,B|368:96,1,112.499998323619
448,176,72728,5,2
480,192,72820,1,0
448,304,73005,2,2,B|336:288|256:304,1,168.749997485429
176,336,73468,1,2
176,336,73561,1,0
80,272,73746,1,0
80,272,73839,1,2
80,272,73931,1,0
80,272,74024,1,2
80,160,74209,2,2,B|64:80|96:0,1,112.499998323619,0|0
176,208,74580,6,0,B|240:176|288:96,1,112.499998323619,0|0
336,48,74950,1,2
368,80,75043,1,2
416,176,75228,2,0,B|384:256|400:352,1,168.749997485429
288,336,75691,6,0,B|320:288,1,56.2499991618097,2|0
208,304,75968,2,0,B|128:288|16:320,1,168.749997485429
48,208,76431,2,0,B|96:256,1,56.2499991618097,2|0
128,352,76709,1,2
160,192,76987,5,2
256,32,77172,1,0
352,192,77357,1,2
256,192,77543,6,0,B|256:320,1,112.499998323619,0|0
368,320,77913,1,2
368,320,78006,2,0,B|448:240,1,112.499998323619,2|0
432,192,78283,2,0,B|448:96,1,56.2499991618097
480,96,78468,2,0,B|352:80,1,112.499998323619,0|0
320,96,78746,5,0
176,64,78931,2,2,B|192:160|160:256,1,168.749997485429
80,288,79394,1,2
80,288,79487,1,0
32,192,79672,1,0
32,192,79765,1,2
32,192,79857,1,0
32,192,79950,1,2
64,80,80135,2,2,B|160:32|208:32,1,112.499998323619,0|0
368,112,80506,6,0,B|288:160|240:160,1,112.499998323619,0|0
160,160,80876,1,2
160,160,80968,1,2
272,112,81154,2,0,B|160:64|96:64,1,168.749997485429
80,176,81617,6,0,B|48:112,1,56.2499991618097,2|0
64,288,81894,2,2,B|144:304|240:288,1,168.749997485429
352,272,82357,2,0,B|288:224,1,56.2499991618097,2|0
288,352,82635,1,2
144,192,82913,5,2
368,192,83098,1,0
144,192,83283,1,2
256,144,83468,6,0,B|272:76|320:32,1,112.499998323619,0|0
416,64,83839,1,2
416,64,83931,1,2
448,176,84117,2,0,B|480:256|464:352,1,168.749997485429
352,336,84580,5,2
304,304,84672,1,0
192,336,84857,2,2,B|96:352|0:320,1,168.749997485429
48,224,85320,2,0,B|16:176,1,56.2499991618097,2|0
96,96,85598,2,0,B|48:32,1,56.2499991618097,0|2
112,80,85783,2,0,B|192:80,1,56.2499991618097,0|2
272,96,86061,2,2,B|384:96,1,112.499998323619,2|2
416,208,86431,5,0
320,272,86617,2,0,B|192:272,1,112.499998323619,0|2
240,320,86894,2,0,B|128:320,1,112.499998323619,2|0
160,368,87172,2,0,B|47:368,1,112.499998323619
32,256,87543,5,2
32,256,87635,1,0
64,144,87820,2,2,B|128:64|224:32,1,168.749997485429
304,80,88283,2,0,B|368:112,1,56.2499991618097,2|0
304,208,88561,2,0,B|352:240,1,56.2499991618097,0|2
304,224,88746,2,0,B|224:224,1,56.2499991618097,0|2
128,208,89024,2,2,B|0:208,1,112.499998323619,0|0
64,80,89394,5,0
192,96,89580,1,0
320,80,89765,1,2
320,80,89857,1,2
448,96,90043,1,0
448,112,90135,1,0
448,128,90228,1,0
448,144,90320,1,0
448,160,90413,1,0
448,176,90506,1,0
448,192,90598,1,0
320,240,90783,5,2
320,240,90876,1,0
192,256,91061,1,0
64,240,91246,1,2
64,240,91339,1,0
64,240,91431,1,2
64,240,91524,1,0
64,112,91709,2,0,B|176:80,1,112.499998323619,2|2
240,112,91987,2,2,B|384:64,1,112.499998323619,2|0
480,64,92357,5,4
256,192,92450,12,0,94580
