osu file format v7

[General]
AudioFilename: GOLD RUSH.mp3
AudioLeadIn: 0
PreviewTime: 514
Countdown: 1
SampleSet: Normal
StackLeniency: 0.8
Mode: 0
LetterboxInBreaks: 1

[Editor]
DistanceSpacing: 0.899999976158142
BeatDivisor: 4
GridSize: 8

[Metadata]
Title:Gold Rush
Artist:DJ YOSHITAKA-G feat. Michael a La Mode
Creator:Chacha17
Version:Normal
Source:beatmania IIDX 14 GOLD
Tags:kliff linkred2 diamondcrash

[Difficulty]
HPDrainRate:4
CircleSize:3
OverallDifficulty:4
SliderMultiplier:1.1
SliderTickRate:1

[Events]
//Background and Video events
0,0,"hihumi2.jpg"
//Break Periods
2,40713,45119
//Storyboard Layer 0 (Background)
//Storyboard Layer 1 (Fail)
//Storyboard Layer 2 (Pass)
//Storyboard Layer 3 (Foreground)
//Storyboard Sound Samples
//Background Colour Transformations
3,100,163,162,255

[TimingPoints]
514,370.37037037037,4,1,0,100,1,0
39680,-100,4,1,0,80,0,0
52180,-100,4,1,0,80,0,0
80513,-100,4,1,0,100,0,1
90884,-100,4,1,0,80,0,1
92273,-100,4,1,0,0,0,1
94588,-100,4,1,0,0,0,0

[Colours]
Combo1 : 248,251,123
Combo2 : 128,153,255
Combo3 : 199,235,254
Combo4 : 250,124,219

[HitObjects]
56,184,13847,1,8
136,128,14217,2,0,B|184:80|240:136,1,110,0|8
232,232,14958,2,0,B|280:280|336:224,1,110,0|8
328,128,15699,2,0,B|376:80|432:136,1,110,0|8
424,232,16439,2,0,B|424:312,2,55,2|0|6
344,288,17180,5,8
264,232,17551,1,0
184,288,17921,1,0
104,232,18291,6,0,B|24:232,2,55,8|0|0
104,184,18847,2,0,B|176:184,2,55
104,136,19402,2,0,B|32:136,2,55,8|0|0
192,88,20143,5,8
280,136,20513,1,0
368,88,20884,1,8
368,184,21254,2,0,B|368:312,1,110
272,296,21995,2,0,B|144:296,1,110,0|8
104,216,22736,6,0,B|32:216,2,55
152,216,23291,2,0,B|232:216,2,55
256,192,23847,12,4,25328
96,128,25699,6,0,B|224:128,1,110,8|0
304,128,26439,2,0,B|432:128,1,110,0|8
256,192,27180,12,4,28291
56,96,28662,6,0,B|104:48|168:112,1,110,8|0
152,200,29402,2,0,B|200:240|272:184,1,110,0|8
352,192,30143,2,0,B|464:192,1,110,0|0
464,288,30884,1,0
416,288,31069,1,0
368,288,31254,1,8
280,336,31625,6,0,B|280:224,1,110,2|0
192,176,32365,2,0,B|192:296,1,110,2|4
104,336,33106,5,8
72,296,33291,2,0,B|40:272|88:232,1,55,0|8
104,216,33662,2,0,B|128:184|88:152,1,55
200,168,34217,6,0,B|280:168,2,55,0|0|4
256,248,34958,1,0
328,320,35328,1,8
400,248,35699,1,4
400,152,36069,2,0,B|272:152,1,110,8|0
224,224,36810,1,0
152,152,37180,1,0
88,80,37551,6,0,B|136:32|200:88,1,110,8|4
272,120,38291,2,0,B|320:176|384:104,1,110,0|4
384,216,39032,5,8
336,240,39217,1,0
288,256,39402,1,0
240,272,39588,1,0
192,288,39773,2,0,B|192:336,8,27.5
64,192,46439,5,0
64,192,46625,1,4
256,64,47921,5,0
256,64,48106,1,4
448,192,49402,5,0
448,192,49588,1,4
256,320,50884,5,0
256,320,51069,1,4
40,48,52365,5,4
40,144,52736,2,0,B|40:224,1,55,0|2
136,200,53291,1,0
232,200,53662,2,0,B|304:200,1,55,0|2
384,200,54217,6,0,B|456:200,1,55,0|2
384,280,54773,1,2
296,328,55143,1,4
296,328,55328,2,0,B|168:328,1,110,0|0
32,296,56810,5,0
32,200,57180,1,4
88,120,57551,1,8
184,120,57921,1,0
280,120,58291,6,12,B|416:120,1,110,8|4
390,120,58847,1,0
464,192,59217,1,0
392,264,59588,1,0
344,264,59773,2,0,B|296:328|248:256,1,110
104,264,60699,1,2
72,168,61069,1,6
120,168,61254,6,0,B|256:168,1,110,4|0
328,168,61995,1,0
328,168,62180,1,0
328,168,62365,1,4
424,168,62736,5,0
424,168,62921,1,0
424,168,63106,1,4
384,256,63476,5,0
288,288,63847,1,0
240,296,64032,1,0
192,304,64217,2,0,B|72:200|216:112,1,220
256,192,65328,12,4,68291
104,136,68662,5,8
192,88,69032,1,0
280,136,69402,1,0
368,88,69773,1,8
368,184,70143,2,0,B|368:312,1,110
272,296,70884,2,0,B|144:296,1,110,0|8
104,216,71625,6,0,B|32:216,2,55,8|0|0
152,216,72180,2,0,B|232:216,2,55,0|8|0
152,168,72736,1,4
208,88,73106,6,0,B|256:48|320:96,3,110,8|0|0|4
312,184,74588,2,0,B|416:248,1,110,8|0
408,344,75328,2,0,B|288:344,1,110,0|8
200,320,76069,1,0
104,288,76439,1,0
184,232,76810,1,8
88,208,77180,1,4
72,112,77551,5,8
120,88,77736,1,0
168,64,77921,1,4
248,120,78291,1,0
336,72,78662,1,4
256,192,79032,12,12,80513
56,288,80884,5,0
56,288,81069,1,0
56,288,81254,2,0,B|104:336|168:272,1,110,8|0
152,184,81995,2,0,B|200:144|272:200,1,110,0|8
352,192,82736,2,0,B|464:192,1,110,0|8
464,288,83476,5,0
424,312,83662,1,0
384,336,83847,1,8
336,312,84032,1,0
296,288,84217,2,0,B|296:152,1,110,0|4
216,120,84958,5,0
176,96,85144,1,0
136,72,85329,1,8
88,96,85514,1,0
48,120,85699,2,0,B|48:256,1,110,0|4
120,296,86439,6,0,B|184:296,1,55,8|0
176,248,86810,2,0,B|256:248,1,55
232,200,87180,2,0,B|312:200,1,55,8|0
384,192,87736,1,0
432,192,87921,5,8
432,96,88291,2,0,B|384:40|320:112,1,110
336,96,88847,1,0
336,96,89032,1,8
336,96,89217,1,4
192,128,89773,5,4
240,328,90514,1,4
432,272,91254,1,4
368,192,91625,1,0
432,112,91995,1,4
256,192,92365,12,4,95328
