osu file format v12

[General]
AudioFilename: SUPER HERO.mp3
AudioLeadIn: 1996
PreviewTime: 46674
Countdown: 0
SampleSet: Soft
StackLeniency: 0.7
Mode: 0
LetterboxInBreaks: 1
WidescreenStoryboard: 0

[Editor]
Bookmarks: 10507,23841,27507,29174,37341,57341
DistanceSpacing: 0.8
BeatDivisor: 4
GridSize: 8

[Metadata]
Title:SUPER HERO
TitleUnicode:SUPER HERO
Artist:DJ YOSHITAKA feat.Michaela Thurlow
ArtistUnicode:DJ YOSHITAKA feat.Michaela Thurlow
Creator:ouranhshc
Version:Insane
Source:DANCE DANCE REVOLUTION FURU FURU PARTY
Tags:DanceDanceRevolution Hottest Party 2
BeatmapID:269235
BeatmapSetID:101680

[Difficulty]
HPDrainRate:7
CircleSize:4
OverallDifficulty:7
ApproachRate:8
SliderMultiplier:2
SliderTickRate:2

[Events]
//Background and Video events
0,0,"New Super Hero BG.jpg",0,0
//Break Periods
//Storyboard Layer 0 (Background)
//Storyboard Layer 1 (Fail)
//Storyboard Layer 2 (Pass)
//Storyboard Layer 3 (Foreground)
//Storyboard Sound Samples
//Background Colour Transformations
3,100,163,162,255

[TimingPoints]
8,333.333333333333,4,2,1,100,1,0
12257,-100,4,2,2,90,0,0
12424,-100,4,2,1,100,0,0
17591,-100,4,2,2,90,0,0
17757,-100,4,2,1,100,0,0
66257,-100,4,2,2,90,0,0
66424,-100,4,2,1,100,0,0
77341,-100,4,2,1,75,0,0
77674,-100,4,2,1,50,0,0
78007,-100,4,2,1,25,0,0
78341,-100,4,2,1,5,0,0
78507,-100,4,2,1,90,0,0

[Colours]
Combo1 : 254,242,0
Combo2 : 237,0,140
Combo3 : 0,192,245
Combo4 : 255,102,0

[HitObjects]
216,352,8,2,0,P|165:271|216:192,1,200,4|8,0:0|0:0,0:0:0:0:
256,272,507,1,0,0:0:0:0:
296,352,674,2,0,P|347:271|296:192,1,200,0|8,0:0|0:0,0:0:0:0:
256,272,1174,2,0,L|456:272,2,200
256,272,2007,5,0,0:0:0:0:
256,112,2341,1,12,0:0:0:0:
296,352,2674,6,0,P|347:271|296:192,1,200,4|8,0:0|0:0,0:0:0:0:
256,272,3173,1,0,0:0:0:0:
216,352,3340,2,0,P|165:271|216:192,1,200,0|8,0:0|0:0,0:0:0:0:
256,272,3840,2,0,L|56:272,2,200
256,272,4674,5,0,0:0:0:0:
256,112,5008,1,12,0:0:0:0:
392,24,5341,6,0,P|476:68|472:162,1,200,4|8,0:0|0:0,0:0:0:0:
397,113,5840,1,0,0:0:0:0:
322,64,6007,2,0,P|318:159|402:202,1,200,0|8,0:0|0:0,0:0:0:0:
472,162,6507,2,0,P|476:68|392:24,2,200
397,113,7341,5,0,0:0:0:0:
256,184,7674,1,12,0:0:0:0:
120,24,8007,6,0,P|36:68|40:162,1,200,4|8,0:0|0:0,0:0:0:0:
115,113,8506,1,0,0:0:0:0:
190,64,8673,2,0,P|194:159|110:202,1,200,4|8,0:0|0:0,0:0:0:0:
115,113,9174,1,0,0:0:0:0:
120,24,9341,5,4,0:0:0:0:
120,24,10507,6,0,P|206:82|196:176,1,200,4|0,0:0|0:0,0:0:0:0:
128,208,11007,2,0,P|42:150|52:56,1,200,8|0,0:0|0:0,0:0:0:0:
120,24,11507,2,0,L|224:24,1,100,0|8,0:0|0:0,0:0:0:0:
256,96,11841,2,0,L|456:96,2,200
208,160,12674,2,0,P|193:208|208:256,1,100
305,254,13007,2,0,P|319:208|304:160,1,100,8|0,0:0|0:0,0:0:0:0:
256,96,13341,6,0,L|56:96,1,200,0|8,0:0|0:0,0:0:0:0:
64,176,13841,1,0,0:0:0:0:
0,224,14007,2,0,L|0:328,2,100,0|0|8,0:0|0:0|0:0,0:0:0:0:
0,104,14507,6,0,P|54:25|152:16,1,200,4|0,0:0|0:0,0:0:0:0:
224,48,15007,2,0,P|272:64|320:48,1,100,8|0,0:0|0:0,0:0:0:0:
392,16,15341,1,4,0:0:0:0:
392,16,15507,1,0,0:0:0:0:
392,96,15674,2,0,P|376:144|392:192,1,100,8|0,0:0|0:0,0:0:0:0:
480,144,16007,6,0,P|496:96|480:48,1,100,4|0,0:0|0:0,0:0:0:0:
368,112,16341,2,0,P|352:160|368:208,1,100,8|0,0:0|0:0,0:0:0:0:
482,50,16674,2,0,P|401:-1|309:39,1,200,0|8,0:0|0:0,0:0:0:0:
251,94,17174,2,0,P|161:130|80:79,2,200
304,32,18007,2,0,L|408:32,1,100
376,104,18341,2,0,L|472:144,1,100,8|0,0:0|0:0,0:0:0:0:
408,200,18674,6,0,B|472:256|472:256|472:320|416:352,1,200,4|8,0:0|0:0,0:0:0:0:
376,280,19174,1,0,0:0:0:0:
336,352,19341,6,0,L|232:352,1,100
192,288,19674,1,8,0:0:0:0:
144,352,19841,2,0,P|112:272|192:208,1,200,4|0,0:0|0:0,0:0:0:0:
264,248,20341,5,12,0:0:0:0:
464,328,20674,1,4,0:0:0:0:
424,112,21007,1,12,0:0:0:0:
368,48,21174,6,0,P|352:158|425:197,1,200,4|0,0:0|0:0,0:0:0:0:
488,160,21674,1,4,0:0:0:0:
368,48,22007,1,4,0:0:0:0:
256,16,22174,5,8,0:0:0:0:
256,16,22341,1,8,0:0:0:0:
144,48,22507,6,0,P|160:158|87:197,1,200,4|0,0:0|0:0,0:0:0:0:
24,160,23007,1,4,0:0:0:0:
144,48,23340,1,4,0:0:0:0:
256,16,23507,5,8,0:0:0:0:
256,16,23674,1,8,0:0:0:0:
328,128,23841,6,0,P|352:216|328:320,1,200,4|0,0:0|0:0,0:0:0:0:
184,320,24341,2,0,P|160:216|184:128,1,200,8|0,0:0|0:0,0:0:0:0:
256,88,24841,1,0,0:0:0:0:
328,128,25007,1,8,0:0:0:0:
328,208,25174,6,0,P|255:266|184:208,1,200,4|0,0:0|0:0,0:0:0:0:
184,128,25674,2,0,L|184:24,1,100,8|0,0:0|0:0,0:0:0:0:
328,28,26007,2,0,L|328:128,1,100
256,184,26341,5,8,0:0:0:0:
176,224,26507,2,0,P|256:276|336:224,1,200,4|0,0:0|0:0,0:0:0:0:
336,144,27007,2,0,P|256:92|176:144,1,200,8|0,0:0|0:0,0:0:0:0:
256,184,27507,5,0,0:0:0:0:
330,237,27674,1,8,0:0:0:0:
336,144,27841,1,0,0:0:0:0:
256,184,28007,2,0,P|152:184|112:104,1,200,0|8,0:0|0:0,0:0:0:0:
64,208,28507,2,0,P|32:120|56:16,1,200
256,184,29174,5,0,0:0:0:0:
336,224,29340,2,0,P|256:276|176:224,1,200,4|8,0:0|0:0,0:0:0:0:
176,144,29840,2,0,P|256:92|336:144,1,200
336,224,30341,5,8,0:0:0:0:
256,272,30507,1,0,0:0:0:0:
176,224,30674,2,0,P|152:120|176:32,1,200,0|8,0:0|0:0,0:0:0:0:
336,32,31174,2,0,P|360:120|336:224,1,200
256,272,31674,6,0,L|256:168,1,100,8|0,0:0|0:0,0:0:0:0:
176,144,32007,2,0,P|256:92|336:144,1,200,4|8,0:0|0:0,0:0:0:0:
335,241,32507,2,0,P|256:292|176:240,1,200
256,192,33007,5,8,0:0:0:0:
256,192,33174,1,0,0:0:0:0:
335,142,33341,2,0,P|256:92|176:144,1,200,4|8,0:0|0:0,0:0:0:0:
176,240,33841,2,0,P|256:292|335:241,1,200
256,192,34341,2,0,L|256:88,1,100,8|0,0:0|0:0,0:0:0:0:
312,24,34674,6,0,B|384:24|384:24|448:48|464:120,1,200,4|8,0:0|0:0,0:0:0:0:
416,192,35174,1,0,0:0:0:0:
463,266,35341,2,0,B|448:336|384:360|384:360|312:360,1,200,4|8,0:0|0:0,0:0:0:0:
256,288,35841,1,0,0:0:0:0:
200,360,36007,2,0,B|128:360|128:360|64:336|48:266,1,200,4|12,0:0|0:0,0:0:0:0:
160,128,36674,5,4,0:0:0:0:
256,80,36841,1,4,0:0:0:0:
352,128,37007,2,0,L|352:176,4,25,4|0|0|0|0,0:0|0:0|0:0|0:0|0:0,0:0:0:0:
352,128,37341,5,4,0:0:0:0:
208,288,37674,5,4,0:0:0:0:
424,312,38007,1,8,0:0:0:0:
392,232,38174,1,8,0:0:0:0:
336,304,38341,1,8,0:0:0:0:
424,312,38507,5,4,0:0:0:0:
352,128,38841,1,4,0:0:0:0:
208,288,39174,1,4,0:0:0:0:
296,304,39341,1,0,0:0:0:0:
264,216,39507,1,0,0:0:0:0:
208,288,39674,1,0,0:0:0:0:
56,128,40007,5,4,0:0:0:0:
256,32,40341,1,4,0:0:0:0:
240,248,40674,1,12,0:0:0:0:
168,200,40841,1,8,0:0:0:0:
248,160,41007,1,8,0:0:0:0:
240,248,41174,5,4,0:0:0:0:
56,128,41507,1,4,0:0:0:0:
256,32,41840,5,4,0:0:0:0:
296,112,42007,1,0,0:0:0:0:
216,152,42174,1,0,0:0:0:0:
176,72,42341,1,0,0:0:0:0:
256,32,42507,6,0,P|360:48|384:128,1,200,4|0,0:0|0:0,0:0:0:0:
296,112,43007,1,8,0:0:0:0:
336,192,43174,2,0,P|280:200|240:184,1,100
168,136,43507,1,0,0:0:0:0:
160,224,43674,2,0,P|112:240|80:280,1,100,8|0,0:0|0:0,0:0:0:0:
144,368,44007,6,0,P|192:352|224:312,1,100,4|0,0:0|0:0,0:0:0:0:
248,224,44341,1,8,0:0:0:0:
312,288,44507,2,0,P|360:272|408:296,1,100
464,360,44841,1,0,0:0:0:0:
504,272,45007,2,0,P|520:224|512:176,1,100,8|0,0:0|0:0,0:0:0:0:
400,160,45341,6,0,P|368:120|368:72,1,100,4|0,0:0|0:0,0:0:0:0:
272,40,45674,1,8,0:0:0:0:
232,128,45841,2,0,P|192:160|144:168,1,100,4|0,0:0|0:0,0:0:0:0:
104,264,46174,1,0,0:0:0:0:
32,192,46341,2,0,P|8:152|8:96,1,100,12|0,0:0|0:0,0:0:0:0:
256,192,46674,12,0,47674,0:0:0:0:
296,336,48007,6,0,P|351:262|296:184,1,200,4|8,0:0|0:0,0:0:0:0:
216,184,48507,2,0,P|161:262|216:336,1,200
256,259,49007,1,8,0:0:0:0:
296,336,49174,2,0,P|351:262|296:184,1,200
216,184,49674,6,0,L|112:184,1,100,8|0,0:0|0:0,0:0:0:0:
208,64,50007,2,0,P|256:53|304:64,1,100,0|0,0:0|0:0,0:0:0:0:
396,184,50341,2,0,L|296:184,1,100,8|0,0:0|0:0,0:0:0:0:
216,184,50674,6,0,P|161:262|216:336,1,200,4|8,0:0|0:0,0:0:0:0:
296,336,51174,2,0,P|351:262|296:184,1,200
256,261,51674,1,8,0:0:0:0:
296,336,51841,6,0,P|408:352|464:296,1,200,4|0,0:0|0:0,0:0:0:0:
488,216,52341,2,0,P|501:169|488:120,1,100,12|0,0:0|0:0,0:0:0:0:
352,72,52674,2,0,P|339:119|352:168,1,100,4|0,0:0|0:0,0:0:0:0:
488,120,53007,1,12,0:0:0:0:
440,40,53174,1,0,0:0:0:0:
352,72,53341,6,0,P|257:108|193:38,1,200,4|8,0:0|0:0,0:0:0:0:
280,32,53841,2,0,L|240:240,1,200
184,288,54341,1,8,0:0:0:0:
160,208,54507,2,0,P|104:274|160:368,1,200
184,288,55007,1,8,0:0:0:0:
240,232,55174,2,0,L|448:232,1,200
488,312,55674,2,0,L|384:312,1,100,8|0,0:0|0:0,0:0:0:0:
304,312,56007,6,0,P|240:224|264:136,1,200,4|8,0:0|0:0,0:0:0:0:
336,176,56507,1,0,0:0:0:0:
336,96,56674,2,0,P|387:117|416:168,1,100
336,176,57007,1,8,0:0:0:0:
400,224,57174,2,0,P|328:256|256:176,1,200,4|0,0:0|0:0,0:0:0:0:
248,96,57674,6,0,P|240:48|216:0,1,100,12|0,0:0|0:0,0:0:0:0:
176,136,58007,2,0,P|152:96|112:56,1,100,4|0,0:0|0:0,0:0:0:0:
120,192,58341,2,0,P|80:160|32:144,1,100,12|0,0:0|0:0,0:0:0:0:
40,272,58674,6,0,P|88:344|192:336,1,200,4|8,0:0|0:0,0:0:0:0:
224,264,59174,2,0,P|176:192|72:200,1,200
134,268,59674,1,8,0:0:0:0:
192,336,59841,2,0,L|408:336,1,200
472,352,60341,6,0,P|512:320|520:272,1,100,8|0,0:0|0:0,0:0:0:0:
416,208,60674,2,0,P|376:240|368:288,1,100
496,208,61007,2,0,P|480:160|432:128,1,100,8|0,0:0|0:0,0:0:0:0:
344,176,61341,6,0,P|360:264|464:272,1,200,4|8,0:0|0:0,0:0:0:0:
416,208,61841,2,0,P|400:120|296:112,1,200
264,176,62341,1,8,0:0:0:0:
344,176,62507,2,0,L|488:32,1,200,4|0,0:0|0:0,0:0:0:0:
352,16,63007,6,0,L|280:88,1,100,12|0,0:0|0:0,0:0:0:0:
296,224,63341,2,0,L|368:152,1,100,4|0,0:0|0:0,0:0:0:0:
224,144,63674,2,0,L|152:216,1,100,12|0,0:0|0:0,0:0:0:0:
80,152,64007,6,0,P|72:264|144:312,1,200,4|8,0:0|0:0,0:0:0:0:
224,280,64507,2,0,P|232:168|160:120,1,200
80,152,65007,1,8,0:0:0:0:
153,215,65174,2,0,P|251:197|352:240,1,200
400,288,65674,1,8,0:0:0:0:
416,208,65841,2,0,P|480:272|440:360,2,200
336,232,66674,5,4,0:0:0:0:
128,304,67007,1,12,0:0:0:0:
168,88,67341,1,4,0:0:0:0:
228,140,67507,1,0,0:0:0:0:
154,166,67674,1,8,0:0:0:0:
168,88,67841,6,0,P|280:80|304:152,1,200,4|0,0:0|0:0,0:0:0:0:
256,216,68341,1,12,0:0:0:0:
96,224,68674,1,4,0:0:0:0:
228,140,69007,5,0,0:0:0:0:
304,152,69174,2,0,P|336:232|256:296,1,200,4|0,0:0|0:0,0:0:0:0:
256,216,69674,2,0,L|448:272,1,200,4|4,0:0|0:0,0:0:0:0:
280,296,70341,5,0,0:0:0:0:
208,280,70507,2,0,P|176:200|256:136,1,200,4|0,0:0|0:0,0:0:0:0:
256,216,71007,2,0,L|64:160,1,200,4|4,0:0|0:0,0:0:0:0:
304,32,71841,6,0,P|359:107|304:184,1,200,4|0,0:0|0:0,0:0:0:0:
208,184,72341,2,0,P|153:107|208:32,1,200,8|0,0:0|0:0,0:0:0:0:
256,112,72841,1,0,0:0:0:0:
256,240,73007,1,8,0:0:0:0:
344,288,73174,2,0,P|256:328|168:288,1,200,4|0,0:0|0:0,0:0:0:0:
168,192,73674,2,0,P|256:152|344:192,1,200,8|0,0:0|0:0,0:0:0:0:
304,280,74174,1,0,0:0:0:0:
208,280,74341,1,8,0:0:0:0:
176,96,74674,6,0,P|256:45|336:96,1,200,4|0,0:0|0:0,0:0:0:0:
336,176,75174,2,0,P|256:227|176:176,1,200,4|0,0:0|0:0,0:0:0:0:
176,80,75674,6,0,P|256:29|336:80,1,200,4|0,0:0|0:0,0:0:0:0:
336,192,76174,2,0,P|256:243|176:192,1,200,4|0,0:0|0:0,0:0:0:0:
176,64,76674,6,0,P|256:13|336:64,1,200,4|4,0:0|0:0,0:0:0:0:
256,120,77174,1,0,0:0:0:0:
256,192,77341,12,0,78341,0:0:0:0:
256,208,78674,5,4,0:0:0:0:
