osu file format v9

[General]
AudioFilename: DJ YOSHITAKA feat.A; I - CaptivAte~Sabaki~.mp3
AudioLeadIn: 1000
PreviewTime: 56878
Countdown: 0
SampleSet: Soft
StackLeniency: 0.7
Mode: 0
LetterboxInBreaks: 1

[Editor]
DistanceSpacing: 1
BeatDivisor: 4
GridSize: 8

[Metadata]
Title:CaptivAte~Sabaki~
Artist:DJ YOSHITAKA feat.A/I
Creator:Muya
Version:Another
Source:GuitarFreaks & DrumMania V2
Tags:beatmania iidx 14 gold

[Difficulty]
HPDrainRate:6
CircleSize:5
OverallDifficulty:8
ApproachRate:8
SliderMultiplier:1.6
SliderTickRate:1

[Events]
//Background and Video events
0,0,"BG.png"
//Break Periods
//Storyboard Layer 0 (Background)
//Storyboard Layer 1 (Fail)
//Storyboard Layer 2 (Pass)
//Storyboard Layer 3 (Foreground)
//Storyboard Sound Samples
//Background Colour Transformations
3,100,163,162,255

[TimingPoints]
372,333.333333333333,4,2,1,70,1,0
1705,-200,4,2,1,70,0,0
12372,-100,4,1,1,70,0,0
15038,-100,4,2,1,70,0,0
17705,-100,4,1,1,70,0,0
21705,-50,4,1,1,50,0,0
23038,-100,4,1,1,70,0,0
23705,-100,4,1,1,50,0,0
24371,-100,4,1,1,70,0,0
33872,-100,4,1,2,70,0,0
35122,-100,4,1,1,70,0,0
40372,-100,4,1,2,70,0,0
45705,-100,4,2,1,70,0,0
56371,-100,4,1,1,50,0,0
57705,-100,4,1,1,70,0,0
63038,-100,4,1,2,70,0,0
92372,-100,4,2,2,70,0,0
94538,-100,4,1,2,70,0,0
99038,-50,4,1,1,50,0,0
100372,-100,4,1,1,70,0,0
105038,-100,4,2,1,5,0,0

[Colours]
Combo1 : 255,255,255
Combo2 : 83,169,255

[HitObjects]
0,168,1705,1,2
16,248,2038,1,0
72,192,2372,1,2
56,112,2705,1,0
88,272,3038,2,0,B|128:312|192:328|256:296,1,160,2|2
480,376,4372,5,2
408,336,4705,1,0
376,264,5038,1,0
392,184,5371,1,2
480,376,6038,1,2
408,336,6372,1,2
456,136,7038,5,2
432,216,7372,1,0
376,160,7705,1,2
352,240,8039,1,0
304,120,8372,2,0,B|256:96|208:120|208:120|256:160,1,160,2|2
296,368,9705,5,2
216,368,10038,1,0
256,24,10705,1,0
288,96,11038,2,0,B|316:168|256:223|256:223|196:168|224:96,1,280,2|0
184,24,12372,5,4
104,40,12538,1,0
56,104,12705,2,0,B|40:144|56:192,1,80
120,224,13038,1,0
120,224,13205,2,0,B|168:240|192:304|160:368,2,160
72,288,14038,2,0,B|128:312|184:288|240:264|312:288,1,240
376,328,14705,1,0
512,112,15038,5,0
440,144,15705,1,2
368,176,16371,1,2
296,144,17038,2,0,B|136:144|136:144|192:200,1,240,2|0
256,248,17705,5,0
224,320,17871,1,0
152,352,18038,2,0,B|112:360|72:352,1,80
16,296,18371,1,0
16,296,18538,1,0
72,240,18705,1,0
104,216,18788,1,0
144,208,18871,1,0
184,216,18955,1,0
216,240,19038,6,0,B|256:256|296:248,1,80
360,200,19371,1,0
360,200,19455,1,0
360,200,19538,1,0
328,128,19705,1,0
408,144,19871,1,0
376,72,20038,1,0
376,72,20122,1,0
376,72,20205,1,0
296,56,20371,5,0
280,72,20455,1,0
264,88,20538,1,0
248,104,20621,1,0
232,88,20705,1,0
216,72,20788,1,0
200,56,20872,1,0
184,72,20955,1,0
168,88,21038,1,0
152,104,21121,1,0
136,88,21205,1,0
120,72,21288,1,0
104,56,21372,1,0
88,72,21455,1,0
72,88,21538,1,0
56,104,21621,1,0
40,120,21705,6,0,B|8:152,6,40
56,136,22038,2,0,B|40:176,6,40
80,144,22371,2,0,B|80:192,6,40
104,144,22705,2,0,B|120:184,8,40,0|0|0|0|0|0|0|0|4
128,128,23705,6,0,B|168:56|256:40|256:40|272:80|256:120,1,240
216,184,24371,5,4
184,256,24538,2,0,B|176:296|200:344,1,80
264,296,24871,2,0,B|312:280|376:288|408:344,2,160
312,360,25705,1,0
352,288,25871,1,0
304,224,26038,2,0,B|296:184|304:144,1,80
416,80,26371,1,0
416,80,26538,2,0,B|440:160|416:240,1,160
344,272,27038,5,0
312,200,27205,1,0
240,232,27371,2,0,B|160:232,1,80
80,128,27705,2,0,B|128:56|248:16|376:64,2,320
152,160,29205,2,0,B|168:240|152:320,1,160
88,368,29705,6,0,B|48:288|88:208,1,160,4|0
208,256,30205,2,0,B|248:176|208:96,1,160
104,32,30705,1,0
56,96,30871,2,0,B|48:136|56:176,1,80
160,256,31205,1,0
192,184,31371,1,0
224,112,31538,2,0,B|296:72|384:96,2,160
192,184,32371,5,0
72,184,32621,1,0
192,184,32871,1,0
152,256,33038,1,0
272,256,33288,1,0
152,256,33538,1,0
192,328,33705,5,0
264,360,33871,2,0,B|304:384|352:368,1,80,4|0
416,352,34205,1,0
488,312,34371,2,0,B|504:272|488:232,1,80,0|4
424,184,34705,2,0,B|408:144|424:104,1,80,0|4
480,48,35038,6,0,B|424:24|368:48|368:48|344:88,1,160,4|0
384,160,35538,2,0,B|360:200|360:200|304:224|248:200,2,160
312,128,36371,2,0,B|296:208|312:288,1,160
192,336,36871,2,0,B|208:256|192:176,1,160
112,80,37371,1,0
80,152,37538,1,0
112,224,37705,6,0,B|192:304|320:304|400:224,3,320
440,152,39871,1,0
408,80,40038,1,0
336,48,40205,1,0
264,80,40371,5,4
192,120,40538,1,0
120,88,40705,2,0,B|40:88,1,80
80,208,41038,1,0
152,176,41205,2,0,B|224:160|312:176,1,160
360,296,41705,2,0,B|288:312|200:296,1,160
120,288,42205,1,0
56,248,42371,2,0,B|40:208|56:168,1,80
96,176,42621,2,0,B|128:112|96:56,1,120
32,104,43038,5,0
8,224,43288,1,0
96,304,43538,1,0
168,336,43705,2,0,B|232:352|280:312,2,120
96,304,44371,1,0
136,232,44538,1,4
216,208,44705,1,0
296,224,44871,1,0
360,272,45038,1,0
440,264,45205,1,4
496,208,45371,1,0
504,128,45538,1,4
448,64,45705,5,2
376,104,45871,1,0
344,176,46038,1,2
360,256,46205,1,8
416,312,46371,2,0,B|496:312,2,80,10|0|2
336,328,46871,1,0
312,352,46955,1,0
288,376,47038,2,0,B|208:376,1,80,2|8
240,304,47371,2,0,B|160:304,1,80
96,352,47705,5,10
40,240,47871,1,0
88,120,48038,2,0,B|160:80|248:104,2,160,0|2|2
104,200,48871,5,8
168,248,49038,1,10
248,232,49205,1,0
296,168,49371,1,2
280,88,49538,1,0
280,88,49621,1,0
280,88,49705,1,0
208,56,49871,1,8
152,112,50038,6,0,B|136:152|152:192,1,80,2|0
272,240,50371,2,0,B|288:200|272:160,1,80,10|0
192,264,50705,2,0,B|192:344,1,80,0|8
224,352,50955,1,0
256,360,51038,1,14
16,144,51371,5,2
64,80,51538,1,8
96,152,51705,1,10
128,224,51871,1,0
176,160,52038,2,0,B|256:160,1,80,2|0
280,136,52288,1,0
304,112,52371,6,0,B|384:112,1,80,2|8
464,96,52705,1,0
496,168,52871,1,0
408,264,53038,2,0,B|328:264,1,80,10|0
248,248,53372,1,0
216,320,53538,1,0
272,376,53705,5,10
344,344,53871,1,0
376,272,54038,1,2
360,192,54205,1,8
296,144,54371,5,8
176,184,54538,1,0
64,120,54705,1,2
32,48,54871,5,0
32,48,54955,1,0
32,48,55038,1,2
112,56,55205,1,8
144,128,55371,1,0
96,192,55538,1,0
16,184,55705,1,8
16,184,56038,5,8
112,56,56205,1,8
176,200,56371,1,4
480,32,57705,5,4
480,32,57788,1,0
480,32,57872,1,0
432,96,58038,2,0,B|416:136|424:176,1,80
456,248,58372,1,0
416,320,58538,1,0
376,312,58622,1,0
320,256,58788,1,0
280,264,58872,1,0
248,336,59038,5,0
248,336,59122,1,0
248,336,59205,1,0
176,368,59372,2,0,B|136:376|96:360,1,80
48,296,59705,1,0
48,216,59872,1,0
56,176,59955,1,0
8,112,60122,1,0
32,80,60205,1,0
96,32,60372,5,0
96,32,60455,1,0
96,32,60538,1,0
168,64,60705,1,0
240,32,60872,1,0
288,96,61038,1,0
272,176,61205,1,0
264,216,61288,1,0
200,264,61455,1,0
208,304,61538,1,0
264,360,61705,5,0
264,360,61788,1,0
264,360,61872,1,0
328,312,62038,2,0,B|360:296|408:304,1,80
480,336,62372,2,0,B|480:256,1,80
464,240,62622,1,0
448,224,62705,1,0
464,208,62788,1,0
480,192,62872,1,0
464,176,62955,1,0
448,160,63038,5,4
416,88,63205,1,0
376,104,63288,1,0
328,40,63455,1,0
296,40,63538,1,0
264,48,63622,1,0
240,72,63705,2,0,B|224:112|240:152,1,80
264,168,63955,1,0
288,184,64038,2,0,B|304:224|288:264,1,80
336,328,64372,5,0
312,336,64455,1,0
288,344,64538,1,0
264,336,64621,1,0
240,344,64705,1,0
216,352,64788,1,0
144,320,64955,1,0
112,336,65038,1,0
80,264,65205,1,0
40,256,65288,1,0
64,176,65455,1,0
32,152,65538,1,0
88,96,65705,5,4
144,40,65872,1,0
176,48,65955,1,0
200,64,66038,1,0
216,88,66122,1,0
248,160,66288,1,0
288,168,66372,1,0
320,240,66538,1,0
352,248,66622,1,0
384,248,66705,1,0
416,240,66788,1,0
448,224,66872,1,0
496,160,67038,5,0
464,88,67205,1,0
464,88,67288,1,0
464,88,67372,1,0
392,56,67538,1,0
320,88,67705,1,0
288,160,67872,1,0
280,184,67955,1,0
272,208,68038,1,0
248,200,68122,1,0
248,224,68205,1,0
248,248,68288,1,0
224,240,68372,5,4
232,264,68455,1,0
240,288,68538,1,0
192,352,68705,2,0,B|152:368|112:360,1,80
48,312,69038,1,0
112,264,69205,1,0
120,224,69288,1,0
64,168,69455,1,0
56,128,69538,1,0
96,56,69705,5,0
96,56,69788,1,0
96,56,69872,1,0
168,88,70038,2,0,B|208:104|248:96,1,80
328,80,70372,2,0,B|352:120|336:160,1,80
320,184,70622,1,0
312,216,70705,1,0
312,248,70788,1,4
320,280,70872,1,0
368,344,71038,5,4
368,344,71122,1,0
368,344,71205,1,0
440,312,71372,1,0
472,240,71538,1,0
448,168,71705,1,0
376,128,71872,1,0
336,136,71955,1,0
264,104,72122,1,0
240,136,72205,1,0
208,208,72372,5,0
208,208,72455,1,0
208,208,72538,1,4
136,240,72705,1,0
64,208,72872,1,0
32,136,73038,1,0
64,64,73205,1,0
88,80,73288,2,0,B|128:96|168:88,1,80
200,80,73538,1,0
232,80,73622,1,0
264,88,73705,1,4
328,40,73872,5,0
344,64,73955,1,0
352,96,74038,1,0
352,128,74122,2,0,B|336:168|296:184,1,80
256,192,74372,1,0
296,264,74538,1,0
264,288,74622,1,0
336,328,74788,1,0
320,368,74872,1,0
400,384,75038,5,0
432,376,75122,1,0
456,360,75205,1,0
472,336,75288,2,0,B|488:296|472:256,1,80
448,240,75538,1,0
424,224,75621,1,0
400,200,75704,2,0,B|384:160|400:120,1,80
432,96,75955,1,0
400,24,76122,1,0
440,16,76205,1,0
504,64,76372,5,4
488,144,76538,1,0
480,184,76622,1,0
400,168,76788,1,0
416,248,76954,1,0
424,288,77038,1,0
352,320,77205,1,0
344,360,77288,1,0
272,328,77455,1,0
240,352,77539,1,0
168,320,77705,5,0
88,296,77872,1,0
88,296,77955,1,0
88,296,78038,1,0
144,240,78205,1,0
224,264,78372,5,0
112,376,78538,1,0
112,376,78621,1,0
112,376,78704,1,0
64,224,78872,1,0
88,152,79038,5,4
152,104,79205,1,0
232,128,79372,2,0,B|248:168|240:208,1,80
160,304,79705,1,0
96,256,79872,2,0,B|56:216|56:144|88:104,2,160
160,208,80705,1,0
224,256,80872,2,0,B|304:280|384:256,1,160
456,224,81372,1,0
296,24,81705,5,0
328,96,81872,1,0
272,152,82038,2,0,B|232:168|192:160,1,80,4|0
80,104,82372,1,0
160,88,82538,2,0,B|192:128|200:192|160:240,2,160
72,328,83538,2,0,B|144:376|224:344,1,160,4|0
296,304,84038,2,0,B|376:272|448:320,1,160
392,376,84538,5,0
344,312,84705,2,0,B|328:272|336:232,1,80,4|0
440,160,85038,1,0
384,104,85205,2,0,B|304:72|224:104,2,160
264,328,86205,2,0,B|200:376|112:352,1,160
152,280,86705,2,0,B|64:256|0:304,1,160,0|4
32,376,87205,5,0
80,312,87372,2,0,B|96:272|80:232,1,80,0|4
8,128,87705,1,0
80,96,87872,2,0,B|136:80|192:96|224:144,2,160,4|0|0
200,320,88872,2,0,B|272:368|352:344,1,160
424,376,89372,2,0,B|448:344|440:296,1,80
368,272,89705,5,4
296,240,89872,1,0
264,168,90038,1,0
296,96,90205,2,0,B|368:64|456:96,2,160
344,160,91038,1,0
192,368,91372,1,0
136,312,91538,2,0,B|96:232|136:152,1,160
192,104,92038,2,0,B|208:64|192:24,1,80,4|0
120,64,92372,5,0
104,144,93038,1,2
88,224,93705,1,0
72,304,94372,1,2
136,352,94538,1,0
216,344,94705,1,0
264,280,94872,5,0
264,280,94955,1,0
264,280,95038,2,0,B|304:200|264:120,1,160,4|0
216,64,95538,1,0
168,128,95705,1,0
160,208,95872,1,0
208,272,96038,1,0
280,304,96205,1,0
352,264,96372,5,0
400,200,96538,1,0
352,136,96705,1,0
352,136,96788,1,0
352,136,96872,1,0
272,160,97038,1,0
224,96,97204,1,0
272,32,97371,1,0
272,32,97454,1,0
272,32,97538,1,0
352,56,97705,5,0
368,72,97788,1,0
384,88,97872,1,0
400,104,97955,1,0
384,120,98038,1,0
368,136,98122,1,0
352,152,98205,1,0
368,168,98288,1,0
384,184,98372,1,0
400,200,98455,1,0
384,216,98538,1,0
368,232,98622,1,0
352,248,98705,1,0
368,264,98788,1,0
384,280,98872,1,0
400,296,98955,1,0
416,312,99038,6,0,B|448:344,6,40
360,344,99372,2,0,B|368:384,6,40
296,328,99705,2,0,B|288:288,6,40
240,360,100038,2,0,B|208:328,8,40,0|0|0|0|0|0|0|0|4
256,192,100538,12,0,105038
