osu file format v12

[General]
AudioFilename: CaptivAte 123.mp3
AudioLeadIn: 0
PreviewTime: 56330
Countdown: 0
SampleSet: Soft
StackLeniency: 0.5
Mode: 0
LetterboxInBreaks: 1

[Editor]
DistanceSpacing: 1
BeatDivisor: 2
GridSize: 4

[Metadata]
Title:CaptivAte ~Sabaki~
TitleUnicode:
Artist:DJ YOSHITAKA feat.A/I
ArtistUnicode:
Creator:DeeN
Version:Normal
Source:GuitarFreaks & DrumMania
Tags:kara no kyoukai sprosive TW-KUMA01 beatmania IIDX 14Gold
BeatmapID:163041
BeatmapSetID:29694

[Difficulty]
HPDrainRate:3
CircleSize:4
OverallDifficulty:3
ApproachRate:4
SliderMultiplier:0.9
SliderTickRate:1

[Events]
//Background and Video events
0,0,"bg.jpg",0,0
Video,-833,"123.flv"
//Break Periods
2,45280,55761
2,78614,87760
//Storyboard Layer 0 (Background)
//Storyboard Layer 1 (Fail)
//Storyboard Layer 2 (Pass)
//Storyboard Layer 3 (Foreground)
//Storyboard Sound Samples
//Background Colour Transformations
3,100,163,162,255

[TimingPoints]
1081,333.333333333333,4,2,0,55,1,0
11581,-100,4,1,0,59,0,0
13581,-100,4,2,0,82,0,0
16915,-100,4,1,0,58,0,0
23831,-100,4,2,0,78,0,0
33665,-100,4,1,0,49,0,0
34498,-100,4,2,0,81,0,0
39665,-100,4,2,0,76,0,0
44165,-100,4,1,0,32,0,0
56748,-100,4,1,0,53,0,0
96914,-100,4,1,0,30,0,0
97580,-100,4,1,0,40,0,0
98247,-100,4,1,0,50,0,0
98914,-100,4,1,0,60,0,0
101081,-100,4,2,0,53,0,0
102415,-100,4,2,0,34,0,0
103748,-100,4,2,0,5,0,0

[Colours]
Combo1 : 198,104,106
Combo2 : 242,189,242
Combo3 : 184,148,243

[HitObjects]
96,112,11747,1,0,0:0:0:0:
192,112,12081,1,0,0:0:0:0:
144,192,12414,2,0,B|144:344,2,135
392,304,14414,5,0,0:0:0:0:
420,128,15081,1,2,0:0:0:0:
256,56,15747,1,2,0:0:0:0:
92,128,16414,1,2,0:0:0:0:
208,272,17081,5,0,0:0:0:0:
304,272,17414,1,0,0:0:0:0:
256,192,17747,2,0,B|256:48,2,135
256,372,19414,5,0,0:0:0:0:
256,372,19747,1,0,0:0:0:0:
256,192,20080,12,4,22414,0:0:0:0:
32,64,23747,6,0,B|224:64,1,180,0|2,0:0|0:0,0:0:0:0:
88,200,25080,2,0,B|280:200,1,180,0|2,0:0|0:0,0:0:0:0:
416,304,26414,2,0,B|224:304,1,180,0|2,0:0|0:0,0:0:0:0:
64,256,27747,1,2,0:0:0:0:
128,88,28414,1,2,0:0:0:0:
256,192,29080,12,2,30914,0:0:0:0:
176,224,31747,5,0,0:0:0:0:
176,224,32080,2,0,B|176:128,1,90,2|0,0:0|0:0,0:0:0:0:
240,64,32747,2,0,B|336:64,1,90,2|0,0:0|0:0,0:0:0:0:
412,104,33414,1,2,0:0:0:0:
492,64,33747,1,0,0:0:0:0:
352,160,34414,5,4,0:0:0:0:
176,128,35080,1,2,0:0:0:0:
128,304,35747,1,0,0:0:0:0:
304,336,36414,1,2,0:0:0:0:
352,160,37080,1,0,0:0:0:0:
216,280,37747,6,0,B|192:208|108:196|108:196|104:156|104:156,2,180,2|0|0,0:0|0:0|0:0,0:0:0:0:
256,104,39747,1,4,0:0:0:0:
256,192,39914,12,0,42414,0:0:0:0:
256,188,43747,6,0,B|256:132,1,45,0|4,0:0|0:0,0:0:0:0:
256,280,44414,6,0,B|256:348,4,45,0|0|0|0|4,0:0|0:0|0:0|0:0|0:0,0:0:0:0:
256,96,57081,5,4,0:0:0:0:
256,352,58081,1,8,0:0:0:0:
345,364,58414,1,0,0:0:0:0:
440,352,58747,1,8,0:0:0:0:
432,176,59414,1,8,0:0:0:0:
344,176,59747,6,2,B|200:176,1,135
88,240,60747,1,0,0:0:0:0:
168,288,61081,2,2,B|312:288,1,135
424,224,62081,1,0,0:0:0:0:
344,184,62414,5,4,0:0:0:0:
264,224,62747,2,0,B|264:320,1,90,8|0,0:0|0:0,0:0:0:0:
176,320,63414,2,0,B|80:320,1,90,8|0,0:0|0:0,0:0:0:0:
88,232,64081,2,0,B|88:136,1,90,8|0,0:0|0:0,0:0:0:0:
176,144,64747,2,8,B|272:144,1,90,8|4,0:0|0:0,0:0:0:0:
384,232,65581,5,8,0:0:0:0:
248,232,66081,1,0,0:0:0:0:
172,280,66414,2,0,B|128:252|120:196,2,90
192,192,67414,5,0,0:0:0:0:
256,128,67747,1,4,0:0:0:0:
344,120,68081,1,8,0:0:0:0:
428,300,68747,1,8,0:0:0:0:
248,300,69414,1,8,0:0:0:0:
320,136,70081,1,8,0:0:0:0:
288,220,70414,6,0,B|384:220,1,90,2|0,0:0|0:0,0:0:0:0:
464,200,71081,2,0,B|464:104,1,90,2|0,0:0|0:0,0:0:0:0:
376,100,71747,2,0,B|280:100,1,90,2|0,0:0|0:0,0:0:0:0:
200,120,72414,2,0,B|200:216,1,90,2|0,0:0|0:0,0:0:0:0:
288,224,73081,5,4,0:0:0:0:
296,88,73581,2,0,B|336:60|400:104|440:76,1,135,2|0,0:0|0:0,0:0:0:0:
400,168,74414,1,0,0:0:0:0:
352,292,74914,2,0,B|312:264|248:308|208:280,1,135,2|0,0:0|0:0,0:0:0:0:
252,200,75747,5,4,0:0:0:0:
200,76,76247,1,2,0:0:0:0:
336,76,76747,1,4,0:0:0:0:
420,104,77081,2,0,B|408:152|360:180|296:156,2,135
480,172,78414,1,4,0:0:0:0:
176,160,89080,5,0,0:0:0:0:
176,256,89414,2,0,B|267:299|361:252,1,180,8|8,0:0|0:0,0:0:0:0:
352,160,90414,1,0,0:0:0:0:
352,64,90747,2,0,B|261:21|167:68,1,180,8|8,0:0|0:0,0:0:0:0:
176,160,91747,6,2,B|267:192|368:160,1,180
368,256,92747,1,0,0:0:0:0:
292,304,93080,2,0,B|192:304,1,90,2|0,0:0|0:0,0:0:0:0:
244,224,93747,2,0,B|244:128,1,90,2|0,0:0|0:0,0:0:0:0:
160,96,94414,5,4,0:0:0:0:
64,248,95080,1,0,0:0:0:0:
224,336,95747,1,4,0:0:0:0:
320,184,96414,1,0,0:0:0:0:
148,236,97080,6,2,B|120:192|148:140,1,90,2|2,0:0|0:0,0:0:0:0:
224,192,97747,2,2,B|328:192,1,90
396,156,98414,2,2,B|424:200|396:252,1,90
320,280,99080,2,2,B|212:280,1,90
276,356,99747,1,4,0:0:0:0:
256,192,99914,12,0,103914,0:0:0:0:
