osu file format v9

[General]
AudioFilename: CaptivAte 123.mp3
AudioLeadIn: 1500
PreviewTime: 56330
Countdown: 0
SampleSet: Soft
StackLeniency: 0.5
Mode: 1
LetterboxInBreaks: 0

[Editor]
DistanceSpacing: 1.2
BeatDivisor: 4
GridSize: 16

[Metadata]
Title:CaptivAte ~Sabaki~
Artist:DJ YOSHITAKA feat.A/I
Creator:DeeN
Version:KumaTaiko
Source:GuitarFreaks & DrumMania
Tags:kara no kyoukai sprosive TW-KUMA01 beatmania IIDX 14Gold

[Difficulty]
HPDrainRate:6
CircleSize:5
OverallDifficulty:5
ApproachRate:5
SliderMultiplier:1.4
SliderTickRate:2

[Events]
//Background and Video events
0,0,"tbg.jpg"
Video,0,"123.flv"
//Break Periods
//Storyboard Layer 0 (Background)
//Storyboard Layer 1 (Fail)
//Storyboard Layer 2 (Pass)
//Storyboard Layer 3 (Foreground)
//Storyboard Sound Samples
//Background Colour Transformations
3,100,163,162,255

[TimingPoints]
1081,333.333333333333,4,2,0,55,1,0
11748,-100,4,1,0,75,0,0
17080,-100,4,1,0,75,0,1
21414,-100,4,2,0,55,0,1
22414,-100,4,1,0,75,0,1
23747,-100,4,1,0,75,0,0
45081,-133.333333333333,4,1,0,75,0,0
54081,-133.333333333333,4,1,0,75,0,0
55747,-66.6666666666667,4,1,0,75,0,0
57080,-100,4,1,0,75,0,0
97080,-100,4,1,0,75,0,1
99414,-100,4,2,0,55,0,1
99747,-100,4,1,0,75,0,0

[HitObjects]
272,256,1081,1,0
272,256,1747,5,8
80,176,2414,5,0
272,256,2914,1,0
144,224,3414,1,0
208,128,3747,5,8
208,128,4080,5,0
208,128,4414,1,0
224,208,4747,5,8
64,256,5414,1,8
96,176,5747,5,0
192,64,6414,1,0
288,272,6747,1,0
288,272,7080,5,8
288,272,7414,5,0
288,272,7747,1,0
304,336,8247,1,0
208,256,8747,1,0
144,208,9080,1,8
64,176,9580,5,8
96,112,10080,5,8
304,304,10414,5,0
128,160,11747,5,4
80,128,11914,1,0
64,160,12080,5,8
64,160,12247,5,0
272,208,12580,1,0
224,128,12914,1,0
224,128,13080,5,8
128,112,13247,5,0
128,112,13414,1,0
112,176,13747,5,8
208,224,14080,5,0
304,288,14414,1,0
176,32,15080,5,8
272,208,15747,5,0
208,224,16414,5,8
208,144,17080,5,4
64,128,17248,1,0
64,128,17330,1,0
64,128,17414,5,8
64,128,17580,5,0
128,208,17914,5,0
128,208,18080,5,8
304,304,18414,1,0
304,304,18580,1,0
224,176,18748,5,8
272,112,18830,1,8
272,112,18914,1,8
256,256,19080,1,8
192,224,19247,1,8
256,224,19415,1,8
256,224,19497,1,8
256,224,19580,1,8
64,160,19748,5,0
64,160,19830,1,0
144,48,19915,5,8
144,48,19997,1,8
144,48,20081,1,8
144,48,20164,1,8
192,160,20248,1,0
192,160,20330,1,0
192,160,20415,5,8
272,112,20497,1,8
272,112,20581,5,8
272,112,20664,1,8
272,112,20747,1,0
256,256,20914,1,8
256,256,21081,1,8
352,32,21164,1,8
96,96,21247,1,8
112,160,21414,2,0,B|512:336|512:336,1,420
240,144,23747,5,0
288,224,23914,1,0
288,224,23997,1,0
288,224,24081,5,8
304,304,24247,5,0
144,240,24581,1,0
224,272,24747,5,8
288,320,24914,5,0
224,160,25247,1,0
240,240,25414,5,8
224,160,25581,1,8
224,208,25664,1,8
224,160,25747,5,0
288,224,25914,1,0
288,224,26081,5,8
288,224,26247,1,8
288,320,26414,5,0
288,320,26581,5,8
288,320,26664,1,8
288,320,26747,1,8
288,320,26914,5,0
240,256,27081,5,8
272,288,27164,1,8
272,288,27248,1,8
272,288,27330,1,8
272,288,27414,5,0
224,224,27581,5,8
288,64,27747,5,0
208,80,27914,1,0
64,160,28247,1,0
416,240,28414,1,0
336,208,28580,5,8
288,192,28664,1,8
240,192,28747,5,0
288,272,28914,1,0
208,288,29081,1,4
144,224,29247,1,0
144,144,29414,5,8
208,192,29581,5,0
336,288,29914,1,0
176,320,30247,5,8
336,256,30581,5,0
288,320,30914,5,8
256,240,31247,5,0
224,160,31414,5,8
80,64,31747,5,0
64,144,31915,1,0
144,160,31997,1,0
256,240,32081,1,0
256,240,32247,1,0
320,176,32414,5,8
256,224,32580,5,0
224,256,32664,1,0
192,176,32747,1,0
192,272,32914,1,0
112,272,33081,1,0
144,112,33247,1,0
144,112,33581,1,0
96,176,33747,5,8
64,256,33914,1,8
144,240,34081,1,8
224,224,34247,1,8
304,192,34414,5,4
336,352,34581,1,0
320,304,34747,5,8
256,240,34914,5,0
112,160,35247,1,0
32,144,35414,5,8
112,160,35581,5,0
32,144,35747,1,0
112,144,35914,1,0
160,144,36081,5,8
288,160,36247,5,0
128,192,36581,1,0
48,208,36747,5,8
48,208,36914,1,8
48,208,37081,5,0
144,64,37414,5,8
96,128,37581,5,0
176,272,37914,1,0
128,208,38081,5,8
192,272,38247,5,0
48,176,38580,1,0
32,160,38747,5,8
32,160,38914,5,0
192,224,39247,5,8
272,240,39414,1,8
272,240,39580,1,8
272,240,39747,5,4
240,320,39914,1,0
256,240,40080,5,8
224,320,40247,5,0
144,176,40580,1,0
112,96,40747,5,8
176,144,40914,1,8
240,208,41080,5,0
288,272,41248,5,8
320,304,41330,1,8
272,368,41414,1,8
336,336,41580,1,8
352,256,41747,5,0
272,288,41915,5,8
304,272,41997,1,8
304,272,42080,1,8
304,272,42247,1,8
48,192,42414,5,0
176,128,42580,1,0
304,144,42914,1,0
224,160,43080,5,8
112,208,43247,5,0
80,208,43580,1,0
160,240,43747,1,4
144,192,44414,2,0,B|432:192,1,280
288,160,45414,5,8
272,352,45914,1,8
336,240,46247,1,8
336,304,46414,5,0
336,304,46747,5,8
160,224,47247,1,8
144,96,47580,1,8
128,32,47747,5,0
64,144,48080,5,8
256,256,48414,5,0
320,368,48747,1,0
144,176,49414,5,8
256,112,49747,5,0
80,128,49914,5,8
80,128,50247,1,8
64,192,50414,5,0
160,112,50747,1,0
112,160,51080,5,8
112,160,51414,5,0
112,160,51747,1,0
160,240,51914,1,0
144,208,52080,5,8
96,160,52247,5,0
208,224,52580,1,0
256,256,52747,5,8
320,272,52914,5,0
304,336,53080,5,8
336,352,53580,1,12
336,352,54080,1,12
336,352,54414,1,12
128,160,55747,2,0,B|352:128|352:128|256:304|256:304|144:160|128:112,1,629.999981224537
112,160,57080,5,0
64,208,57247,1,0
224,208,57414,5,8
256,256,57581,1,0
144,160,57664,5,0
112,144,57747,5,8
160,176,57914,1,8
208,224,58081,1,8
240,240,58164,1,8
256,256,58247,5,0
304,208,58414,1,0
336,160,58581,5,8
320,192,58664,1,8
320,192,58748,1,8
320,192,58830,1,8
320,192,58914,5,0
272,144,59081,5,8
256,128,59164,1,8
240,112,59248,1,8
224,96,59330,1,8
208,80,59414,5,0
224,208,59580,5,8
144,192,59747,5,0
64,160,59915,1,0
16,160,59997,1,0
48,144,60080,5,8
96,208,60247,5,0
128,288,60414,5,8
192,240,60580,5,0
256,176,60748,1,0
256,176,60830,1,8
256,176,60915,1,0
256,176,60997,1,8
256,176,61080,5,0
128,64,61414,1,8
208,96,61580,5,0
224,256,61914,5,8
224,256,62080,5,0
224,256,62247,1,0
304,256,62414,1,4
304,240,62747,5,8
112,176,62915,1,0
112,176,62997,1,8
112,176,63080,1,8
112,176,63247,1,0
144,96,63414,5,8
112,176,63580,1,8
112,176,63664,1,8
288,176,63747,5,0
112,176,63914,1,0
176,224,64080,1,8
208,128,64248,5,0
112,176,64330,1,0
112,176,64415,1,8
112,176,64497,1,8
352,208,64581,1,0
112,176,64664,1,0
272,160,64747,5,8
192,160,64914,1,8
160,288,65080,5,4
144,208,65247,1,0
144,208,65414,5,8
224,240,65580,5,0
256,272,65664,5,8
288,240,65748,1,0
256,272,65830,1,8
256,272,65914,5,0
256,272,66080,5,8
272,192,66248,5,0
272,240,66330,1,8
192,160,66414,1,0
144,208,66580,1,0
32,144,66914,1,0
96,192,67080,1,8
64,192,67247,1,0
64,192,67580,1,0
64,192,67747,1,4
144,208,67914,1,0
224,224,68080,1,8
144,240,68248,1,0
144,240,68330,1,8
208,288,68414,1,8
240,304,68580,1,0
320,336,68747,1,8
256,288,68915,1,8
224,272,68997,1,8
192,240,69080,1,0
256,288,69247,1,0
176,240,69414,1,8
320,336,69581,1,0
320,336,69664,1,8
352,304,69748,1,0
384,272,69830,1,8
352,304,69914,1,8
272,272,70081,1,8
240,256,70164,1,8
208,240,70247,1,0
176,224,70330,1,8
144,208,70414,1,0
144,208,70580,1,0
176,128,70747,1,8
224,192,70915,1,0
256,224,70997,1,0
272,256,71081,1,8
288,288,71164,1,8
320,320,71247,1,0
176,224,71414,1,8
176,224,71580,1,8
176,224,71748,1,0
320,320,71830,1,0
240,272,71914,1,0
304,320,72080,1,8
384,352,72247,1,0
256,256,72580,1,0
192,192,72747,1,0
192,192,72914,1,0
192,192,73080,1,4
256,256,73247,1,0
320,320,73414,1,8
400,368,73580,1,0
368,352,73664,1,8
304,304,73747,1,8
336,336,73914,1,0
336,336,74080,1,8
336,336,74248,1,8
336,336,74330,1,8
336,336,74414,1,0
352,256,74580,1,0
320,336,74747,1,8
352,256,74915,1,0
336,288,74997,1,0
336,288,75080,1,8
336,288,75164,1,8
336,288,75248,1,0
336,288,75330,1,0
336,288,75414,1,8
336,336,75580,1,8
336,336,75747,1,0
336,336,75914,1,0
336,336,76080,1,8
336,336,76248,1,0
336,336,76330,1,8
336,336,76415,1,8
336,336,76497,1,8
336,336,76580,1,0
256,304,76748,1,8
224,288,76830,1,0
176,272,76915,1,0
208,288,76997,1,0
208,288,77080,1,8
336,336,77247,1,0
336,336,77580,1,8
336,336,77747,1,0
336,336,77914,1,0
336,336,78247,1,0
288,272,78414,1,4
144,192,78747,1,8
336,336,78915,1,0
336,336,78997,1,0
336,336,79081,1,0
336,336,79247,1,0
336,336,79414,1,8
352,352,79581,1,0
336,336,79914,1,0
336,336,80081,1,8
336,336,80247,1,0
336,336,80415,1,8
336,336,80497,1,0
336,336,80581,1,0
336,336,80747,1,8
336,336,80914,1,8
288,256,81081,1,0
336,336,81414,1,8
336,336,81580,1,0
336,336,81664,1,0
320,304,81747,1,0
256,256,81914,1,0
192,192,82081,1,8
192,192,82247,1,0
336,336,82581,1,0
336,336,82747,1,8
368,256,82914,1,4
352,352,83247,1,4
336,336,83414,1,8
336,336,83581,1,8
336,336,83747,1,0
224,224,84081,1,8
272,288,84248,1,0
304,320,84330,1,0
336,352,84414,1,8
320,272,84581,1,0
352,352,84747,1,8
272,304,84914,1,0
128,208,85247,1,0
64,144,85414,1,8
128,208,85580,1,0
96,176,85664,1,0
128,208,85747,1,0
208,256,85914,1,0
288,288,86080,1,8
320,304,86164,1,8
352,336,86248,1,8
320,304,86330,1,8
288,288,86414,1,0
336,352,86581,1,0
336,352,86747,1,8
336,352,87080,1,0
336,352,87164,1,0
336,352,87247,1,0
336,352,87414,1,8
336,352,87581,1,0
336,352,87914,1,0
336,352,88081,1,8
336,352,88247,1,8
336,352,88414,1,0
336,352,88580,1,0
336,352,88664,1,0
336,352,88747,1,0
352,368,88915,1,0
352,368,88997,1,0
352,368,89081,1,0
336,352,89247,1,0
336,352,89414,1,8
352,176,89748,1,0
352,224,89830,1,0
352,272,89914,1,0
336,352,90081,1,8
336,352,90247,1,0
336,352,90581,1,0
336,352,90747,1,8
336,352,90915,1,8
336,352,90997,1,8
336,352,91081,1,8
272,304,91247,1,8
208,240,91414,1,8
144,176,91581,1,8
336,352,91747,1,0
336,352,92081,1,8
336,352,92247,1,0
336,352,92414,1,0
336,352,92747,1,8
336,352,92914,1,0
336,352,93081,1,0
208,240,93414,1,8
144,192,93581,1,0
144,192,93747,1,0
336,352,93914,1,0
336,352,94081,1,8
336,384,94247,1,8
304,304,94414,1,4
272,320,94580,1,0
240,288,94664,1,0
208,256,94747,1,8
160,192,94914,1,0
288,304,95247,1,0
368,352,95414,1,8
336,352,95580,1,0
304,320,95664,1,0
272,288,95747,1,0
240,208,95914,1,0
272,288,96081,1,8
208,240,96248,1,8
176,224,96330,1,8
304,320,96414,1,0
304,320,96581,1,0
240,256,96747,1,8
160,224,96914,1,0
384,336,97080,1,8
352,320,97164,1,8
320,304,97248,1,0
320,304,97330,1,0
320,304,97415,1,8
240,256,97497,1,8
240,256,97580,1,0
240,256,97664,1,0
240,256,97748,1,8
240,256,97830,1,8
240,256,97915,1,0
240,256,97997,1,0
208,224,98080,1,8
176,192,98164,1,8
144,176,98248,1,0
112,160,98330,1,0
80,144,98414,1,8
144,192,98580,1,8
176,208,98664,1,0
176,208,98747,1,8
144,192,98915,1,8
176,192,98970,1,8
208,176,99026,1,8
240,176,99080,1,8
272,160,99137,1,8
304,144,99193,1,8
240,176,99248,1,8
240,176,99304,1,8
272,224,99358,1,8
288,192,99414,1,0
352,224,99581,1,0
416,176,99747,1,12
