osu file format v12

[General]
AudioFilename: CaptivAte 123.mp3
AudioLeadIn: 1500
PreviewTime: 56330
Countdown: 0
SampleSet: Soft
StackLeniency: 0.4
Mode: 0
LetterboxInBreaks: 0

[Editor]
DistanceSpacing: 0.8
BeatDivisor: 4
GridSize: 4

[Metadata]
Title:CaptivAte ~Sabaki~
TitleUnicode:
Artist:DJ YOSHITAKA feat.A/I
ArtistUnicode:
Creator:DeeN
Version:Another
Source:GuitarFreaks & DrumMania
Tags:kara no kyoukai sprosive TW-KUMA01 beatmania IIDX 14Gold
BeatmapID:98420
BeatmapSetID:29694

[Difficulty]
HPDrainRate:7
CircleSize:4
OverallDifficulty:7
ApproachRate:8
SliderMultiplier:1.8
SliderTickRate:1

[Events]
//Background and Video events
0,0,"bg.jpg",0,0
Video,-1217,"123.flv"
//Break Periods
//Storyboard Layer 0 (Background)
//Storyboard Layer 1 (Fail)
//Storyboard Layer 2 (Pass)
//Storyboard Layer 3 (Foreground)
//Storyboard Sound Samples
//Background Colour Transformations
3,100,163,162,255

[TimingPoints]
1081,333.333333333333,4,2,0,60,1,0
11665,-100,4,1,0,60,0,0
11998,-100,4,2,0,60,0,0
12165,-100,4,1,0,60,0,0
12998,-100,4,2,0,60,0,0
13165,-100,4,1,0,60,0,0
13498,-100,4,1,0,60,0,0
13665,-100,4,2,0,60,0,0
13748,-100,4,1,0,60,0,0
13831,-100,4,2,0,60,0,0
16165,-100,4,1,0,60,0,0
16331,-100,4,2,0,60,0,0
16498,-100,4,1,0,60,0,0
18498,-100,4,2,0,60,0,0
18665,-100,4,1,0,60,0,0
18831,-100,4,2,0,60,0,0
19165,-100,4,1,0,60,0,0
19831,-100,4,2,0,60,0,0
19998,-100,4,1,0,60,0,0
20165,-100,4,2,0,60,0,0
20331,-100,4,1,0,60,0,0
20498,-100,4,2,0,60,0,0
20665,-100,4,1,0,60,0,0
20831,-100,4,2,0,60,0,0
20998,-100,4,1,0,60,0,0
21165,-100,4,2,0,60,0,0
21248,-100,4,2,0,60,0,0
21415,-100,4,1,0,60,0,0
21455,-100,4,2,0,60,0,0
22415,-100,4,1,0,60,0,0
23665,-100,4,2,0,60,0,0
28831,-100,4,1,0,60,0,0
29165,-100,4,2,0,60,0,0
31165,-100,4,1,0,60,0,0
31498,-100,4,2,0,60,0,0
32998,-100,4,1,0,30,0,0
33165,-100,4,1,0,40,0,0
33331,-100,4,1,0,50,0,0
33498,-100,4,1,0,60,0,0
33665,-100,4,1,0,70,0,0
34665,-100,4,2,0,60,0,0
39165,-100,4,1,0,60,0,0
39998,-100,4,2,0,60,0,0
40165,-100,4,1,0,60,0,0
40498,-100,4,2,0,60,0,0
42331,-100,4,2,0,60,0,0
42581,-100,4,2,0,50,0,0
42831,-100,4,2,0,40,0,0
42998,-100,4,2,0,40,0,0
43165,-100,4,2,0,50,0,0
43415,-100,4,2,0,60,0,0
43498,-100,4,2,0,60,0,0
43665,-100,4,2,0,60,0,0
44165,-100,4,1,0,60,0,0
45331,-200,4,1,0,40,0,0
53081,-100,4,1,0,40,0,0
54998,-100,4,1,0,20,0,0
55165,-100,4,1,0,30,0,0
55331,-100,4,1,0,40,0,0
55498,-100,4,1,0,50,0,0
55665,-100,4,1,0,60,0,0
55831,-100,4,1,0,60,0,0
83665,-100,4,1,0,60,0,0
88998,-100,4,2,0,60,0,0
91665,-100,4,1,0,60,0,0

[Colours]
Combo1 : 198,104,106
Combo2 : 242,189,242
Combo3 : 184,148,243

[HitObjects]
256,192,1081,1,2,0:0:0:0:
80,224,1414,1,0,0:0:0:0:
288,368,1747,1,0,0:0:0:0:
432,160,2080,1,2,0:0:0:0:
224,16,2414,5,0,0:0:0:0:
144,176,2747,1,2,0:0:0:0:
272,80,3080,1,0,0:0:0:0:
368,208,3414,1,2,0:0:0:0:
240,304,3747,6,0,B|327:362|407:298,1,180,2|0,0:0|0:0,0:0:0:0:
272,80,4414,2,0,B|184:21|104:85,1,180,0|2,0:0|0:0,0:0:0:0:
256,192,5414,6,0,B|256:220,1,22.5,2|0,0:0|0:0,0:0:0:0:
160,336,5747,5,0,0:0:0:0:
352,336,5997,1,2,0:0:0:0:
256,168,6247,1,0,0:0:0:0:
256,296,6414,1,2,0:0:0:0:
112,96,6747,1,0,0:0:0:0:
352,48,7080,1,0,0:0:0:0:
400,288,7414,5,2,0:0:0:0:
112,288,7747,1,0,0:0:0:0:
416,192,8247,1,2,0:0:0:0:
96,192,8747,1,0,0:0:0:0:
432,160,9080,5,2,0:0:0:0:
80,224,9580,1,0,0:0:0:0:
240,32,10080,1,2,0:0:0:0:
272,352,10414,1,2,0:0:0:0:
256,192,11747,5,4,0:0:0:0:
256,64,12081,1,0,0:0:0:0:
256,64,12247,1,0,0:0:0:0:
256,192,12581,1,0,0:0:0:0:
256,64,12914,1,0,0:0:0:0:
256,192,13081,5,0,0:0:0:0:
208,272,13247,1,0,0:0:0:0:
304,272,13414,1,0,0:0:0:0:
432,240,13581,1,4,0:0:0:0:
416,240,13664,1,0,0:0:0:0:
400,240,13747,2,0,B|320:304,1,90,0|2,0:0|0:0,0:0:0:0:
112,240,14081,2,2,B|182:296,1,90,2|2,0:0|0:0,0:0:0:0:
367,156,14414,2,0,B|406:259,1,90,2|2,0:0|0:0,0:0:0:0:
145,156,14747,2,0,B|106:259,1,90,2|2,0:0|0:0,0:0:0:0:
400,336,15081,5,2,0:0:0:0:
112,336,15747,1,0,0:0:0:0:
184,76,16247,1,0,0:0:0:0:
256,112,16414,1,0,0:0:0:0:
328,76,16581,1,0,0:0:0:0:
368,160,16747,1,0,0:0:0:0:
256,192,16914,1,0,0:0:0:0:
144,160,17081,5,4,0:0:0:0:
144,160,17164,1,0,0:0:0:0:
144,160,17247,1,0,0:0:0:0:
128,272,17414,1,0,0:0:0:0:
240,288,17581,1,0,0:0:0:0:
368,224,17747,5,0,0:0:0:0:
368,224,17830,1,0,0:0:0:0:
368,224,17914,1,0,0:0:0:0:
384,112,18080,1,0,0:0:0:0:
272,96,18247,1,0,0:0:0:0:
160,80,18414,6,0,B|112:96|112:160,1,90
208,208,18747,1,0,0:0:0:0:
304,272,18914,1,0,0:0:0:0:
161,278,19080,6,0,B|209:262|209:198,1,90
112,160,19414,1,0,0:0:0:0:
32,96,19580,1,0,0:0:0:0:
339,286,19747,6,0,B|384:272|400:224,1,90
172,97,20080,2,0,B|128:112|112:160,1,90
224,320,20414,2,0,B|224:272,2,45
288,64,20747,2,0,B|288:112,2,45
400,224,21080,5,0,0:0:0:0:
368,224,21164,1,0,0:0:0:0:
336,224,21247,1,0,0:0:0:0:
304,224,21330,1,0,0:0:0:0:
272,224,21414,2,0,B|240:224,7,22.5
232,224,21747,2,0,B|200:224,7,22.5
192,224,22080,2,0,B|160:224,7,22.5
96,224,22414,5,4,0:0:0:0:
272,112,23747,5,6,0:0:0:0:
336,208,23914,1,0,0:0:0:0:
240,272,24080,1,2,0:0:0:0:
176,176,24247,1,2,0:0:0:0:
176,176,24580,1,0,0:0:0:0:
176,176,24914,1,2,0:0:0:0:
272,80,25080,6,0,B|384:80,1,90,2|0,0:0|0:0,0:0:0:0:
208,176,25414,1,2,0:0:0:0:
272,80,25580,1,0,0:0:0:0:
336,176,25747,1,2,0:0:0:0:
336,176,25830,1,0,0:0:0:0:
336,176,25914,1,0,0:0:0:0:
400,80,26080,1,2,0:0:0:0:
464,224,26247,6,0,B|416:240|368:224,1,90,2|0,0:0|0:0,0:0:0:0:
272,80,26580,2,0,B|320:64|368:80,1,90,2|0,0:0|0:0,0:0:0:0:
209,217,26914,2,0,B|161:233|113:217,1,90,2|0,0:0|0:0,0:0:0:0:
32,88,27247,2,0,B|80:72|128:88,1,90,2|0,0:0|0:0,0:0:0:0:
120,220,27580,5,4,0:0:0:0:
56,176,27747,1,0,0:0:0:0:
128,144,27914,1,2,0:0:0:0:
88,260,28080,5,4,0:0:0:0:
60,144,28247,1,4,0:0:0:0:
176,184,28414,1,0,0:0:0:0:
236,284,28580,5,4,0:0:0:0:
152,216,28747,1,4,0:0:0:0:
256,192,28914,5,0,0:0:0:0:
256,192,28997,1,0,0:0:0:0:
256,192,29080,1,4,0:0:0:0:
336,240,29247,1,2,0:0:0:0:
176,240,29414,1,0,0:0:0:0:
255,107,29580,1,2,0:0:0:0:
256,272,29914,5,0,0:0:0:0:
400,192,30247,1,2,0:0:0:0:
400,192,30414,1,0,0:0:0:0:
112,192,30747,1,2,0:0:0:0:
112,192,30914,1,0,0:0:0:0:
256,52,31247,6,0,B|256:116|256:116,2,45
424,140,31580,1,0,0:0:0:0:
256,208,31747,1,4,0:0:0:0:
88,140,31914,1,0,0:0:0:0:
256,48,32080,5,4,0:0:0:0:
256,48,32164,1,0,0:0:0:0:
256,48,32247,2,0,B|256:144,1,90
256,336,32580,1,4,0:0:0:0:
256,336,32664,1,0,0:0:0:0:
256,336,32747,2,0,B|256:240,1,90,0|4,0:0|0:0,0:0:0:0:
192,192,33080,5,0,0:0:0:0:
320,192,33247,1,0,0:0:0:0:
160,144,33414,1,0,0:0:0:0:
352,144,33580,1,0,0:0:0:0:
256,32,33747,1,0,0:0:0:0:
256,48,33830,1,0,0:0:0:0:
256,64,33914,1,0,0:0:0:0:
256,80,33997,1,0,0:0:0:0:
256,96,34080,1,0,0:0:0:0:
160,240,34247,1,0,0:0:0:0:
352,240,34414,1,4,0:0:0:0:
160,240,34747,6,0,B|112:240|64:240,1,90,2|0,0:0|0:0,0:0:0:0:
250,240,35247,2,0,B|160:240,1,90,0|2,0:0|0:0,0:0:0:0:
160,240,35580,1,0,0:0:0:0:
112,160,35747,1,0,0:0:0:0:
64,240,35914,1,0,0:0:0:0:
112,320,36080,1,2,0:0:0:0:
208,320,36247,1,0,0:0:0:0:
208,320,36414,6,0,B|192:272|224:224,1,90
304,64,36747,2,0,B|320:112|288:160,1,90,2|0,0:0|0:0,0:0:0:0:
218,234,37080,2,0,B|170:218|122:250,1,90
294,150,37414,2,0,B|342:166|390:134,1,90,2|0,0:0|0:0,0:0:0:0:
256,100,37747,5,0,0:0:0:0:
164,192,37914,1,0,0:0:0:0:
256,284,38080,1,2,0:0:0:0:
348,192,38247,1,0,0:0:0:0:
256,192,38414,5,4,0:0:0:0:
256,192,38497,1,0,0:0:0:0:
256,192,38580,1,0,0:0:0:0:
160,128,38747,1,0,0:0:0:0:
256,100,38914,1,4,0:0:0:0:
352,128,39080,1,0,0:0:0:0:
256,224,39247,5,0,0:0:0:0:
256,240,39330,1,0,0:0:0:0:
256,256,39414,1,0,0:0:0:0:
304,304,39580,1,0,0:0:0:0:
304,320,39664,1,0,0:0:0:0:
304,336,39747,1,4,0:0:0:0:
368,368,39914,1,0,0:0:0:0:
368,320,40081,1,0,0:0:0:0:
368,272,40247,1,0,0:0:0:0:
429,73,40581,6,0,B|480:73,2,45,8|0|0,0:0|0:0|0:0,0:0:0:0:
320,81,40914,1,0,0:0:0:0:
236,148,41081,1,0,0:0:0:0:
150,79,41247,6,0,B|102:79,2,45,8|0|8,0:0|0:0|0:0,0:0:0:0:
236,148,41581,1,0,0:0:0:0:
152,216,41747,1,0,0:0:0:0:
232,288,41914,6,0,B|284:288,4,45,8|0|0|0|8,0:0|0:0|0:0|0:0|0:0,0:0:0:0:
432,224,42414,5,4,0:0:0:0:
160,96,42664,1,4,0:0:0:0:
192,352,42914,1,4,0:0:0:0:
256,256,43081,5,4,0:0:0:0:
256,32,43331,1,4,0:0:0:0:
400,144,43581,1,4,0:0:0:0:
288,144,43747,5,6,0:0:0:0:
272,144,43831,1,2,0:0:0:0:
256,144,43914,1,2,0:0:0:0:
240,144,43997,1,2,0:0:0:0:
224,144,44081,1,2,0:0:0:0:
96,192,44247,5,0,0:0:0:0:
128,320,44414,1,0,0:0:0:0:
256,288,44581,1,0,0:0:0:0:
224,156,44747,1,0,0:0:0:0:
96,192,44914,5,0,0:0:0:0:
96,192,45081,1,4,0:0:0:0:
132,52,45414,1,8,0:0:0:0:
228,160,45747,1,0,0:0:0:0:
280,28,46081,1,0,0:0:0:0:
368,140,46414,5,8,0:0:0:0:
480,164,46581,1,0,0:0:0:0:
372,208,46747,1,0,0:0:0:0:
436,104,46914,1,0,0:0:0:0:
444,224,47081,2,0,B|424:276|440:324,1,90
240,340,47747,6,0,B|292:344|319:306,1,90,8|0,0:0|0:0,0:0:0:0:
268,104,48247,1,0,0:0:0:0:
268,104,48414,2,0,B|216:100|188:137,1,90
92,240,49081,2,0,B|48:216|40:164,1,90
152,48,49747,6,0,B|216:120,1,90
410,160,50247,1,0,0:0:0:0:
410,160,50414,2,0,B|352:92,1,90,12|0,0:0|0:0,0:0:0:0:
288,272,51081,5,0,0:0:0:0:
128,268,51414,2,0,B|72:268,1,45
176,212,51747,2,0,B|196:168|196:108,1,90,8|0,0:0|0:0,0:0:0:0:
244,72,52247,2,0,B|332:104,1,90,8|0,0:0|0:0,0:0:0:0:
288,164,52747,1,8,0:0:0:0:
368,284,53081,5,8,0:0:0:0:
440,204,53247,1,0,0:0:0:0:
400,104,53414,1,0,0:0:0:0:
292,116,53581,1,0,0:0:0:0:
256,216,53747,1,0,0:0:0:0:
368,284,54081,5,8,0:0:0:0:
144,284,54414,1,8,0:0:0:0:
256,36,55081,5,4,0:0:0:0:
256,108,55247,1,4,0:0:0:0:
256,180,55414,1,4,0:0:0:0:
256,252,55581,1,4,0:0:0:0:
256,324,55747,1,4,0:0:0:0:
148,68,56414,5,0,0:0:0:0:
364,68,56581,1,0,0:0:0:0:
256,256,56747,1,0,0:0:0:0:
256,128,56914,1,0,0:0:0:0:
320,256,57081,2,0,B|368:352,1,90,12|0,0:0|0:0,0:0:0:0:
192,256,57414,2,0,B|144:352,2,90,0|0|8,0:0|0:0|0:0,0:0:0:0:
256,192,57914,1,0,0:0:0:0:
224,96,58081,5,0,0:0:0:0:
256,96,58164,1,0,0:0:0:0:
288,96,58247,1,0,0:0:0:0:
356,180,58414,1,8,0:0:0:0:
256,192,58581,1,0,0:0:0:0:
148,212,58747,1,8,0:0:0:0:
256,232,58914,1,0,0:0:0:0:
392,260,59081,1,8,0:0:0:0:
256,280,59247,1,8,0:0:0:0:
120,320,59414,1,0,0:0:0:0:
168,132,59581,5,8,0:0:0:0:
256,280,59747,1,8,0:0:0:0:
352,192,59914,1,0,0:0:0:0:
352,176,59997,1,0,0:0:0:0:
352,160,60081,1,8,0:0:0:0:
432,256,60247,1,8,0:0:0:0:
432,272,60331,1,0,0:0:0:0:
432,288,60414,1,0,0:0:0:0:
320,304,60581,1,8,0:0:0:0:
320,304,60747,2,0,B|272:288|272:288|240:240|240:240,1,90
336,192,61081,2,0,B|384:224|384:224|384:304|384:304|416:336|416:336,1,180,8|0,0:0|0:0,0:0:0:0:
484,252,61581,2,0,B|448:224|448:224|448:176|448:176,1,90,8|0,0:0|0:0,0:0:0:0:
448,179,61914,5,8,0:0:0:0:
336,192,62081,1,0,0:0:0:0:
276,80,62247,1,8,0:0:0:0:
276,80,62414,6,0,B|366:80,2,90,12|0|0,0:0|0:0|0:0,0:0:0:0:
176,96,62914,1,0,0:0:0:0:
240,176,63081,1,8,0:0:0:0:
276,80,63247,1,0,0:0:0:0:
144,112,63414,6,0,B|64:176,1,90
64,176,63664,1,0,0:0:0:0:
55,184,63747,1,8,0:0:0:0:
192,280,63914,1,0,0:0:0:0:
320,176,64081,1,0,0:0:0:0:
336,192,64164,1,0,0:0:0:0:
352,208,64247,2,0,B|432:288,1,90,0|8,0:0|0:0,0:0:0:0:
304,128,64581,5,0,0:0:0:0:
208,128,64747,1,0,0:0:0:0:
144,192,64914,1,0,0:0:0:0:
208,256,65081,1,12,0:0:0:0:
304,256,65247,1,0,0:0:0:0:
368,320,65414,1,0,0:0:0:0:
304,384,65581,1,8,0:0:0:0:
208,384,65747,2,0,B|112:384,1,90,8|0,0:0|0:0,0:0:0:0:
48,320,66081,1,8,0:0:0:0:
112,256,66247,6,0,B|208:256,1,90,0|2,0:0|0:0,0:0:0:0:
224,256,66497,1,0,0:0:0:0:
288,112,66664,1,0,0:0:0:0:
272,112,66747,1,2,0:0:0:0:
144,192,66914,1,2,0:0:0:0:
160,192,66997,1,0,0:0:0:0:
176,192,67081,1,0,0:0:0:0:
192,192,67164,1,0,0:0:0:0:
208,192,67247,1,0,0:0:0:0:
224,192,67331,1,0,0:0:0:0:
240,192,67414,1,10,0:0:0:0:
320,80,67581,5,0,0:0:0:0:
400,192,67747,1,4,0:0:0:0:
400,192,67914,2,0,B|420:240|400:288,1,90,0|8,0:0|0:0,0:0:0:0:
240,192,68247,1,0,0:0:0:0:
240,192,68414,2,0,B|220:144|240:96,1,90
400,192,68747,5,8,0:0:0:0:
240,192,68914,1,0,0:0:0:0:
368,224,69081,1,0,0:0:0:0:
272,160,69247,1,0,0:0:0:0:
320,224,69414,1,8,0:0:0:0:
320,160,69581,1,0,0:0:0:0:
288,256,69747,1,0,0:0:0:0:
352,128,69914,1,0,0:0:0:0:
252,276,70081,2,0,B|216:276|216:276|152:240|152:240|120:240|120:240,1,135,8|0,0:0|0:0,0:0:0:0:
96,240,70414,5,4,0:0:0:0:
72,112,70581,2,0,B|112:80,1,45,2|0,0:0|0:0,0:0:0:0:
196,60,70831,2,0,B|244:76,1,45,0|0,0:0|0:0,0:0:0:0:
256,192,71081,5,8,0:0:0:0:
256,192,71164,1,0,0:0:0:0:
256,192,71247,1,2,0:0:0:0:
160,144,71414,6,0,B|192:96|240:96,1,90,2|0,0:0|0:0,0:0:0:0:
336,144,71747,2,0,B|368:192|352:240,1,90,8|4,0:0|0:0,0:0:0:0:
256,288,72081,2,0,B|208:288|176:240,1,90,0|0,0:0|0:0,0:0:0:0:
112,176,72414,5,8,0:0:0:0:
272,48,72581,1,0,0:0:0:0:
400,208,72747,1,8,0:0:0:0:
240,336,72914,1,8,0:0:0:0:
240,336,73081,5,4,0:0:0:0:
144,32,73581,1,0,0:0:0:0:
192,352,74081,1,4,0:0:0:0:
192,48,74414,1,0,0:0:0:0:
272,304,74914,1,0,0:0:0:0:
96,48,75414,1,4,0:0:0:0:
288,256,75747,1,4,0:0:0:0:
64,96,76247,1,0,0:0:0:0:
448,96,76747,1,6,0:0:0:0:
304,128,76914,5,2,0:0:0:0:
304,144,76997,1,0,0:0:0:0:
304,160,77081,1,0,0:0:0:0:
208,192,77247,1,2,0:0:0:0:
208,208,77331,1,0,0:0:0:0:
208,224,77414,1,2,0:0:0:0:
304,256,77581,1,0,0:0:0:0:
304,272,77664,1,0,0:0:0:0:
304,288,77747,1,0,0:0:0:0:
304,304,77831,1,0,0:0:0:0:
304,320,77914,1,0,0:0:0:0:
304,336,77997,1,0,0:0:0:0:
304,352,78081,1,2,0:0:0:0:
400,320,78247,5,0,0:0:0:0:
453,225,78414,1,14,0:0:0:0:
376,268,78580,1,0,0:0:0:0:
412,184,78747,1,8,0:0:0:0:
336,232,78914,1,2,0:0:0:0:
372,152,79080,1,8,0:0:0:0:
208,256,79247,2,0,B|112:256,1,90,0|10,0:0|0:0,0:0:0:0:
128,128,79580,2,0,B|176:112|224:128,1,90,0|0,0:0|0:0,0:0:0:0:
384,256,79914,2,0,B|336:272|288:256,1,90,10|0,0:0|0:0,0:0:0:0:
256,192,80247,1,8,0:0:0:0:
256,192,80330,1,0,0:0:0:0:
256,192,80414,1,2,0:0:0:0:
256,80,80580,1,8,0:0:0:0:
256,80,80747,2,0,B|256:176,1,90,10|0,0:0|0:0,0:0:0:0:
212,260,81080,5,10,0:0:0:0:
300,256,81247,1,0,0:0:0:0:
192,260,81414,1,8,0:0:0:0:
320,256,81580,1,6,0:0:0:0:
168,244,81747,2,0,B|192:204|192:204|236:196|236:196,1,90,0|8,0:0|0:0,0:0:0:0:
340,244,82080,2,0,B|316:284|316:284|272:292|272:292,1,90,10|0,0:0|0:0,0:0:0:0:
192,320,82414,5,8,0:0:0:0:
176,304,82497,1,0,0:0:0:0:
160,288,82580,1,2,0:0:0:0:
144,272,82664,1,0,0:0:0:0:
128,256,82747,1,8,0:0:0:0:
32,128,82914,1,10,0:0:0:0:
176,144,83080,1,0,0:0:0:0:
32,128,83247,1,10,0:0:0:0:
136,28,83414,1,0,0:0:0:0:
264,192,83580,5,0,0:0:0:0:
264,192,83664,1,0,0:0:0:0:
264,192,83747,1,14,0:0:0:0:
352,96,83914,5,0,0:0:0:0:
448,192,84080,1,8,0:0:0:0:
352,288,84247,1,2,0:0:0:0:
160,288,84414,2,0,B|64:288,1,90,8|0,0:0|0:0,0:0:0:0:
64,160,84747,2,0,B|160:160,1,90,2|8,0:0|0:0,0:0:0:0:
240,224,85080,2,0,B|128:224,1,90,8|2,0:0|0:0,0:0:0:0:
160,96,85414,1,4,0:0:0:0:
192,88,85497,1,0,0:0:0:0:
224,96,85580,1,8,0:0:0:0:
256,104,85664,1,0,0:0:0:0:
288,96,85747,1,10,0:0:0:0:
320,88,85830,1,0,0:0:0:0:
352,96,85914,1,0,0:0:0:0:
176,232,86080,1,10,0:0:0:0:
336,232,86247,1,8,0:0:0:0:
112,160,86414,6,0,B|208:160,1,90,14|0,0:0|0:0,0:0:0:0:
400,160,86747,2,0,B|304:160,1,90,8|2,0:0|0:0,0:0:0:0:
310,160,86997,1,6,0:0:0:0:
310,160,87080,1,8,0:0:0:0:
192,224,87247,1,8,0:0:0:0:
320,224,87414,1,2,0:0:0:0:
256,304,87580,1,8,0:0:0:0:
256,128,87747,1,2,0:0:0:0:
272,128,87830,1,0,0:0:0:0:
288,128,87914,1,8,0:0:0:0:
368,192,88080,1,2,0:0:0:0:
352,192,88164,1,0,0:0:0:0:
336,192,88247,1,8,0:0:0:0:
272,288,88414,1,2,0:0:0:0:
288,288,88497,1,0,0:0:0:0:
304,288,88580,1,8,0:0:0:0:
320,288,88664,1,0,0:0:0:0:
336,288,88747,2,0,B|432:288,1,90,2|8,0:0|0:0,0:0:0:0:
432,176,89080,5,8,0:0:0:0:
304,176,89247,1,4,0:0:0:0:
176,176,89414,1,0,0:0:0:0:
48,176,89580,1,4,0:0:0:0:
48,176,89914,5,0,0:0:0:0:
96,224,90247,1,0,0:0:0:0:
160,224,90580,5,4,0:0:0:0:
96,128,90747,1,0,0:0:0:0:
192,64,90914,1,4,0:0:0:0:
192,64,91247,5,0,0:0:0:0:
320,64,91414,1,4,0:0:0:0:
256,272,91747,5,8,0:0:0:0:
180,224,91914,1,0,0:0:0:0:
144,144,92080,1,0,0:0:0:0:
180,224,92247,5,8,0:0:0:0:
256,144,92414,1,0,0:0:0:0:
336,224,92580,1,0,0:0:0:0:
256,144,92747,5,8,0:0:0:0:
352,64,92914,1,0,0:0:0:0:
448,144,93080,1,0,0:0:0:0:
356,228,93247,1,4,0:0:0:0:
128,163,93414,6,0,B|128:160|128:208|128:208|160:240,1,90,8|0,0:0|0:0,0:0:0:0:
284,64,93747,2,0,B|288:64|240:64|240:64|208:96,1,90,8|0,0:0|0:0,0:0:0:0:
384,220,94080,2,0,B|384:224|384:176|384:176|352:144,1,90,8|0,0:0|0:0,0:0:0:0:
227,320,94414,2,0,B|224:320|272:320|272:320|304:288,1,90,12|0,0:0|0:0,0:0:0:0:
224,192,94747,5,8,0:0:0:0:
208,320,94914,1,0,0:0:0:0:
192,320,94997,1,0,0:0:0:0:
176,320,95080,1,0,0:0:0:0:
80,192,95247,5,8,0:0:0:0:
192,64,95414,1,0,0:0:0:0:
208,64,95497,1,0,0:0:0:0:
224,64,95580,1,0,0:0:0:0:
336,128,95747,5,8,0:0:0:0:
224,192,95914,1,0,0:0:0:0:
320,272,96080,1,8,0:0:0:0:
320,288,96164,1,0,0:0:0:0:
320,304,96247,1,0,0:0:0:0:
400,240,96414,1,8,0:0:0:0:
416,224,96497,1,0,0:0:0:0:
304,208,96664,1,0,0:0:0:0:
320,192,96747,1,8,0:0:0:0:
208,160,96914,1,12,0:0:0:0:
80,192,97080,5,8,0:0:0:0:
80,192,97164,1,0,0:0:0:0:
80,192,97247,1,0,0:0:0:0:
176,288,97414,5,8,0:0:0:0:
176,288,97497,1,0,0:0:0:0:
176,288,97580,1,0,0:0:0:0:
336,288,97747,5,8,0:0:0:0:
336,288,97830,1,0,0:0:0:0:
336,288,97914,1,4,0:0:0:0:
256,368,98080,5,8,0:0:0:0:
256,352,98164,1,0,0:0:0:0:
256,336,98247,1,0,0:0:0:0:
256,320,98330,1,0,0:0:0:0:
256,304,98414,1,8,0:0:0:0:
256,288,98497,1,0,0:0:0:0:
256,272,98580,1,0,0:0:0:0:
256,256,98664,1,0,0:0:0:0:
256,240,98747,1,8,0:0:0:0:
256,224,98830,1,0,0:0:0:0:
256,208,98914,1,0,0:0:0:0:
256,192,98997,1,0,0:0:0:0:
256,176,99080,1,8,0:0:0:0:
256,160,99164,1,0,0:0:0:0:
256,144,99247,1,0,0:0:0:0:
256,128,99330,1,0,0:0:0:0:
256,112,99414,5,8,0:0:0:0:
160,224,99580,1,12,0:0:0:0:
352,224,99747,1,4,0:0:0:0:
