osu file format v9

[General]
AudioFilename: CaptivAte Oath.mp3
AudioLeadIn: 1000
PreviewTime: 24832
Countdown: 0
SampleSet: Normal
StackLeniency: 0.7
Mode: 0
LetterboxInBreaks: 0

[Editor]
Bookmarks: 90725,98037,107222
DistanceSpacing: 1
BeatDivisor: 4
GridSize: 4

[Metadata]
Title:CaptivAte ~Chikai~
Artist:DJ YOSHITAKA feat.A/I
Creator:Faust
Version:Normal
Source:beatmania IIDX
Tags:AC GOLD Mixagji

[Difficulty]
HPDrainRate:5
CircleSize:4
OverallDifficulty:5
ApproachRate:7
SliderMultiplier:1.4
SliderTickRate:1

[Events]
//Background and Video events
0,0,"Chikai1.jpg"
//Break Periods
//Storyboard Layer 0 (Background)
//Storyboard Layer 1 (Fail)
//Storyboard Layer 2 (Pass)
//Storyboard Layer 3 (Foreground)
//Storyboard Sound Samples
//Background Colour Transformations
3,100,0,0,0

[TimingPoints]
825,749.985937763667,4,2,0,35,1,0
14324,374.929700681122,4,1,0,45,1,0

[Colours]
Combo1 : 243,186,109
Combo2 : 238,60,108
Combo3 : 228,253,198
Combo4 : 162,235,118

[HitObjects]
156,60,825,2,0,B|112:120|128:196,1,140
128,192,2324,1,0
256,252,3074,1,0
376,324,3824,2,0,B|420:264|404:188,1,140
404,192,5324,1,0
268,228,6074,1,0
148,156,6824,1,0
148,156,7574,1,0
148,156,8324,2,0,B|204:200|284:200,1,140
412,156,9824,1,0
360,284,10574,1,0
220,308,11324,1,0
256,192,11512,12,0,13949
168,116,14324,6,0,B|220:164|296:164,1,140
400,148,14980,1,0
336,228,15261,2,0,B|352:308,1,70
420,296,15636,1,0
488,276,15823,2,0,B|484:200,1,70
480,136,16198,1,0
384,96,16479,2,0,B|336:76|280:80,1,105
281,79,16948,1,0
220,116,17135,1,0
292,192,17417,6,0,B|292:248|264:304,1,105
220,344,17885,1,0
152,320,18073,2,0,B|116:283|100:229,1,105
172,152,18635,1,0
176,152,18729,1,0
180,152,18823,2,0,B|72:116,1,105
144,36,19385,1,0
144,36,19573,2,0,B|248:48,1,105
352,36,20135,1,0
440,96,20416,6,0,B|408:212,1,105
344,216,20885,1,0
344,216,21072,2,0,B|232:240,1,105
148,192,21635,1,0
144,192,21728,1,0
140,192,21822,2,0,B|116:248|120:308,1,105
208,352,22384,1,0
276,344,22572,2,0,B|288:240,1,105
380,192,23134,1,0
288,240,23416,6,0,B|180:236,1,105
128,192,23884,1,0
104,124,24072,2,0,B|220:104,1,105
308,140,24634,1,0
404,96,24915,1,0
320,36,25196,1,0
320,36,25384,1,0
320,36,25571,2,0,B|256:68|176:60,1,140
140,116,26134,1,0
140,116,26228,1,0
140,116,26321,6,0,B|284:160,1,140
316,216,26884,1,0
384,192,27071,2,0,B|392:120,1,70
460,128,27446,2,0,B|452:212,1,70
444,268,27821,2,0,B|388:312|312:316,1,140
256,276,28383,1,0
256,276,28477,1,0
256,276,28571,2,0,B|200:240|120:244,1,140
76,192,29133,1,0
122,243,29321,6,0,B|168:192|176:116,1,140
244,104,29883,1,0
244,104,30071,2,0,B|264:176|344:204,1,140
408,212,30633,1,0
408,212,30727,1,0
408,212,30820,1,0
452,156,31008,1,0
464,88,31195,1,0
420,32,31383,1,0
420,32,31477,1,0
420,32,31570,5,0
352,24,31758,1,0
284,44,31945,1,0
168,120,32320,2,0,B|104:160|20:156,1,140
84,248,32976,1,0
84,248,33257,1,0
96,316,33445,1,0
232,352,33820,5,0
352,280,34195,1,0
296,192,34476,1,0
296,192,34570,1,0
332,132,34757,1,0
396,100,34945,1,0
256,192,35320,12,0,38319
380,128,38694,5,0
