osu file format v9

[General]
AudioFilename: CaptivAte Oath.mp3
AudioLeadIn: 1000
PreviewTime: 24832
Countdown: 0
SampleSet: Soft
StackLeniency: 0.7
Mode: 0
LetterboxInBreaks: 0

[Editor]
DistanceSpacing: 0.6
BeatDivisor: 8
GridSize: 4

[Metadata]
Title:CaptivAte ~Chikai~
Artist:DJ YOSHITAKA feat.A/I
Creator:Faust
Version:Another
Source:beatmania IIDX
Tags:AC GOLD Mixagji

[Difficulty]
HPDrainRate:7
CircleSize:4
OverallDifficulty:8
ApproachRate:9
SliderMultiplier:1.8
SliderTickRate:1

[Events]
//Background and Video events
0,0,"Chikai2.jpg"
//Break Periods
//Storyboard Layer 0 (Background)
//Storyboard Layer 1 (Fail)
//Storyboard Layer 2 (Pass)
//Storyboard Layer 3 (Foreground)
//Storyboard Sound Samples
//Background Colour Transformations
3,100,0,0,0

[TimingPoints]
825,749.985937763667,4,2,1,50,1,0
14324,374.929700681122,4,1,1,50,1,0
26274,-133.333333333333,4,1,1,50,0,0
27540,-100,4,1,1,50,0,0
27774,-133.333333333333,4,1,1,50,0,0
29039,-100,4,1,1,50,0,0
29274,-133.333333333333,4,1,1,50,0,0
31664,-100,4,1,1,50,0,0
38506,-83.3333333333333,4,1,1,50,0,0
61471,-166.666666666667,4,1,1,5,0,0
62221,-100,4,1,1,50,0,0
70282,-133.333333333333,4,1,1,50,0,0
71032,-100,4,1,1,50,0,0
74219,-133.333333333333,4,1,1,50,0,0
74781,-100,4,1,1,50,0,0
98214,-133.333333333333,4,1,1,50,0,0
98776,-100,4,2,1,50,0,0
104025,-100,4,1,1,50,0,0

[Colours]
Combo1 : 239,170,95
Combo2 : 238,60,108
Combo3 : 230,198,138
Combo4 : 186,239,126

[HitObjects]
184,168,825,1,2
188,228,1074,1,0
192,288,1324,1,0
320,336,1574,1,2
324,276,1824,1,0
328,216,2074,1,0
184,168,2324,1,2
168,224,2574,1,0
152,280,2824,1,0
320,336,3074,1,2
336,280,3324,1,0
352,224,3574,1,0
184,168,3824,5,2
124,180,4074,1,0
64,184,4324,1,0
64,184,4574,1,0
96,236,4824,1,0
140,280,5074,1,0
140,280,5324,1,2
200,264,5574,1,0
260,252,5824,1,0
260,252,6074,1,2
260,252,6574,1,0
260,252,6824,5,0
320,264,7074,1,0
380,260,7324,1,0
472,152,7574,1,2
412,144,7824,1,0
356,120,8074,1,2
220,80,8324,1,2
160,76,8574,1,0
100,88,8824,1,2
100,88,9074,1,2
100,88,9574,1,0
100,88,9824,5,0
104,148,10074,1,0
112,208,10324,1,0
216,296,10574,1,0
220,236,10824,1,0
224,176,11074,1,0
308,104,11324,1,2
328,160,11574,1,0
352,216,11824,1,2
352,216,12074,1,0
256,192,12168,12,8,13949
40,152,14324,6,0,B|108:92|208:88,1,180,2|0
312,104,14886,1,0
312,104,14980,2,0,B|336:168|308:244,1,135,2|0
420,228,15448,1,8
312,236,15636,5,0
312,236,15729,1,0
312,236,15823,2,0,B|264:268|168:264,1,135,2|0
184,264,16198,1,8
148,156,16386,1,0
148,156,16573,2,0,B|96:124|16:128,2,135,2|0|0
252,128,17323,5,0
252,128,17417,2,0,B|216:188|232:268,1,135,2|8
312,328,17885,1,0
372,236,18073,2,0,B|428:196|508:192,1,135,2|0
500,192,18448,1,8
456,96,18635,1,0
456,96,18729,1,0
456,96,18823,2,0,B|388:116|320:88,1,135,2|0
323,89,19198,1,8
220,212,19385,1,0
220,212,19573,6,0,B|292:224|340:268,1,135,2|0
200,352,20135,2,0,B|136:376|60:360,2,135,0|0|8
296,304,20885,1,0
296,304,21072,2,0,B|320:260|320:216,1,90,0|0
228,164,21447,2,0,B|188:188|168:236,1,90,8|0
170,231,21728,1,0
170,231,21822,1,2
296,304,22103,1,0
456,288,22384,1,0
456,288,22572,1,2
404,136,22853,2,0,B|340:160|268:160,1,135,2|0
164,160,23322,5,0
164,160,23416,2,0,B|224:288,1,135,2|8
316,228,23884,1,0
316,228,24072,2,0,B|376:356,2,135,2|0|0
356,128,24822,1,0
356,128,24915,2,0,B|496:108,2,135,2|8|0
356,128,25571,1,2
356,128,25759,1,0
320,228,25946,1,8
284,256,26040,1,0
244,276,26134,1,2
200,288,26228,1,0
160,296,26321,6,0,B|100:208|116:132|184:64|264:52|368:136,1,404.99998793006,2|0
420,192,27634,1,0
420,192,27727,1,0
420,192,27821,6,0,B|424:356|248:432|136:284,1,404.99998793006,2|0
64,252,29133,1,0
64,252,29227,1,0
64,252,29321,6,0,B|-2:92|157:-28|302:83,2,404.99998793006,2|0|2
176,328,31851,1,0
312,328,32133,2,0,B|384:332|444:296,2,135,0|2|8
244,268,32883,5,0
244,268,32976,1,0
244,268,33070,1,2
200,192,33257,1,0
200,192,33351,1,0
200,192,33445,1,8
280,152,33632,5,0
280,152,33726,1,0
280,152,33820,2,0,B|352:120|416:132,2,135,2|0|0
200,192,34570,1,2
200,192,34663,1,0
200,192,34757,1,2
200,192,34851,2,0,B|144:232|64:228,1,135,2|8
92,316,35320,5,0
92,316,35413,2,0,B|236:356,1,135,2|8
304,316,35882,1,0
308,316,35976,1,0
312,316,36069,1,2
316,316,36163,1,2
320,316,36257,1,2
324,316,36351,1,2
328,316,36444,1,2
332,316,36538,1,2
336,316,36632,1,2
340,316,36726,1,2
344,316,36819,6,2,B|372:316,16,22.5
136,352,37850,1,0
136,352,38132,1,0
328,192,38319,5,0
328,192,38694,2,0,B|284:228|216:224,1,108.000002574921
124,196,39069,2,0,B|20:156,1,108.000002574921,2|0
56,56,39444,2,0,B|164:72,1,108.000002574921,2|0
192,76,39725,1,0
216,80,39819,2,0,B|256:180,1,108.000002574921,2|0
320,92,40194,2,0,B|360:192,1,108.000002574921,2|0
444,260,40569,1,2
360,328,40756,2,0,B|268:376|144:344,1,216.000005149841
40,232,41318,2,0,B|116:160|260:188,1,216.000005149841,2|0
328,256,41881,1,0
432,228,42068,2,0,B|440:160,1,54.0000012874604,2|0
348,116,42349,2,0,B|300:148,1,54.0000012874604
204,188,42631,5,2
204,188,42724,1,0
204,188,42818,2,0,B|188:304,1,108.000002574921,2|0
104,228,43193,2,0,B|88:344,1,108.000002574921,2|0
192,364,43568,1,0
300,348,43755,2,0,B|420:336|480:224,1,216.000005149841,2|0
412,144,44318,6,0,B|352:88|252:100,1,162.000003862381,2|0
260,100,44693,1,0
200,192,44880,1,0
292,252,45068,2,0,B|200:320|80:304,1,216.000005149841,2|0
36,208,45630,1,0
88,304,45818,2,0,B|116:352,1,54.0000012874604,2|0
220,320,46099,2,0,B|256:360,1,54.0000012874604
364,352,46380,1,0
464,308,46567,2,0,B|528:224|492:96,1,216.000005149841,2|0
388,76,47130,5,0
388,76,47224,1,0
388,76,47317,2,0,B|168:112,1,216.000005149841,2|0
44,228,47880,2,0,B|256:192,1,216.000005149841,2|0
220,296,48442,2,2,B|436:256,2,216.000005149841
112,320,49379,1,0
36,244,49567,2,0,B|28:188|56:128,1,108.000002574921,2|0
152,96,49942,2,0,B|256:120,1,108.000002574921,2|0
257,120,50223,1,0
257,120,50317,6,0,B|264:172,1,54.0000012874604,2|0
372,192,50598,2,0,B|384:252,1,54.0000012874604
408,352,50879,1,0
408,352,51067,2,0,B|336:312|248:320,1,162.000003862381,2|0
251,319,51442,1,8
144,336,51629,1,0
144,336,51723,1,0
144,336,51816,6,0,B|112:228,1,108.000002574921
208,180,52191,2,0,B|292:252,1,108.000002574921,2|0
396,276,52566,1,0
488,216,52754,2,0,B|404:156|272:192,1,216.000005149841,2|0
280,192,53316,2,0,B|156:225|72:165,1,216.000005149841,2|0
100,60,53879,1,0
208,72,54066,2,0,B|328:84,1,108.000002574921,2|0
476,192,54441,2,0,B|348:176,1,108.000002574921,10|0
368,178,54722,1,0
368,178,54816,5,0
292,252,55003,1,0
336,352,55191,1,2
408,272,55378,2,0,B|176:228,2,216.000005149841
408,272,56316,6,0,B|256:328,1,162.000003862381
255,328,56691,1,0
152,296,56878,1,0
68,228,57065,2,0,B|24:152|92:72|184:116,1,216.000005149841,2|8
256,192,57628,1,0
337,272,57815,2,0,B|420:312|488:232|444:156,1,216.000005149841,2|0
352,104,58378,1,0
244,112,58565,1,2
244,112,58659,1,2
244,112,58753,1,2
156,76,58940,2,0,B|112:112|96:176,1,108.000002574921,10|0
100,168,59221,1,0
100,168,59315,6,2,B|46:199,7,54.0000012874604
180,200,60065,2,2,B|228:172,7,54.0000012874604
140,272,60815,2,2,B|112:288,13,27.0000006437302
140,272,61565,6,0,B|220:312|304:280,1,162.000003862381
304,192,62315,1,2
392,176,62502,1,0
444,248,62689,1,0
384,316,62877,2,0,B|304:272|192:308,1,180
120,324,63439,1,10
104,236,63627,1,0
104,236,63814,5,0
192,256,64002,1,0
280,248,64189,1,2
360,208,64377,1,0
360,208,64939,1,8
360,208,65314,2,0,B|432:172|412:80|328:84,1,180,2|0
248,92,65876,1,0
248,92,66064,2,0,B|220:280,1,180,2|0
132,292,66626,5,0
132,292,66720,1,0
132,292,66814,1,2
56,240,67001,1,0
36,152,67189,1,2
56,64,67376,1,0
212,156,67751,1,0
212,156,68126,5,0
280,216,68313,1,2
368,228,68501,1,0
452,192,68688,1,8
492,112,68876,2,0,B|412:68|312:80,1,180,2|0
317,79,69438,1,2
256,144,69626,1,2
256,144,69813,5,0
228,228,70001,1,0
220,316,70188,1,10
304,352,70375,2,0,B|224:292|104:324,1,202.49999396503,2|0
92,232,71125,1,0
92,232,71219,1,0
92,232,71313,1,0
172,188,71500,5,0
240,248,71688,1,10
328,268,71875,1,0
268,336,72063,1,0
268,336,72813,1,2
328,268,73000,1,2
408,224,73187,1,0
496,212,73375,1,0
496,212,73562,5,0
408,224,73750,1,0
324,192,73937,1,2
256,132,74125,1,0
220,44,74312,2,0,B|264:20|328:44|336:92,1,134.999995976687,2|8
324,192,74875,1,0
324,192,74968,1,0
324,192,75062,2,0,B|292:324,1,135,2|0
160,348,75625,1,0
160,348,75812,1,2
144,260,75999,1,0
128,172,76187,1,2
216,192,76374,5,0
216,192,76468,1,0
216,192,76562,2,0,B|288:208|356:192,2,135,0|2|0
128,172,77312,1,2
56,120,77499,1,0
8,44,77687,1,8
96,44,77874,5,0
96,44,77968,1,0
96,44,78062,2,0,B|196:48,1,90
256,104,78436,2,0,B|352:108,1,90,2|0
345,107,78718,1,0
345,107,78811,1,0
424,156,78999,1,0
412,244,79186,1,2
324,260,79374,1,0
284,180,79561,1,0
284,180,79842,1,0
284,180,80124,1,0
284,180,80311,2,0,B|204:128|104:140,1,180,2|8
24,152,80874,5,0
24,152,80967,1,0
24,152,81061,1,2
56,284,81342,1,0
188,248,81623,1,0
188,248,81811,5,2
276,244,81998,1,0
360,276,82186,1,2
412,348,82373,2,0,B|332:380|232:360,1,180,2|0
148,328,82936,2,0,B|208:264|184:156,1,180,8|2
176,128,83404,1,0
160,100,83498,1,0
192,108,83592,1,0
224,108,83685,1,0
256,104,83779,1,0
284,92,83873,1,0
308,72,83967,1,0
328,48,84060,6,2,B|340:24,16,22.5
448,192,85373,1,0
220,156,85560,1,2
348,284,85841,1,0
348,284,86123,1,10
144,328,86310,1,2
144,328,86685,1,0
212,192,89122,6,0,B|256:204|304:192,1,90
300,192,89684,1,0
160,192,92309,1,0
348,192,92684,1,0
212,192,94933,2,0,B|256:204|304:192,1,90
324,264,95308,1,0
256,296,95496,1,0
188,264,95683,1,0
256,192,98120,1,2
256,192,98308,6,0,B|392:192,1,134.999995976687
460,192,98870,1,2
432,108,99058,2,0,B|340:108,1,90
256,88,99433,2,0,B|168:88,1,90
108,156,99807,2,0,B|208:156,1,90
256,228,100182,2,0,B|360:228,1,90
300,308,100557,2,0,B|200:308,1,90
132,356,100932,2,0,B|40:356,1,90,0|2
168,228,101307,6,0,B|256:260|348:228,1,180
344,229,101870,1,2
436,232,102057,2,0,B|444:136,1,90
304,40,102432,2,0,B|296:132,1,90,0|2
296,129,102713,1,0
296,129,102807,1,0
144,232,102994,1,0
144,232,103088,1,0
144,232,103182,2,0,B|152:136,1,90
296,129,103557,1,0
296,129,103651,1,0
296,128,103744,2,0,B|288:220,1,90,2|0
276,336,104119,1,0
160,352,104307,1,2
392,324,104682,5,2
392,324,104775,1,0
392,324,104869,1,0
212,236,105056,1,2
212,236,105150,1,0
212,236,105244,1,0
404,192,105431,1,2
404,192,105525,1,0
404,192,105619,1,0
292,228,105806,5,2
200,156,105994,1,2
84,156,106181,1,2
84,156,106275,1,0
84,156,106369,1,0
304,104,106556,1,2
304,104,106650,1,0
304,104,106744,1,0
84,156,106931,1,2
84,156,107025,1,0
84,156,107119,1,0
144,256,107306,5,2
144,256,107400,1,2
144,256,107494,1,2
144,256,107587,1,2
144,256,107681,1,2
144,256,107775,1,2
144,256,107868,1,2
144,256,107962,1,2
144,256,108056,1,2
144,256,108150,1,2
144,256,108243,1,2
144,256,108337,1,2
144,256,108431,1,2
144,256,108525,1,2
144,256,108618,1,2
144,256,108712,1,0
144,256,108806,6,2,B|180:256,16,22.5
304,332,109837,1,0
476,296,110118,1,2
476,296,110306,6,0,B|304:240,1,180,2|0
196,192,110868,1,0
196,192,110962,1,0
196,192,111055,2,0,B|220:280,1,90,2|0
316,352,111337,2,0,B|292:265,1,90
196,192,111618,2,0,B|220:280,1,90,0|2
76,280,111993,2,0,B|52:193,1,90
132,72,112368,1,0
132,72,112555,2,0,B|224:84,1,90,2|0
380,156,112836,2,0,B|290:144,1,90
290,144,113117,1,2
148,156,113305,6,0,B|132:196|140:252,1,90,2|0
139,244,113586,1,0
284,248,113774,2,0,B|292:296,1,45
424,352,114055,1,2
424,352,114242,2,0,B|428:304,1,45
340,192,114523,2,0,B|344:144,1,45
204,192,114805,1,2
204,192,114992,2,0,B|196:248,1,45
52,228,115273,2,0,B|44:280,1,45
168,352,115555,1,2
308,320,115742,1,0
308,320,115836,1,0
308,320,115929,2,0,B|324:280|320:232,1,90,2|0
460,192,116304,6,0,B|472:240|464:288,1,90,2|0
308,320,116586,2,0,B|320:272|312:224,1,90
200,152,116867,2,0,B|188:200|196:248,1,90,0|2
60,296,117242,1,0
60,296,117335,1,0
204,316,117523,1,0
204,316,117617,1,0
336,256,117804,5,2
408,132,117992,1,0
408,132,118085,1,0
476,260,118273,1,0
476,260,118366,1,0
336,256,118554,5,2
336,256,118741,2,0,B|364:308,2,45
260,132,119116,1,2
124,88,119304,1,2
104,124,119398,1,2
96,164,119491,1,2
108,204,119585,1,2
140,228,119679,1,2
180,240,119772,1,2
220,232,119866,1,2
252,208,119960,1,2
256,168,120054,6,2,B|256:144,14,22.5
328,192,120804,2,0,B|352:192,13,22.5
256,280,121553,1,2
36,228,121835,1,0
36,228,122116,1,2
256,280,122303,1,0
256,116,122678,1,0
